osu file format v14

[General]
AudioFilename: audio.mp3
AudioLeadIn: 0
PreviewTime: 62483
Countdown: 0
SampleSet: Soft
StackLeniency: 0.2
Mode: 0
LetterboxInBreaks: 0
WidescreenStoryboard: 1

[Editor]
DistanceSpacing: 0.9
BeatDivisor: 4
GridSize: 4
TimelineZoom: 2.899999

[Metadata]
Title:No.7 (TV Size)
TitleUnicode:No.7 (TV Size)
Artist:Jibaku Shounen Band
ArtistUnicode:地縛少年バンド
Creator:Ryuusei Aika
Version:kanor's Insane
Source:地縛少年花子くん
Tags:Ryxliee Bakugo- Stratos Akito kanor CoLouRed GlaZeE airincat anime japanese rock jrock j-rock number 7 no seven hanako san kun Toilet bound Toilet-bound Hanako-kun Yashiro Nene Minamoto Kou Mitsuba Sousuke 生田鷹司 × オーイシマサヨシ x ZiNG Youji Ikuta from PENGUIN RESEARCH Masayoshi Ooishi opening op anchor
BeatmapID:3276314
BeatmapSetID:1603819

[Difficulty]
HPDrainRate:6
CircleSize:4
OverallDifficulty:8
ApproachRate:9
SliderMultiplier:1.6
SliderTickRate:1

[Events]
//Background and Video events
0,0,"BG.jpeg",0,0
//Break Periods
//Storyboard Layer 0 (Background)
//Storyboard Layer 1 (Fail)
//Storyboard Layer 2 (Pass)
//Storyboard Layer 3 (Foreground)
//Storyboard Layer 4 (Overlay)
//Storyboard Sound Samples

[TimingPoints]
135,315.789473684211,4,2,1,40,1,0
6292,-83.3333333333333,4,2,1,80,0,0
6529,-83.3333333333333,4,2,1,5,0,0
6608,-83.3333333333333,4,2,1,70,0,0
8471,-83.3333333333333,4,2,1,60,0,0
8740,-83.3333333333333,4,2,1,30,0,0
8977,-200,4,2,1,30,0,0
10366,-200,4,2,1,50,0,0
10398,-83.3333333333333,4,2,1,50,0,0
10792,-83.3333333333333,4,2,1,5,0,0
10871,-83.3333333333333,4,2,1,50,0,0
11187,-83.3333333333333,4,2,1,60,0,0
11503,-83.3333333333333,4,2,1,70,0,0
20897,-83.3333333333333,4,2,1,5,0,0
20977,-66.6666666666667,4,2,1,70,0,0
21608,-83.3333333333333,4,2,1,70,0,0
31713,-83.3333333333333,4,2,1,56,0,0
32503,-100,4,2,1,56,0,0
34240,-83.3333333333333,4,2,1,56,0,0
35029,-100,4,2,1,56,0,0
36766,-100,4,2,1,66,0,0
39213,-100,4,2,1,5,0,0
39292,-100,4,2,1,66,0,0
41819,-83.3333333333333,4,2,1,56,0,0
42608,-100,4,2,1,56,0,0
46871,-100,4,2,1,66,0,0
51450,-100,4,2,1,60,0,0
51924,-133.333333333333,4,2,1,78,0,0
52556,-133.333333333333,4,2,1,66,0,0
53187,-133.333333333333,4,2,1,78,0,0
54055,-133.333333333333,4,2,1,5,0,0
54135,-133.333333333333,4,2,1,60,0,0
54450,-133.333333333333,4,2,1,66,0,0
55713,-133.333333333333,4,2,1,78,0,0
56345,-133.333333333333,4,2,1,66,0,0
56739,-133.333333333333,4,2,1,5,0,0
56819,-133.333333333333,4,2,1,66,0,0
56977,-133.333333333333,4,2,1,78,0,0
57450,-133.333333333333,4,2,1,66,0,0
58240,-133.333333333333,4,2,1,78,0,0
58634,-133.333333333333,4,2,1,5,0,0
58713,-133.333333333333,4,2,1,78,0,0
58871,-133.333333333333,4,2,1,66,0,0
59503,-100,4,2,1,70,0,0
59819,-83.3333333333333,4,2,1,70,0,0
60766,-83.3333333333333,4,2,1,80,0,0
62029,-133.333333333333,4,2,1,50,0,0
62503,-133.333333333333,4,2,1,50,0,0
63135,-83.3333333333333,4,2,1,80,0,0
72213,-83.3333333333333,4,2,1,5,0,0
72292,-83.3333333333333,4,2,1,80,0,0
72924,-83.3333333333333,4,2,1,74,0,0
73240,-83.3333333333333,4,2,1,80,0,0
81608,-83.3333333333333,4,2,1,90,0,0
81845,-83.3333333333333,4,2,1,80,0,0
82082,-83.3333333333333,4,2,1,80,0,0
82713,-83.3333333333333,4,2,1,80,0,0
83029,-83.3333333333333,4,2,1,64,0,0
83187,-333.333333333333,4,2,1,64,0,0
83345,-333.333333333333,4,2,1,70,0,0
84766,-333.333333333333,4,2,24,20,0,0
84845,-333.333333333333,4,2,2,20,0,0
84924,-333.333333333333,4,2,24,30,0,0
85003,-333.333333333333,4,2,2,40,0,0
85082,-333.333333333333,4,2,24,50,0,0
85161,-333.333333333333,4,2,2,60,0,0
85240,-333.333333333333,4,2,24,70,0,0
85319,-333.333333333333,4,2,2,80,0,0
85398,-333.333333333333,4,2,24,90,0,0
85477,-333.333333333333,4,2,2,5,0,0
85556,-333.333333333333,4,2,1,70,0,0
87924,-333.333333333333,4,2,1,80,0,0
88082,-333.333333333333,4,2,1,86,0,0

[Colours]
Combo1 : 255,128,192
Combo2 : 170,85,85

[HitObjects]
24,352,5661,5,2,0:0:0:0:
88,316,5819,1,2,0:0:0:0:
108,244,5977,1,2,0:0:0:0:
84,172,6135,1,2,0:0:0:0:
200,44,6292,6,0,B|84:28|140:112|20:96,1,191.999994140625,6|8,1:2|1:3,0:0:0:0:
180,164,6766,1,8,1:2:0:0:
180,164,6924,2,0,L|177:116,1,47.9999985351563,8|0,1:3|0:0,0:0:0:0:
200,44,7082,5,14,1:2:0:0:
284,32,7240,1,0,1:2:0:0:
284,44,7319,1,10,1:2:0:0:
372,28,7477,1,0,1:2:0:0:
372,40,7556,1,10,1:2:0:0:
488,144,7713,5,10,1:2:0:0:
404,132,7871,1,0,1:2:0:0:
404,144,7950,1,8,1:2:0:0:
320,124,8108,1,0,1:2:0:0:
320,136,8187,1,8,1:2:0:0:
484,272,8503,5,0,1:0:0:0:
492,256,8582,1,0,1:0:0:0:
500,240,8661,2,0,B|432:236|432:236|388:272|388:272|332:264,1,143.999995605469,12|0,0:0|0:0,0:0:0:0:
369,269,8977,6,0,L|377:317,1,40,0|2,0:0|0:0,0:0:0:0:
364,272,9450,6,0,L|372:320,1,40,0|2,0:0|0:0,0:0:0:0:
360,276,9924,6,0,L|368:324,1,40,0|2,0:0|0:0,0:0:0:0:
168,364,10398,5,0,1:0:0:0:
168,364,10477,1,0,1:0:0:0:
168,364,10556,2,0,P|208:312|288:348,1,143.999995605469,12|0,0:0|2:0,0:0:0:0:
276,329,10871,6,0,L|272:277,1,47.9999985351563,8|8,0:0|0:0,0:0:0:0:
152,200,11029,2,0,L|156:252,1,47.9999985351563,8|8,0:0|0:0,0:0:0:0:
284,180,11187,5,10,0:0:0:0:
288,160,11266,1,10,0:0:0:0:
292,140,11345,1,10,0:0:0:0:
296,120,11424,1,10,0:0:0:0:
328,104,11503,6,0,B|368:96|368:96|384:108|384:108|424:104,1,95.9999970703126,4|0,1:2|0:0,0:0:0:0:
272,24,11819,2,0,B|232:32|232:32|216:20|216:20|176:24,1,95.9999970703126,8|2,0:0|0:0,0:0:0:0:
12,112,12135,5,2,0:2:0:0:
84,96,12293,1,2,1:2:0:0:
32,28,12450,1,8,0:2:0:0:
64,176,12608,1,2,0:0:0:0:
180,23,12766,5,0,1:0:0:0:
196,97,12924,1,2,1:2:0:0:
144,196,13082,2,0,P|185:174|248:200,1,95.9999970703126,8|2,0:0|0:0,0:0:0:0:
267,357,13398,5,0,1:0:0:0:
283,283,13556,1,2,1:2:0:0:
231,184,13714,2,0,P|272:205|335:180,1,95.9999970703126,8|0,0:0|0:0,0:0:0:0:
384,148,13950,5,8,0:0:0:0:
384,148,14029,2,0,B|404:180|404:180|388:272,1,95.9999970703126,2|0,1:2|0:0,0:0:0:0:
504,328,14345,5,8,0:0:0:0:
436,368,14503,1,2,0:0:0:0:
368,312,14661,5,2,1:2:0:0:
267,357,14819,1,2,1:2:0:0:
176,260,14977,5,8,0:0:0:0:
32,348,15135,1,2,0:0:0:0:
108,368,15292,5,0,1:0:0:0:
28,224,15450,1,8,0:1:0:0:
76,164,15608,2,0,P|84:88|76:4,1,143.999995605469,8|0,0:1|0:0,0:0:0:0:
92,164,15924,2,0,P|100:88|92:4,1,143.999995605469,10|0,1:2|0:0,0:0:0:0:
180,68,16240,1,10,1:2:0:0:
444,104,16398,5,8,0:0:0:0:
448,84,16477,1,8,0:0:0:0:
452,68,16556,2,0,B|368:68|412:4|316:24,1,143.999995605469,6|0,1:2|0:0,0:0:0:0:
323,22,16871,2,0,L|335:142,1,95.9999970703126,8|2,0:0|1:2,0:0:0:0:
208,136,17187,5,0,1:0:0:0:
340,192,17345,1,2,1:2:0:0:
208,136,17503,2,0,P|192:92|208:40,1,95.9999970703126,10|0,0:0|0:0,0:0:0:0:
340,192,17819,5,0,1:0:0:0:
208,248,17977,1,0,1:0:0:0:
340,192,18135,2,0,P|356:148|340:96,1,95.9999970703126,10|2,0:0|0:0,0:0:0:0:
392,260,18450,6,0,L|512:280,1,95.9999970703126,0|2,1:0|1:2,0:0:0:0:
176,356,18766,2,0,L|296:336,1,95.9999970703126,10|0,0:0|0:0,0:0:0:0:
288,348,19003,5,8,0:0:0:0:
304,352,19082,2,0,P|272:285|312:225,1,143.999995605469,6|0,1:2|0:0,0:0:0:0:
304,229,19398,1,8,0:0:0:0:
256,24,19713,5,0,1:0:0:0:
412,48,19871,1,2,1:2:0:0:
256,24,20029,2,0,L|144:36,1,95.9999970703126,10|2,0:0|0:0,0:0:0:0:
100,88,20345,5,0,1:0:0:0:
256,112,20503,2,0,L|252:176,1,47.9999985351563,8|0,1:1|0:0,0:0:0:0:
100,88,20661,2,0,L|-12:100,1,95.9999970703126,8|0,1:1|0:0,0:0:0:0:
156,304,20977,6,0,P|168:220|172:100,2,180.000006866455,4|4|4,1:3|1:3|1:3,0:0:0:0:
76,384,21608,6,0,B|84:344|84:344|72:328|72:328|76:288,1,95.9999970703126,6|0,1:2|0:0,0:0:0:0:
248,280,21924,2,0,B|240:320|240:320|252:336|252:336|248:376,1,95.9999970703126,8|0,0:0|0:0,0:0:0:0:
412,360,22240,5,2,1:2:0:0:
396,288,22398,1,2,1:2:0:0:
332,340,22555,1,8,0:0:0:0:
480,308,22713,1,2,0:0:0:0:
488,156,22871,5,0,1:0:0:0:
488,156,23029,1,2,1:2:0:0:
424,108,23187,2,0,P|402:67|428:4,1,95.9999970703126,8|2,0:0|0:0,0:0:0:0:
488,156,23503,5,0,1:0:0:0:
488,156,23661,1,2,1:2:0:0:
440,220,23819,2,0,P|399:242|336:216,1,95.9999970703126,10|0,0:0|0:0,0:0:0:0:
288,192,24055,5,8,0:0:0:0:
288,192,24134,2,0,B|268:160|268:160|284:68,1,95.9999970703126,2|0,1:2|0:0,0:0:0:0:
196,32,24450,5,8,0:0:0:0:
272,24,24608,1,0,0:0:0:0:
148,96,24766,5,2,1:2:0:0:
34,84,24924,1,0,1:0:0:0:
192,160,25082,5,8,0:0:0:0:
363,142,25240,1,2,0:0:0:0:
277,102,25397,5,0,1:0:0:0:
356,252,25555,1,8,0:1:0:0:
440,216,25713,2,0,B|463:112|463:112|476:161,1,143.999995605469,8|0,0:1|0:0,0:0:0:0:
444,220,26029,2,0,B|467:116|467:116|480:165,1,143.999995605469,10|0,1:2|0:0,0:0:0:0:
363,142,26345,1,10,1:2:0:0:
476,296,26503,5,8,0:0:0:0:
480,316,26582,1,8,0:0:0:0:
484,332,26661,2,0,B|400:332|444:268|348:288,1,143.999995605469,6|0,1:2|0:0,0:0:0:0:
355,286,26977,2,0,B|343:330|343:330|363:402,1,95.9999970703126,8|2,0:0|0:0,0:0:0:0:
188,316,27292,5,0,1:0:0:0:
28,328,27450,1,2,1:2:0:0:
104,364,27608,2,0,L|116:256,1,95.9999970703126,10|2,0:0|0:0,0:0:0:0:
30,220,27924,5,0,1:0:0:0:
190,232,28082,1,0,1:0:0:0:
114,268,28240,2,0,L|102:160,1,95.9999970703126,10|2,0:0|0:0,0:0:0:0:
52,16,28556,2,0,L|40:124,1,95.9999970703126,0|2,1:0|1:2,0:0:0:0:
208,148,28871,2,0,L|220:40,1,95.9999970703126,10|0,0:0|0:0,0:0:0:0:
220,36,29108,5,8,0:0:0:0:
224,20,29187,2,0,P|229:94|294:125,1,143.999995605469,6|0,1:2|0:0,0:0:0:0:
285,125,29503,1,8,0:0:0:0:
293,134,29818,5,0,1:0:0:0:
448,149,29976,1,2,1:2:0:0:
372,185,30134,2,0,L|368:73,1,95.9999970703126,10|2,0:0|0:0,0:0:0:0:
360,268,30450,5,0,1:0:0:0:
504,360,30608,1,8,0:1:0:0:
504,273,30766,1,8,0:1:0:0:
429,316,30924,1,2,0:0:0:0:
296,360,31082,6,0,L|292:300,1,47.9999985351563,8|0,0:1|0:0,0:0:0:0:
204,292,31240,2,0,L|208:352,1,47.9999985351563,8|8,0:0|0:0,0:0:0:0:
128,356,31398,5,8,0:0:0:0:
112,352,31477,1,8,0:0:0:0:
88,356,31556,1,8,0:0:0:0:
68,352,31635,1,8,0:0:0:0:
48,360,31713,6,0,P|36:288|56:164,2,191.999994140625,6|10|2,1:2|0:0|1:2,0:0:0:0:
136,260,32503,1,0,1:0:0:0:
204,292,32661,1,8,0:0:0:0:
204,292,32977,5,0,1:2:0:0:
272,260,33135,1,2,0:0:0:0:
204,220,33292,1,8,0:0:0:0:
136,260,33450,1,2,0:0:0:0:
204,292,33608,5,0,1:0:0:0:
336,224,33766,1,2,1:2:0:0:
408,256,33924,2,0,B|396:292|396:292|408:340,1,80,0|8,0:0|0:0,0:0:0:0:
484,332,34161,5,8,0:0:0:0:
484,332,34240,2,0,B|456:328|420:348|420:348|364:332|364:332|344:372|284:364,2,191.999994140625,6|10|2,1:2|0:0|1:2,0:0:0:0:
500,216,35029,1,0,0:0:0:0:
428,184,35187,2,0,B|440:148|440:148|428:100,1,80,8|2,0:0|0:0,0:0:0:0:
488,40,35503,5,0,1:0:0:0:
360,72,35661,1,2,1:2:0:0:
288,16,35819,2,0,P|240:68|176:40,1,120,8|0,0:0|0:0,0:0:0:0:
180,52,36135,5,8,0:0:0:0:
163,38,36213,1,8,0:0:0:0:
142,34,36292,1,8,0:0:0:0:
122,38,36371,1,8,0:0:0:0:
105,51,36450,1,4,1:3:0:0:
105,51,36766,6,0,P|112:116|96:192,1,120,4|0,1:2|0:0,0:0:0:0:
24,160,37082,2,0,P|17:126|20:64,1,80,10|0,0:0|0:0,0:0:0:0:
184,176,37398,1,2,1:2:0:0:
184,176,37556,1,0,1:0:0:0:
80,240,37713,2,0,P|36:268|-16:256,1,80,8|2,0:0|0:0,0:0:0:0:
148,344,38029,6,0,B|188:364|188:364|280:340,1,120,0|0,1:0|0:0,0:0:0:0:
284,340,38345,2,0,B|328:332|328:332|368:352,1,80,8|2,0:0|0:0,0:0:0:0:
416,280,38661,1,2,1:2:0:0:
462,176,38819,1,0,1:0:0:0:
387,205,38977,1,10,0:0:0:0:
490,251,39135,1,0,0:0:0:0:
352,136,39292,6,0,L|364:44,1,80,10|0,0:0|1:0,0:0:0:0:
248,100,39608,5,0,1:0:0:0:
248,100,39766,2,0,L|260:8,1,80,8|2,0:0|1:2,0:0:0:0:
136,124,40082,5,0,1:0:0:0:
136,124,40240,2,0,L|148:32,1,80,8|0,0:0|1:0,0:0:0:0:
248,100,40556,6,0,L|236:192,1,80,10|0,1:2|1:0,0:0:0:0:
32,184,40871,5,0,1:0:0:0:
32,184,41029,2,0,L|44:92,1,80,10|0,0:0|1:0,0:0:0:0:
128,196,41345,5,10,0:0:0:0:
64,286,41503,1,8,0:0:0:0:
84,278,41582,1,8,0:0:0:0:
104,278,41661,1,8,0:0:0:0:
120,286,41740,1,8,0:0:0:0:
116,314,41819,6,0,L|136:122,2,191.999994140625,6|10|2,1:2|0:2|1:2,0:0:0:0:
56,364,42608,1,0,1:0:0:0:
116,314,42766,2,0,P|148:294|220:302,1,80,8|2,0:0|0:0,0:0:0:0:
328,356,43082,5,0,0:0:0:0:
256,336,43240,1,2,1:2:0:0:
400,316,43398,5,10,0:0:0:0:
472,296,43556,1,2,0:0:0:0:
352,252,43713,5,2,1:2:0:0:
280,232,43871,2,0,P|268:189|265:148,1,80,2|0,1:2|0:0,0:0:0:0:
464,16,44187,1,2,0:0:0:0:
472,92,44345,5,2,1:2:0:0:
400,64,44503,1,0,0:0:0:0:
464,16,44661,1,10,0:2:0:0:
472,92,44819,1,0,0:0:0:0:
248,36,44977,6,0,B|288:48|288:48|344:28,1,80,2|2,1:2|1:2,0:0:0:0:
172,68,45292,2,0,B|112:44|112:44|52:68,1,120,10|0,0:2|0:0,0:0:0:0:
44,72,45608,5,0,0:0:0:0:
28,232,45766,1,8,0:1:0:0:
24,152,45924,2,0,B|96:144|64:200|156:192,1,120,8|0,0:1|0:0,0:0:0:0:
132,192,46240,5,2,1:2:0:0:
216,184,46398,1,8,0:0:0:0:
216,207,46476,1,8,0:0:0:0:
207,229,46555,1,8,0:0:0:0:
191,247,46634,1,8,0:0:0:0:
179,268,46713,1,8,0:0:0:0:
175,292,46792,1,8,0:0:0:0:
176,316,46871,6,0,P|124:312|56:332,1,120,6|0,1:2|0:0,0:0:0:0:
59,330,47187,2,0,L|47:242,1,80,10|0,0:0|0:0,0:0:0:0:
176,316,47503,5,2,1:2:0:0:
248,352,47661,1,0,1:0:0:0:
328,336,47819,2,0,L|344:224,1,80,8|2,0:0|0:0,0:0:0:0:
512,164,48135,5,0,1:0:0:0:
440,200,48293,1,2,1:2:0:0:
360,184,48451,2,0,L|344:72,1,80,8|2,0:0|0:0,0:0:0:0:
440,12,48766,5,2,1:2:0:0:
512,48,48924,1,0,1:0:0:0:
348,104,49082,2,0,B|300:104|300:104|276:84|276:84|216:80,1,120,10|8,0:0|0:0,0:0:0:0:
235,81,49398,6,0,B|187:81|187:81|163:101|163:101|103:105,1,120,6|0,1:2|0:0,0:0:0:0:
122,103,49713,2,0,P|108:59|118:23,1,80,10|2,0:2|0:2,0:0:0:0:
44,152,50029,5,2,1:2:0:0:
44,152,50187,1,0,1:2:0:0:
184,176,50345,2,0,P|197:219|188:256,1,80,10|2,0:2|0:2,0:0:0:0:
36,364,50661,5,2,1:2:0:0:
82,260,50819,1,0,1:2:0:0:
7,289,50977,1,8,0:1:0:0:
110,335,51135,1,8,0:1:0:0:
232,360,51292,5,8,0:0:0:0:
256,368,51371,1,0,0:0:0:0:
280,360,51450,1,0,1:0:0:0:
402,335,51608,1,10,0:0:0:0:
505,289,51766,1,2,0:0:0:0:
440,144,51924,6,0,P|436:80|452:0,2,120.000004577637,6|2|10,1:2|1:2|0:0,0:0:0:0:
440,144,52871,2,0,L|520:132,1,60.0000022888184,2|0,0:0|0:0,0:0:0:0:
364,160,53187,5,2,1:2:0:0:
324,96,53345,1,10,0:2:0:0:
344,24,53503,1,2,0:2:0:0:
324,96,53661,2,0,L|272:96,1,30.0000011444092,0|0,1:0|0:0,0:0:0:0:
240,36,53819,2,0,B|192:52|192:52|172:40|172:40|112:56,1,120.000004577637,10|8,1:2|0:0,0:0:0:0:
112,52,54213,5,8,0:3:0:0:
100,48,54292,1,12,0:3:0:0:
88,44,54371,1,8,1:3:0:0:
76,40,54450,6,0,L|76:120,1,60.0000022888184,4|0,1:3|0:0,0:0:0:0:
160,184,54766,2,0,L|160:104,1,60.0000022888184,2|0,1:2|1:2,0:0:0:0:
24,168,55082,5,10,0:0:0:0:
88,212,55240,1,2,0:0:0:0:
20,248,55398,1,2,0:0:0:0:
44,276,55556,1,2,0:0:0:0:
24,296,55713,5,2,1:2:0:0:
160,368,55871,1,10,0:2:0:0:
244,328,56029,1,2,0:2:0:0:
328,352,56187,1,2,0:2:0:0:
408,336,56345,5,6,1:3:0:0:
408,336,56582,1,6,1:3:0:0:
408,336,56819,1,6,1:3:0:0:
480,220,56977,6,0,L|472:279,1,60.0000022888184,4|2,1:3|0:2,0:0:0:0:
416,180,57450,5,0,1:0:0:0:
480,220,57608,2,0,L|472:279,1,60.0000022888184,10|0,0:0|0:0,0:0:0:0:
344,148,57924,2,0,L|351:88,1,60.0000022888184,2|2,0:0|0:0,0:0:0:0:
352,72,58161,5,2,0:0:0:0:
352,56,58240,2,0,B|396:44|396:44|448:64,2,90.0000034332277,2|2|2,1:2|1:2|1:2,0:0:0:0:
280,20,58871,1,8,0:0:0:0:
220,68,59029,1,0,0:0:0:0:
144,64,59187,1,10,0:0:0:0:
96,4,59345,1,0,1:0:0:0:
40,124,59503,6,0,L|32:224,1,80,14|0,1:2|0:0,0:0:0:0:
48,356,59819,6,0,L|52:300,3,47.9999985351563,8|8|8|8,0:0|0:0|0:0|0:0,0:0:0:0:
32,284,60135,2,0,L|88:288,1,47.9999985351563,10|8,0:0|0:0,0:0:0:0:
160,344,60292,2,0,L|216:340,1,47.9999985351563,10|8,0:0|0:0,0:0:0:0:
284,304,60450,5,8,0:0:0:0:
308,316,60529,1,8,1:3:0:0:
332,312,60608,1,4,1:3:0:0:
356,324,60687,1,0,1:0:0:0:
384,360,60766,6,0,P|368:308|392:256,1,95.9999970703126,14|0,0:0|1:0,0:0:0:0:
440,220,61082,1,0,1:0:0:0:
300,164,61240,6,0,P|352:148|404:172,1,95.9999970703126,10|0,0:0|1:0,0:0:0:0:
440,220,61556,1,12,1:3:0:0:
300,164,61713,1,4,1:3:0:0:
172,248,61871,1,4,1:3:0:0:
12,196,62029,6,0,L|88:200,1,60.0000022888184
64,276,62345,2,0,L|-12:272,1,60.0000022888184,0|2,0:0|0:0,0:0:0:0:
108,348,62661,5,2,0:0:0:0:
192,320,62819,1,2,0:0:0:0:
272,368,62977,1,2,0:0:0:0:
456,356,63135,6,0,B|416:332|416:332|452:224,1,143.999995605469,6|0,1:2|0:0,0:0:0:0:
456,220,63450,1,2,0:0:0:0:
504,92,63608,2,0,P|476:128|404:120,1,95.9999970703126,10|0,1:2|0:0,0:0:0:0:
268,64,63924,5,2,1:2:0:0:
428,24,64082,1,2,0:0:0:0:
268,64,64240,2,0,L|280:172,1,95.9999970703126,10|2,1:2|0:0,0:0:0:0:
220,204,64477,5,8,0:3:0:0:
220,204,64556,1,2,1:2:0:0:
144,176,64713,1,0,0:0:0:0:
24,132,64871,5,10,1:2:0:0:
100,104,65028,1,2,0:0:0:0:
144,264,65187,5,0,1:0:0:0:
68,236,65344,1,2,0:0:0:0:
4,280,65503,1,8,0:0:0:0:
184,360,65661,6,0,P|224:308|308:344,1,143.999995605469,6|0,1:2|0:0,0:0:0:0:
304,340,65977,1,2,0:0:0:0:
468,360,66135,2,0,B|436:340|436:340|380:360,1,95.9999970703126,10|0,1:2|0:0,0:0:0:0:
332,216,66450,5,2,1:2:0:0:
408,268,66608,1,2,0:0:0:0:
496,236,66766,1,10,1:2:0:0:
504,96,66924,5,2,0:0:0:0:
504,84,67003,1,8,0:3:0:0:
504,72,67082,1,2,1:2:0:0:
436,32,67239,1,0,0:0:0:0:
320,80,67398,5,10,1:2:0:0:
252,120,67555,1,2,0:0:0:0:
96,96,67713,5,0,1:0:0:0:
28,56,67870,1,2,0:0:0:0:
96,16,68029,1,10,0:0:0:0:
28,136,68187,6,0,L|48:328,1,191.999994140625,6|0,1:2|0:0,0:0:0:0:
47,326,68661,2,0,P|51:278|23:238,1,95.9999970703126,8|2,1:2|0:0,0:0:0:0:
120,352,68977,5,0,1:0:0:0:
192,360,69135,1,2,0:0:0:0:
336,280,69292,2,0,B|292:284|276:316|276:316|256:284|208:280,1,143.999995605469,10|0,1:2|0:0,0:0:0:0:
217,281,69608,6,0,P|192:240|212:192,1,95.9999970703126,2|0,1:2|0:0,0:0:0:0:
160,48,69924,2,0,P|185:89|165:137,1,95.9999970703126,2|0,1:2|0:0,0:0:0:0:
288,144,70240,5,0,1:0:0:0:
280,216,70398,1,2,0:0:0:0:
336,340,70556,5,10,0:2:0:0:
380,220,70713,2,0,B|364:312|428:268|412:364,1,143.999995605469,6|0,1:2|0:0,0:0:0:0:
413,353,71029,2,0,L|417:293,1,47.9999985351563,2|0,1:2|1:0,0:0:0:0:
484,224,71187,1,8,1:2:0:0:
496,152,71345,1,2,0:0:0:0:
488,32,71503,5,2,1:2:0:0:
424,88,71661,1,8,0:1:0:0:
320,96,71819,1,8,0:1:0:0:
200,16,71977,6,0,P|132:68|84:44,1,143.999995605469,6|0,1:2|2:0,0:0:0:0:
72,32,72292,1,0,1:0:0:0:
40,116,72450,1,10,0:2:0:0:
136,188,72608,1,2,0:0:0:0:
8,288,72766,1,4,1:3:0:0:
168,364,72924,1,4,1:3:0:0:
168,364,73240,6,0,B|196:348|216:364|216:364|252:352|252:352|288:372|324:352,1,143.999995605469,6|0,1:2|0:0,0:0:0:0:
328,356,73555,1,2,0:0:0:0:
488,312,73713,2,0,P|433:312|404:348,1,95.9999970703126,10|0,1:2|0:0,0:0:0:0:
504,204,74029,5,2,1:2:0:0:
392,180,74187,1,2,0:2:0:0:
332,272,74345,1,10,1:2:0:0:
180,272,74503,5,2,0:2:0:0:
168,268,74582,1,8,0:3:0:0:
156,264,74661,1,2,1:2:0:0:
80,300,74818,1,0,0:0:0:0:
28,200,74977,5,10,1:2:0:0:
34,116,75134,1,2,0:0:0:0:
136,128,75292,5,0,1:0:0:0:
205,175,75449,1,2,0:0:0:0:
276,140,75608,1,8,0:0:0:0:
404,136,75766,6,0,P|360:92|396:8,1,143.999995605469,6|0,1:2|0:0,0:0:0:0:
392,8,76082,1,2,0:0:0:0:
490,136,76240,2,0,B|458:116|458:116|402:136,1,95.9999970703126,10|0,1:2|0:0,0:0:0:0:
272,220,76555,5,2,1:2:0:0:
364,200,76713,1,2,0:2:0:0:
480,292,76871,5,10,1:2:0:0:
388,272,77029,1,2,0:2:0:0:
336,360,77187,5,10,1:2:0:0:
360,352,77266,1,8,1:2:0:0:
380,348,77344,1,0,1:0:0:0:
388,272,77503,1,10,0:0:0:0:
364,200,77660,1,6,1:3:0:0:
364,200,77977,1,0,0:0:0:0:
364,200,78292,6,0,B|260:216|288:112|184:148,1,191.999994140625,6|0,1:2|1:0,0:0:0:0:
44,108,78766,2,0,P|40:60|68:20,1,95.9999970703126,8|0,0:0|1:0,0:0:0:0:
120,196,79082,5,10,0:0:0:0:
120,196,79240,2,0,L|112:144,1,47.9999985351563,0|0,1:0|1:0,0:0:0:0:
76,309,79398,5,10,0:0:0:0:
76,309,79556,2,0,L|51:355,1,47.9999985351563,0|0,1:0|1:0,0:0:0:0:
179,244,79713,5,10,0:0:0:0:
179,244,79871,2,0,L|225:220,1,47.9999985351563,0|0,1:0|1:0,0:0:0:0:
57,236,80029,5,10,0:0:0:0:
57,236,80187,2,0,L|5:227,1,47.9999985351563,0|0,1:0|1:0,0:0:0:0:
151,314,80345,5,10,0:0:0:0:
151,314,80503,2,0,L|188:351,1,47.9999985351563,0|0,1:0|1:0,0:0:0:0:
380,220,80661,5,8,0:0:0:0:
335,99,80819,2,0,B|351:191|287:147|303:243,1,143.999995605469,6|0,1:2|0:0,0:0:0:0:
302,233,81134,2,0,L|298:280,1,47.9999985351563,0|0,1:0|1:0,0:0:0:0:
428,336,81292,1,10,0:0:0:0:
508,284,81450,1,2,1:2:0:0:
336,348,81608,5,12,1:3:0:0:
252,336,81766,1,0,1:2:0:0:
252,348,81845,1,8,1:2:0:0:
164,328,82003,1,0,1:0:0:0:
164,340,82082,1,8,1:2:0:0:
184,204,82239,5,10,1:2:0:0:
100,192,82397,1,0,1:0:0:0:
100,204,82476,1,8,1:2:0:0:
16,184,82634,1,0,1:0:0:0:
16,196,82713,1,8,1:2:0:0:
184,28,83029,5,8,0:0:0:0:
196,32,83108,1,8,0:0:0:0:
208,40,83187,1,8,0:0:0:0:
288,24,83345,6,0,B|324:28|324:28|312:88|312:88|284:84|284:84|272:140|272:140|312:144,1,215.999993408203,4|2,1:2|0:0,0:0:0:0:
256,192,84845,12,0,85556,0:0:0:0:
256,272,85713,5,8,1:2:0:0:
256,112,85871,1,8,0:0:0:0:
186,232,86187,5,4,1:3:0:0:
256,192,86345,1,8,0:0:0:0:
325,152,86503,1,8,0:0:0:0:
186,151,86819,5,4,1:3:0:0:
256,192,86977,1,8,0:0:0:0:
325,232,87135,1,8,0:0:0:0:
256,112,87450,5,4,1:3:0:0:
256,192,87608,1,8,0:0:0:0:
255,272,87766,1,8,0:0:0:0:
186,232,87924,5,0,1:0:0:0:
325,152,88082,1,8,1:3:0:0:
186,151,88240,1,4,1:3:0:0:
325,232,88398,1,12,1:2:0:0:
