osu file format v14

[General]
AudioFilename: audio.mp3
AudioLeadIn: 0
PreviewTime:62483
Countdown: 0
SampleSet: Soft
StackLeniency: 0.7
Mode: 0
LetterboxInBreaks: 0
WidescreenStoryboard: 1

[Editor]
Bookmarks: 75766
DistanceSpacing: 1
BeatDivisor: 4
GridSize: 16
TimelineZoom: 2.1

[Metadata]
Title:No.7 (TV Size)
TitleUnicode:No.7 (TV Size)
Artist:Jibaku Shounen Band
ArtistUnicode:地縛少年バンド
Creator:Ryuusei Aika
Version:Ryxliee's Normal
Source:地縛少年花子くん
Tags:Ryxliee Bakugo- Stratos Akito kanor CoLouRed GlaZeE airincat anime japanese rock jrock j-rock number 7 no seven hanako san kun Toilet bound Toilet-bound Hanako-kun Yashiro Nene Minamoto Kou Mitsuba Sousuke 生田鷹司 × オーイシマサヨシ x ZiNG Youji Ikuta from PENGUIN RESEARCH Masayoshi Ooishi opening op anchor
BeatmapID:3280763
BeatmapSetID:1603819

[Difficulty]
HPDrainRate:3
CircleSize:3
OverallDifficulty:4
ApproachRate:5.2
SliderMultiplier:1
SliderTickRate:1

[Events]
//Background and Video events
0,0,"BG.jpeg",0,0
//Break Periods
//Storyboard Layer 0 (Background)
//Storyboard Layer 1 (Fail)
//Storyboard Layer 2 (Pass)
//Storyboard Layer 3 (Foreground)
//Storyboard Layer 4 (Overlay)
//Storyboard Sound Samples

[TimingPoints]
135,315.789473684211,4,2,1,40,1,0
6292,-100,4,2,1,80,0,0
6608,-100,4,2,1,70,0,0
7082,-100,4,2,1,80,0,0
7319,-100,4,2,1,70,0,0
7713,-100,4,2,1,80,0,0
7950,-100,4,2,1,70,0,0
8471,-100,4,2,1,60,0,0
8740,-100,4,2,1,30,0,0
10366,-100,4,2,1,50,0,0
10792,-100,4,2,1,5,0,0
10871,-100,4,2,1,50,0,0
11187,-100,4,2,1,60,0,0
11503,-100,4,2,1,70,0,0
15924,-100,4,2,1,80,0,0
16556,-100,4,2,1,70,0,0
26029,-100,4,2,1,80,0,0
26661,-100,4,2,1,70,0,0
30450,-100,4,2,1,80,0,0
31713,-111.111111111111,4,2,1,56,0,0
36450,-111.111111111111,4,2,1,40,0,0
36766,-100,4,2,1,66,0,0
39213,-100,4,2,1,5,0,0
39292,-100,4,2,1,66,0,0
41819,-100,4,2,1,56,0,0
46871,-100,4,2,1,66,0,0
51450,-100,4,2,1,60,0,0
51924,-100,4,2,1,78,0,0
52477,-100,4,2,1,5,0,0
52556,-100,4,2,1,66,0,0
52792,-100,4,2,1,5,0,0
52871,-100,4,2,1,66,0,0
53187,-100,4,2,1,78,0,0
54135,-100,4,2,1,60,0,0
54450,-100,4,2,1,66,0,0
55713,-100,4,2,1,78,0,0
56345,-100,4,2,1,66,0,0
56977,-100,4,2,1,78,0,0
57450,-100,4,2,1,66,0,0
58240,-100,4,2,1,78,0,0
59503,-100,4,2,1,70,0,0
59740,-100,4,2,1,5,0,0
59819,-100,4,2,1,70,0,0
60766,-100,4,2,1,80,0,0
62503,-100,4,2,1,50,0,0
63135,-90.9090909090909,4,2,1,80,0,1
63371,-90.9090909090909,4,2,1,5,0,1
63450,-90.9090909090909,4,2,1,80,0,1
65898,-90.9090909090909,4,2,1,5,0,1
65977,-90.9090909090909,4,2,1,80,0,1
72213,-90.9090909090909,4,2,1,5,0,1
72292,-90.9090909090909,4,2,1,80,0,1
72371,-90.9090909090909,4,2,1,5,0,1
72450,-90.9090909090909,4,2,1,80,0,1
72529,-90.9090909090909,4,2,1,5,0,1
72608,-90.9090909090909,4,2,1,80,0,1
72687,-90.9090909090909,4,2,1,5,0,1
72766,-90.9090909090909,4,2,1,80,0,1
72924,-90.9090909090909,4,2,1,74,0,0
73240,-90.9090909090909,4,2,1,80,0,1
77661,-90.9090909090909,4,2,1,80,0,0
78292,-90.9090909090909,4,2,1,80,0,1
80424,-90.9090909090909,4,2,1,5,0,1
80503,-90.9090909090909,4,2,1,80,0,1
80582,-90.9090909090909,4,2,1,5,0,1
80661,-90.9090909090909,4,2,1,80,0,1
80740,-90.9090909090909,4,2,1,5,0,1
80819,-90.9090909090909,4,2,1,80,0,1
81608,-90.9090909090909,4,2,1,90,0,1
81845,-90.9090909090909,4,2,1,80,0,1
83029,-90.9090909090909,4,2,1,64,0,1
83345,-90.9090909090909,4,2,1,70,0,0
85556,-90.9090909090909,4,2,1,70,0,1
87924,-90.9090909090909,4,2,1,80,0,1
88082,-90.9090909090909,4,2,1,86,0,1
88398,-90.9090909090909,4,2,1,86,0,0

[Colours]
Combo1 : 255,128,192
Combo2 : 170,85,85

[HitObjects]
384,17,6292,6,0,P|367:64|353:112,1,100,6|8,1:2|1:3,0:0:0:0:
363,161,6766,1,8,1:2:0:0:
414,247,7082,2,0,P|448:260|484:253,2,75,14|10|10,1:2|0:0|0:0,0:0:0:0:
370,272,7713,2,0,P|333:265|299:278,2,75,10|8|8,1:2|0:2|0:2,0:0:0:0:
440,351,8503,1,0,0:0:0:0:
440,351,8661,1,12,0:0:0:0:
288,175,10556,6,0,P|241:190|212:229,1,100,12|8,0:0|0:0,0:0:0:0:
221,283,11029,1,8,0:0:0:0:
221,283,11187,2,0,P|197:290|173:298,1,50,10|10,0:0|0:0,0:0:0:0:
144,339,11503,6,0,P|97:323|68:284,1,100,4|8,1:2|0:0,0:0:0:0:
18,196,12135,2,0,P|62:174|109:155,1,100,0|8,1:0|0:0,0:0:0:0:
135,112,12608,2,0,P|182:125|230:143,1,100,2|2,0:0|1:2,0:0:0:0:
320,98,13240,2,0,P|359:127|374:173,1,100,2|2,0:0|1:2,0:0:0:0:
355,220,13713,1,8,0:0:0:0:
261,256,14029,6,0,P|241:301|251:349,1,100,2|8,1:2|0:0,0:0:0:0:
347,376,14661,2,0,P|394:359|442:345,1,100,2|8,1:2|0:0,0:0:0:0:
492,349,15135,2,0,P|511:303|501:255,1,100,2|8,0:0|0:1,0:0:0:0:
489,206,15608,2,0,P|466:195|443:185,1,50
405,152,15924,1,10,1:2:0:0:
306,167,16240,2,0,P|297:190|290:214,1,50,10|8,1:2|0:0,0:0:0:0:
292,264,16556,6,0,P|245:282|200:304,1,100,6|8,1:2|0:0,0:0:0:0:
175,347,17029,2,0,P|128:331|99:292,1,100,2|2,0:0|1:2,0:0:0:0:
53,271,17503,1,10,0:0:0:0:
0,186,17819,2,0,P|9:163|20:140,1,50,0|0,1:0|1:0,0:0:0:0:
53,103,18135,1,10,0:0:0:0:
53,103,18292,2,0,P|101:91|150:82,1,100,2|2,0:0|1:2,0:0:0:0:
199,93,18766,1,10,0:0:0:0:
263,16,19082,6,0,P|302:45|317:91,1,100,6|8,1:2|0:0,0:0:0:0:
353,127,19556,2,0,P|313:156|298:202,1,100,2|2,1:2|1:2,0:0:0:0:
267,242,20029,1,10,0:0:0:0:
267,242,20187,2,0,P|313:260|358:282,1,100,2|8,1:2|1:1,0:0:0:0:
389,322,20661,1,8,1:1:0:0:
487,304,20977,2,0,P|499:339|510:375,2,75,4|4|4,1:3|1:3|1:3,0:0:0:0:
464,259,21608,6,0,P|482:212|504:167,1,100,6|8,1:2|0:0,0:0:0:0:
462,76,22240,2,0,P|416:56|368:66,1,100,2|8,1:2|0:0,0:0:0:0:
318,63,22713,2,0,P|335:110|349:158,1,100,2|2,0:0|1:2,0:0:0:0:
426,221,23345,2,0,P|389:253|340:259,1,100,2|2,0:0|1:2,0:0:0:0:
301,290,23818,1,10,0:0:0:0:
239,369,24135,6,0,P|202:336|153:330,1,100,2|8,1:2|0:0,0:0:0:0:
60,367,24766,2,0,P|51:317|39:269,1,100,2|8,1:2|0:0,0:0:0:0:
1,235,25240,2,0,P|19:188|41:143,1,100,2|8,0:0|0:1,0:0:0:0:
38,93,25713,2,0,P|59:79|80:67,1,50
124,41,26029,1,10,1:2:0:0:
216,78,26345,2,0,P|231:97|235:121,1,50,10|8,1:2|0:0,0:0:0:0:
228,171,26661,6,0,P|274:189|319:211,1,100,6|8,1:2|0:0,0:0:0:0:
342,256,27135,2,0,P|388:240|417:201,1,100,2|2,0:0|1:2,0:0:0:0:
463,180,27608,1,10,0:0:0:0:
512,93,27924,2,0,P|502:70|491:47,1,50,0|0,1:0|1:0,0:0:0:0:
452,25,28240,1,10,0:0:0:0:
452,25,28398,2,0,P|404:38|356:56,1,100,2|2,0:0|1:2,0:0:0:0:
333,100,28871,1,10,0:0:0:0:
285,188,29187,6,0,P|238:172|209:133,1,100,6|8,1:2|0:0,0:0:0:0:
209,82,29661,2,0,P|163:62|115:72,1,100,2|2,0:0|1:2,0:0:0:0:
71,62,30134,1,10,0:0:0:0:
71,62,30292,2,0,P|53:109|39:157,1,100,2|8,0:0|0:1,0:0:0:0:
9,196,30766,1,8,0:1:0:0:
80,274,31082,1,8,0:1:0:0:
80,274,31240,2,0,P|124:252|171:233,1,100,8|8,0:0|0:0,0:0:0:0:
191,192,31713,6,0,P|232:207|260:242,1,89.9999972534181,6|10,1:2|0:0,0:0:0:0:
265,332,32345,2,0,P|287:336|308:341,1,44.999998626709,2|0,1:2|1:0,0:0:0:0:
346,366,32661,2,0,P|363:324|383:284,1,89.9999972534181,8|0,0:0|1:0,0:0:0:0:
460,237,33292,1,8,0:0:0:0:
418,157,33608,2,0,P|395:161|374:166,2,44.999998626709,0|0|8,1:0|1:0|0:0,0:0:0:0:
489,101,34240,5,6,1:2:0:0:
445,22,34556,1,10,0:0:0:0:
355,30,34871,2,0,P|320:58|276:64,1,89.9999972534181,2|8,1:2|0:0,0:0:0:0:
244,96,35345,2,0,P|201:80|158:67,1,89.9999972534181,2|0,0:0|1:0,0:0:0:0:
129,32,35819,1,8,0:0:0:0:
44,64,36135,2,0,P|36:85|29:106,1,44.999998626709,8|8,0:0|0:0,0:0:0:0:
5,144,36450,1,4,1:3:0:0:
49,233,36766,6,0,P|97:242|142:222,1,100,4|10,1:2|0:0,0:0:0:0:
208,146,37398,2,0,P|232:149|251:164,1,50,2|0,1:2|1:0,0:0:0:0:
305,177,37713,1,8,0:0:0:0:
305,177,37871,2,0,P|287:223|274:272,1,100,2|2,0:0|0:0,0:0:0:0:
291,319,38345,1,8,0:0:0:0:
211,379,38661,1,2,1:2:0:0:
127,323,38977,1,10,0:0:0:0:
37,366,39292,6,0,P|4:328|0:279,1,100,10|0,0:0|1:0,0:0:0:0:
24,237,39766,1,8,0:0:0:0:
24,237,39924,1,2,1:2:0:0:
96,168,40240,2,0,P|119:175|143:184,1,50,8|0,0:0|1:0,0:0:0:0:
187,208,40556,2,0,P|200:159|217:112,1,100,10|0,1:2|1:0,0:0:0:0:
252,76,41029,1,10,0:0:0:0:
335,19,41344,1,10,0:0:0:0:
335,19,41503,1,8,0:0:0:0:
423,65,41819,6,0,P|444:109|463:156,1,100,6|10,1:2|0:2,0:0:0:0:
446,255,42450,2,0,P|481:260|509:284,2,75,2|0|2,1:2|0:0|0:0,0:0:0:0:
406,286,43082,1,0,1:0:0:0:
315,245,43398,1,10,0:0:0:0:
240,311,43713,2,0,P|248:334|255:358,2,50,2|2|8,1:2|1:2|0:0,0:0:0:0:
160,249,44345,5,2,1:2:0:0:
77,306,44661,1,10,0:2:0:0:
0,242,44977,2,0,P|9:219|20:196,1,50,2|2,1:2|1:2,0:0:0:0:
61,166,45292,1,10,0:2:0:0:
61,166,45450,2,0,P|28:128|23:79,1,100,2|8,0:0|0:1,0:0:0:0:
60,45,45924,1,8,0:1:0:0:
158,64,46240,2,0,P|182:58|206:53,1,50,2|8,1:2|0:0,0:0:0:0:
243,18,46556,2,0,P|266:25|290:33,1,50,8|8,0:0|0:0,0:0:0:0:
320,73,46871,6,0,P|364:51|411:32,1,100,6|10,1:2|0:0,0:0:0:0:
499,80,47503,2,0,P|502:104|493:127,1,50,2|0,1:2|1:0,0:0:0:0:
500,181,47818,1,8,0:0:0:0:
500,181,47977,2,0,P|450:189|402:201,1,100,2|2,0:0|1:2,0:0:0:0:
354,187,48450,1,8,0:0:0:0:
267,237,48766,1,2,1:2:0:0:
183,181,49082,1,10,0:0:0:0:
83,186,49398,6,0,P|50:223|45:272,1,100,6|10,1:2|0:2,0:0:0:0:
31,322,49871,1,2,0:2:0:0:
31,322,50029,1,2,1:2:0:0:
112,380,50345,2,0,P|134:369|157:359,1,50,10|2,0:2|0:2,0:0:0:0:
188,319,50661,2,0,P|237:327|285:339,1,100,2|8,1:2|0:1,0:0:0:0:
337,327,51134,1,8,0:1:0:0:
337,327,51292,1,8,0:0:0:0:
424,376,51608,1,10,0:0:0:0:
496,306,51924,6,0,P|515:261|505:212,1,100,6|2,1:2|1:2,0:0:0:0:
424,154,52556,1,10,0:0:0:0:
333,195,52871,1,2,0:0:0:0:
234,177,53187,2,0,P|224:154|227:129,1,50,2|10,1:2|0:2,0:0:0:0:
269,101,53503,2,0,P|278:78|275:53,1,50,2|0,0:2|1:0,0:0:0:0:
241,16,53819,2,0,P|193:29|146:46,1,100,10|8,1:2|0:0,0:0:0:0:
50,16,54450,6,0,P|17:52|11:101,1,100,4|2,1:3|1:2,0:0:0:0:
5,154,54923,1,0,1:2:0:0:
5,154,55082,2,0,P|53:167|100:184,1,100,10|2,0:0|1:2,0:0:0:0:
159,264,55713,2,0,P|184:257|208:252,1,50,2|10,1:2|0:2,0:0:0:0:
250,224,56029,1,2,0:2:0:0:
327,287,56345,2,0,P|315:322|304:358,2,75,6|6|6,1:3|1:3|1:3,0:0:0:0:
380,283,56977,5,4,1:3:0:0:
380,283,57135,2,0,P|412:246|418:197,1,100,2|0,0:2|1:0,0:0:0:0:
443,154,57608,1,10,0:0:0:0:
371,84,57924,1,2,0:0:0:0:
275,112,58240,2,0,P|250:84|244:48,2,75,2|2|2,1:2|1:2|1:2,0:0:0:0:
277,161,58871,1,8,0:0:0:0:
354,224,59187,2,0,P|342:246|332:269,1,50,10|0,0:0|1:0,0:0:0:0:
353,315,59503,6,0,P|304:328|257:345,1,100,14|8,1:2|0:0,0:0:0:0:
223,381,59977,1,8,0:0:0:0:
223,381,60135,2,0,P|186:348|137:342,1,100,10|8,0:0|0:0,0:0:0:0:
40,367,60766,2,0,P|26:318|9:271,1,100,14|0,0:0|1:0,0:0:0:0:
48,240,61240,2,0,P|61:191|78:144,1,100,10|12,0:0|1:3,0:0:0:0:
127,126,61713,1,4,1:3:0:0:
127,126,61871,1,4,1:3:0:0:
160,287,63135,6,0,P|199:323|253:327,1,110.000003356934,6|2,1:2|0:0,0:0:0:0:
306,344,63608,1,10,1:2:0:0:
341,239,63924,2,0,P|380:203|434:199,1,110.000003356934,2|10,1:2|1:2,0:0:0:0:
489,225,64398,1,2,0:0:0:0:
489,225,64556,2,0,P|500:171|513:117,1,110.000003356934,2|10,1:2|1:2,0:0:0:0:
489,67,65029,1,2,0:0:0:0:
391,17,65344,1,2,0:0:0:0:
295,72,65661,6,0,P|318:121|340:172,1,110.000003356934,6|2,1:2|0:0,0:0:0:0:
389,197,66135,1,10,1:2:0:0:
432,297,66450,2,0,P|393:333|339:337,1,110.000003356934,2|10,1:2|1:2,0:0:0:0:
293,366,66924,1,2,0:0:0:0:
293,366,67082,1,2,1:2:0:0:
208,304,67397,1,10,1:2:0:0:
208,304,67556,2,0,P|186:253|162:203,1,110.000003356934,2|2,0:0|0:0,0:0:0:0:
115,188,68029,1,10,0:0:0:0:
115,188,68187,6,0,P|125:134|138:80,1,110.000003356934,6|0,1:2|0:0,0:0:0:0:
179,43,68661,1,8,1:2:0:0:
273,98,68977,1,0,1:0:0:0:
369,46,69292,1,10,1:2:0:0:
465,98,69608,2,0,P|488:146|477:199,1,110.000003356934,2|10,1:2|1:2,0:0:0:0:
499,249,70082,2,0,P|448:270|398:294,1,110.000003356934,2|2,0:0|0:0,0:0:0:0:
385,350,70556,1,10,0:2:0:0:
385,350,70713,6,0,P|331:346|291:310,1,110.000003356934,6|2,1:2|1:2,0:0:0:0:
244,280,71187,1,8,1:2:0:0:
191,183,71503,2,0,P|201:157|213:132,1,55.0000016784668,2|8,1:2|0:1,0:0:0:0:
253,95,71819,1,8,0:1:0:0:
253,95,71977,2,0,P|212:58|158:54,1,110.000003356934,6|0,1:2|1:0,0:0:0:0:
113,24,72450,1,10,0:2:0:0:
26,90,72766,1,4,1:3:0:0:
26,90,72924,1,4,1:3:0:0:
34,199,73240,6,0,P|85:220|135:244,1,110.000003356934,6|2,1:2|0:0,0:0:0:0:
155,294,73713,1,10,1:2:0:0:
247,353,74029,2,0,P|298:334|351:319,1,110.000003356934,2|10,1:2|1:2,0:0:0:0:
403,351,74503,1,2,0:2:0:0:
403,351,74661,2,0,P|439:310|443:256,1,110.000003356934,2|10,1:2|1:2,0:0:0:0:
467,206,75135,1,2,0:0:0:0:
391,126,75450,1,2,0:0:0:0:
282,146,75766,6,0,P|268:198|259:252,1,110.000003356934,6|2,1:2|0:0,0:0:0:0:
282,303,76240,1,10,1:2:0:0:
207,384,76555,2,0,P|180:378|158:362,1,55.0000016784668,2|2,1:2|0:2,0:0:0:0:
134,312,76871,2,0,P|108:303|81:306,1,55.0000016784668,10|2,1:2|0:2,0:0:0:0:
33,334,77187,2,0,P|18:281|-1:229,1,110.000003356934,10|10,1:2|0:0,0:0:0:0:
28,182,77661,1,6,1:3:0:0:
92,92,77977,1,6,1:3:0:0:
169,14,78292,6,0,P|222:18|263:54,1,110.000003356934,6|0,1:2|1:0,0:0:0:0:
316,70,78766,1,8,0:0:0:0:
290,177,79082,1,10,0:0:0:0:
189,221,79398,1,10,0:0:0:0:
159,326,79713,2,0,P|207:349|260:338,1,110.000003356934,10|10,0:0|0:0,0:0:0:0:
311,360,80187,2,0,P|351:324|405:319,1,110.000003356934,0|2,1:0|1:2,0:0:0:0:
457,352,80661,1,8,0:0:0:0:
457,352,80819,6,0,P|466:297|480:244,1,110.000003356934,6|0,1:2|1:0,0:0:0:0:
512,200,81292,1,10,0:0:0:0:
420,138,81608,2,0,P|380:130|343:148,2,82.5000025177003,12|8|8,1:3|1:2|1:2,0:0:0:0:
435,84,82240,2,0,P|471:101|511:94,2,82.5000025177003,10|8|8,1:2|0:2|1:2,0:0:0:0:
347,16,83029,2,0,P|321:26|296:38,1,55.0000016784668,8|8,0:0|0:0,0:0:0:0:
258,78,83345,1,4,1:2:0:0:
81,368,85556,6,0,P|71:342|59:317,1,55.0000016784668,4|8,1:3|1:2,0:0:0:0:
20,278,85871,1,8,0:0:0:0:
88,191,86187,2,0,P|98:165|110:140,1,55.0000016784668,4|8,1:3|0:0,0:0:0:0:
157,112,86503,2,0,P|205:135|258:124,1,110.000003356934,8|4,0:0|1:3,0:0:0:0:
293,81,86977,1,8,0:0:0:0:
293,81,87135,1,8,0:0:0:0:
398,112,87450,6,0,P|409:136|419:162,1,55.0000016784668,4|8,1:3|0:0,0:0:0:0:
470,195,87766,1,8,0:0:0:0:
470,195,87924,2,0,P|464:222|448:243,1,55.0000016784668,0|8,1:0|1:3,0:0:0:0:
426,296,88240,1,4,1:3:0:0:
426,296,88398,1,12,1:2:0:0:
