osu file format v14

[General]
AudioFilename: audio.mp3
AudioLeadIn: 0
PreviewTime: 62483
Countdown: 0
SampleSet: Soft
StackLeniency: 0.7
Mode: 0
LetterboxInBreaks: 0
WidescreenStoryboard: 0

[Editor]
DistanceSpacing: 0.2
BeatDivisor: 4
GridSize: 32
TimelineZoom: 1.799999

[Metadata]
Title:No.7 (TV Size)
TitleUnicode:No.7 (TV Size)
Artist:Jibaku Shounen Band
ArtistUnicode:地縛少年バンド
Creator:Ryuusei Aika
Version:GlazeE's Extra
Source:地縛少年花子くん
Tags:Ryxliee Bakugo- Stratos Akito kanor CoLouRed GlaZeE airincat anime japanese rock jrock j-rock number 7 no seven hanako san kun Toilet bound Toilet-bound Hanako-kun Yashiro Nene Minamoto Kou Mitsuba Sousuke 生田鷹司 × オーイシマサヨシ x ZiNG Youji Ikuta from PENGUIN RESEARCH Masayoshi Ooishi opening op anchor
BeatmapID:3275870
BeatmapSetID:1603819

[Difficulty]
HPDrainRate:6
CircleSize:4
OverallDifficulty:8
ApproachRate:9
SliderMultiplier:1.8
SliderTickRate:1

[Events]
//Background and Video events
0,0,"BG.jpeg",0,0
//Break Periods
2,8861,9798
//Storyboard Layer 0 (Background)
//Storyboard Layer 1 (Fail)
//Storyboard Layer 2 (Pass)
//Storyboard Layer 3 (Foreground)
//Storyboard Layer 4 (Overlay)
//Storyboard Sound Samples

[TimingPoints]
135,315.789473684211,4,2,1,40,1,0
5661,-83.3333333333333,4,2,1,40,0,0
6292,-83.3333333333333,4,2,1,80,0,0
6608,-83.3333333333333,4,2,1,70,0,0
7082,-83.3333333333333,4,2,1,80,0,0
7319,-83.3333333333333,4,2,1,70,0,0
7713,-83.3333333333333,4,2,1,80,0,0
7950,-83.3333333333333,4,2,1,70,0,0
8471,-83.3333333333333,4,2,1,60,0,0
8740,-83.3333333333333,4,2,1,30,0,0
10366,-83.3333333333333,4,2,1,50,0,0
10556,-83.3333333333333,4,2,1,50,0,0
10792,-83.3333333333333,4,2,1,5,0,0
10871,-83.3333333333333,4,2,1,50,0,0
11187,-100,4,2,1,60,0,0
11503,-100,4,2,1,70,0,0
15924,-83.3333333333333,4,2,1,80,0,0
16556,-100,4,2,1,70,0,0
20029,-83.3333333333333,4,2,1,70,0,0
20977,-100,4,2,1,70,0,0
26029,-83.3333333333333,4,2,1,80,0,0
26661,-100,4,2,1,70,0,0
30450,-83.3333333333333,4,2,1,80,0,0
31713,-100,4,2,1,56,0,0
32345,-100,4,2,1,56,0,0
34240,-100,4,2,1,56,0,0
35029,-100,4,2,1,56,0,0
36450,-125,4,2,1,40,0,0
36766,-100,4,2,1,66,0,0
39213,-100,4,2,1,5,0,0
39292,-100,4,2,1,66,0,0
41819,-100,4,2,1,56,0,0
42450,-100,4,2,1,56,0,0
45766,-83.3333333333333,4,2,1,56,0,0
46240,-100,4,2,1,56,0,0
46871,-100,4,2,1,66,0,0
51450,-100,4,2,1,60,0,0
51924,-71.4285714285714,4,2,1,78,0,0
52240,-166.666666666667,4,2,1,78,0,0
52477,-166.666666666667,4,2,1,5,0,0
52556,-166.666666666667,4,2,1,66,0,0
52792,-166.666666666667,4,2,1,5,0,0
52871,-166.666666666667,4,2,1,66,0,0
53187,-100,4,2,1,78,0,0
53819,-83.3333333333333,4,2,1,78,0,0
54135,-100,4,2,1,60,0,0
54450,-100,4,2,1,66,0,0
54766,-100,4,2,1,66,0,0
55713,-100,4,2,1,78,0,0
56345,-83.3333333333333,4,2,1,66,0,0
56819,-100,4,2,1,66,0,0
56977,-100,4,2,1,78,0,0
57450,-100,4,2,1,66,0,0
58240,-100,4,2,1,78,0,0
58635,-100,4,2,1,5,0,0
58713,-100,4,2,1,78,0,0
58871,-83.3333333333333,4,2,1,78,0,0
59503,-100,4,2,1,70,0,0
59740,-100,4,2,1,5,0,0
59819,-100,4,2,1,70,0,0
60766,-83.3333333333333,4,2,1,80,0,0
62503,-125,4,2,1,50,0,0
63135,-83.3333333333333,4,2,1,80,0,1
63371,-83.3333333333333,4,2,1,5,0,1
63450,-83.3333333333333,4,2,1,80,0,1
65898,-83.3333333333333,4,2,1,5,0,1
65977,-83.3333333333333,4,2,1,80,0,1
71977,-71.4285714285714,4,2,1,80,0,1
72213,-100,4,2,1,5,0,1
72292,-71.4285714285714,4,2,1,80,0,1
72924,-100,4,2,1,74,0,0
73240,-83.3333333333333,4,2,1,80,0,1
80424,-83.3333333333333,4,2,1,5,0,1
80503,-83.3333333333333,4,2,1,80,0,1
80582,-83.3333333333333,4,2,1,5,0,1
80661,-83.3333333333333,4,2,1,80,0,1
80740,-83.3333333333333,4,2,1,5,0,1
80819,-83.3333333333333,4,2,1,80,0,1
81608,-83.3333333333333,4,2,1,90,0,1
81845,-83.3333333333333,4,2,1,80,0,1
83029,-83.3333333333333,4,2,1,64,0,1
83345,-83.3333333333333,4,2,1,70,0,0
85556,-83.3333333333333,4,2,1,70,0,1
87924,-83.3333333333333,4,2,1,80,0,1
88082,-83.3333333333333,4,2,1,86,0,1
88398,-83.3333333333333,4,2,1,86,0,0

[Colours]
Combo1 : 255,128,192
Combo2 : 170,85,85

[HitObjects]
145,256,5661,5,2,0:0:0:0:
326,186,5819,1,2,0:0:0:0:
260,259,5977,1,2,0:0:0:0:
243,150,6135,1,2,0:0:0:0:
439,267,6292,6,0,P|471:214|390:59,1,215.999993408203,6|8,1:2|1:3,0:0:0:0:
335,44,6766,1,8,1:2:0:0:
138,138,6924,5,8,1:3:0:0:
138,138,7003,1,8,1:3:0:0:
138,138,7082,1,14,1:2:0:0:
397,213,7319,1,10,0:0:0:0:
138,138,7556,1,10,0:0:0:0:
52,113,7713,5,10,1:2:0:0:
295,183,7950,1,8,0:2:0:0:
52,113,8187,1,8,0:2:0:0:
157,230,8471,6,0,L|141:273,2,43.1999986816407,0|0|0,1:0|1:0|1:0,0:0:0:0:
163,211,8661,1,12,0:0:0:0:
355,154,10398,6,0,L|371:111,2,35.9999989013672,0|0|0,1:0|1:0|1:0,0:0:0:0:
349,173,10556,2,0,B|312:181|275:169|275:169|230:183|178:172,1,161.999995056153,12|0,0:0|2:0,0:0:0:0:
123,121,10871,2,0,L|179:144,1,53.9999983520508,8|8,0:0|0:0,0:0:0:0:
130,231,11029,2,0,L|186:254,1,53.9999983520508,8|8,0:0|0:0,0:0:0:0:
329,260,11187,5,10,0:0:0:0:
329,260,11266,1,10,0:0:0:0:
329,260,11345,1,10,0:0:0:0:
329,260,11424,1,10,0:0:0:0:
329,260,11503,2,0,P|343:199|351:157,1,90,4|0,1:2|0:0,0:0:0:0:
221,29,11819,1,8,0:0:0:0:
332,80,11977,1,2,0:0:0:0:
177,126,12135,5,0,1:0:0:0:
307,78,12292,1,0,1:0:0:0:
248,237,12450,1,8,0:0:0:0:
87,126,12608,1,2,0:0:0:0:
87,126,12687,1,2,0:0:0:0:
87,126,12766,2,0,P|135:127|181:126,1,90,0|2,1:0|1:2,0:0:0:0:
438,172,13082,2,0,P|390:171|344:172,1,90,8|2,0:0|0:0,0:0:0:0:
146,245,13398,5,0,1:0:0:0:
236,322,13556,1,2,1:2:0:0:
243,193,13713,1,8,0:0:0:0:
96,333,13871,1,0,1:0:0:0:
96,333,13950,1,8,0:0:0:0:
96,333,14029,2,0,P|70:283|47:240,1,90,2|0,1:2|0:0,0:0:0:0:
138,141,14345,1,8,0:0:0:0:
265,90,14503,2,0,P|328:94|371:95,1,90,0|2,0:0|1:2,0:0:0:0:
367,229,14819,5,0,1:0:0:0:
212,211,14977,1,8,0:0:0:0:
367,229,15135,2,0,P|430:233|473:234,1,90,2|0,0:0|1:0,0:0:0:0:
355,95,15450,1,8,0:1:0:0:
212,211,15608,2,0,P|149:207|106:206,1,90,8|0,0:1|0:0,0:0:0:0:
271,63,15924,6,0,P|208:59|143:56,1,107.999996704102,10|2,1:2|0:0,0:0:0:0:
457,234,16240,2,0,P|394:230|329:227,1,107.999996704102,10|8,1:2|0:0,0:0:0:0:
307,223,16477,5,8,0:0:0:0:
307,223,16556,2,0,B|250:222|197:268|197:268|146:211,1,180,6|8,1:2|0:0,0:0:0:0:
97,107,17029,2,0,P|49:111|-10:114,1,90,2|0,0:0|1:0,0:0:0:0:
231,149,17345,1,2,1:2:0:0:
304,39,17503,2,0,P|352:35|411:32,1,90,10|0,0:0|0:0,0:0:0:0:
447,205,17819,5,0,1:0:0:0:
281,243,17977,1,0,1:0:0:0:
403,300,18135,1,10,0:0:0:0:
381,154,18292,2,0,P|372:98|364:51,1,90,2|0,0:0|1:0,0:0:0:0:
208,132,18608,1,2,1:2:0:0:
281,243,18766,6,0,P|240:264|189:265,1,90,10|0,0:0|0:0,0:0:0:0:
160,254,19003,1,8,0:0:0:0:
160,254,19082,2,0,P|112:201|143:80,1,180,6|8,1:2|0:0,0:0:0:0:
275,58,19556,2,0,L|465:69,1,180,2|2,1:2|1:2,0:0:0:0:
435,224,20029,5,10,0:0:0:0:
160,254,20187,2,0,P|147:168|140:120,1,107.999996704102,2|0,1:2|1:0,0:0:0:0:
275,58,20503,1,8,1:1:0:0:
435,224,20661,2,0,P|349:237|301:244,1,107.999996704102,8|0,1:1|0:0,0:0:0:0:
160,254,20977,5,4,1:3:0:0:
427,345,21213,5,4,1:3:0:0:
160,254,21450,5,4,1:3:0:0:
160,254,21529,1,4,1:3:0:0:
160,254,21608,2,0,P|201:215|240:201,1,90,6|0,1:2|0:0,0:0:0:0:
412,156,21924,1,8,0:0:0:0:
351,300,22082,2,0,P|338:257|329:206,1,90,2|2,0:0|1:2,0:0:0:0:
235,112,22398,5,0,1:0:0:0:
377,79,22556,1,8,0:0:0:0:
329,212,22713,1,2,0:0:0:0:
329,212,22792,1,2,0:0:0:0:
329,212,22871,2,0,P|273:233|229:237,1,90,0|2,1:0|1:2,0:0:0:0:
93,177,23187,1,8,0:0:0:0:
160,279,23345,1,2,0:0:0:0:
192,117,23503,5,0,1:0:0:0:
76,189,23661,1,2,1:2:0:0:
249,249,23819,1,10,0:0:0:0:
298,116,23977,1,0,1:0:0:0:
298,116,24056,1,8,0:0:0:0:
298,116,24135,2,0,P|298:69|295:13,1,90,2|0,1:2|0:0,0:0:0:0:
76,189,24450,2,0,P|76:236|79:292,1,90,8|0,0:0|0:0,0:0:0:0:
294,331,24766,5,2,1:2:0:0:
229,226,24924,1,0,1:0:0:0:
175,336,25082,1,8,0:0:0:0:
341,244,25240,2,0,P|408:218|435:192,1,90,2|0,0:0|1:0,0:0:0:0:
282,62,25556,1,8,0:1:0:0:
116,142,25713,2,0,P|106:191|116:234,1,90,8|0,0:1|0:0,0:0:0:0:
337,352,26029,6,0,P|340:288|341:226,1,107.999996704102,10|2,1:2|0:0,0:0:0:0:
389,41,26345,1,10,1:2:0:0:
459,214,26503,5,8,0:0:0:0:
459,214,26582,1,8,0:0:0:0:
459,214,26661,2,0,B|392:204|318:223|318:223|334:197|337:169,1,180,6|8,1:2|0:0,0:0:0:0:
177,206,27135,2,0,L|167:112,1,90,2|0,0:0|1:0,0:0:0:0:
292,102,27450,1,2,1:2:0:0:
88,208,27608,2,0,L|98:302,1,90,10|2,0:0|0:0,0:0:0:0:
320,307,27924,5,0,1:0:0:0:
182,279,28082,1,0,1:0:0:0:
314,192,28240,1,10,0:0:0:0:
168,117,28398,2,0,P|164:71|177:28,1,90,2|0,0:0|1:0,0:0:0:0:
330,184,28713,5,2,1:2:0:0:
196,273,28871,1,10,0:0:0:0:
368,334,29029,1,0,1:0:0:0:
368,334,29108,1,8,0:0:0:0:
368,334,29187,2,0,P|380:286|392:243,1,90,6|0,1:2|0:0,0:0:0:0:
462,138,29503,1,8,0:0:0:0:
241,154,29661,2,0,P|225:196|227:245,1,90,2|0,0:0|1:0,0:0:0:0:
354,149,29977,5,2,1:2:0:0:
184,62,30135,1,10,0:0:0:0:
354,149,30292,1,2,0:0:0:0:
130,203,30450,6,0,P|158:212|190:226,1,53.9999983520508,0|0,1:0|0:0,0:0:0:0:
287,296,30608,2,0,P|315:289|344:280,1,53.9999983520508,8|0,0:1|0:0,0:0:0:0:
467,187,30766,2,0,P|483:121|497:68,1,107.999996704102,8|2,0:1|0:0,0:0:0:0:
324,82,31082,6,0,P|297:92|269:108,1,53.9999983520508,8|0,0:1|0:0,0:0:0:0:
141,63,31240,2,0,P|132:86|126:116,1,53.9999983520508,8|0,0:1|0:0,0:0:0:0:
57,239,31398,1,8,0:0:0:0:
57,239,31477,1,8,0:0:0:0:
57,239,31556,1,8,0:0:0:0:
57,239,31635,1,8,0:0:0:0:
57,239,31713,6,0,B|102:278|175:275|175:275|217:235,1,180,6|10,1:2|0:0,0:0:0:0:
414,329,32345,2,0,P|475:339|509:357,2,90,2|0|8,1:2|1:0|0:0,0:0:0:0:
324,82,32977,2,0,P|365:99|409:104,1,90,0|0,1:0|0:0,0:0:0:0:
475,240,33292,5,8,0:0:0:0:
375,200,33450,1,0,1:0:0:0:
453,248,33608,1,0,1:0:0:0:
355,210,33766,2,0,P|305:197|258:187,1,90,0|8,1:0|0:0,0:0:0:0:
115,295,34082,5,8,0:0:0:0:
115,295,34161,1,8,0:0:0:0:
115,295,34240,2,0,B|89:253|89:253|98:225|98:225|67:170|89:109,1,180,6|10,1:2|0:0,0:0:0:0:
340,37,34871,1,2,1:2:0:0:
423,104,35029,1,0,1:0:0:0:
330,145,35187,1,8,0:0:0:0:
340,47,35345,2,0,P|393:38|437:30,1,90,2|0,0:0|1:0,0:0:0:0:
241,60,35661,1,0,1:0:0:0:
241,171,35819,2,0,P|294:162|338:154,1,90,8|0,0:0|0:0,0:0:0:0:
442,303,36135,5,8,0:0:0:0:
388,297,36213,1,8,0:0:0:0:
334,291,36292,1,8,0:0:0:0:
280,285,36371,1,8,0:0:0:0:
226,279,36450,2,0,P|174:273|102:264,1,108,4|0,1:3|0:0,0:0:0:0:
35,101,36766,5,4,1:2:0:0:
195,132,36924,1,0,0:0:0:0:
36,218,37082,1,10,0:0:0:0:
205,126,37240,1,0,0:0:0:0:
371,250,37398,5,2,1:2:0:0:
181,212,37556,1,0,1:0:0:0:
326,141,37713,1,8,0:0:0:0:
325,336,37871,2,0,P|269:353|215:371,1,90,2|0,0:0|1:0,0:0:0:0:
248,104,38187,5,2,0:0:0:0:
248,104,38266,1,2,0:0:0:0:
248,104,38345,1,8,0:0:0:0:
205,252,38503,1,2,0:0:0:0:
170,54,38661,1,2,1:2:0:0:
119,270,38819,1,0,1:0:0:0:
7,106,38977,2,0,P|61:115|119:124,1,90,10|0,0:0|0:0,0:0:0:0:
437,172,39292,5,10,0:0:0:0:
352,125,39450,1,0,1:0:0:0:
341,230,39608,1,0,1:0:0:0:
441,181,39766,5,8,0:0:0:0:
335,101,39924,1,2,1:2:0:0:
269,273,40082,1,0,1:0:0:0:
445,190,40240,5,8,0:0:0:0:
177,98,40398,1,0,1:0:0:0:
115,262,40556,5,10,1:2:0:0:
228,182,40713,1,0,1:0:0:0:
132,161,40871,1,0,1:0:0:0:
251,352,41029,1,10,0:0:0:0:
199,282,41187,5,0,1:0:0:0:
400,111,41345,1,10,0:0:0:0:
477,227,41503,5,8,0:0:0:0:
433,209,41582,1,8,0:0:0:0:
383,214,41661,1,8,0:0:0:0:
337,193,41740,1,8,0:0:0:0:
290,194,41819,2,0,B|252:178|213:187|213:187|154:176|154:176|101:185,1,180,6|10,1:2|0:2,0:0:0:0:
321,361,42450,2,0,P|344:320|334:268,1,90,2|0,1:2|1:0,0:0:0:0:
153,216,42766,2,0,L|171:116,1,90,8|2,0:0|0:0,0:0:0:0:
283,172,43082,5,0,1:0:0:0:
137,224,43240,1,2,1:2:0:0:
160,116,43398,1,10,0:0:0:0:
218,299,43556,1,2,0:0:0:0:
218,299,43635,1,2,0:0:0:0:
218,299,43713,1,2,1:2:0:0:
51,252,43871,2,0,P|49:202|74:158,1,90,2|8,1:2|0:0,0:0:0:0:
297,256,44187,5,2,0:0:0:0:
204,191,44345,2,0,B|262:189|297:149|297:149|328:194|389:179,1,180,2|10,1:2|0:2,0:0:0:0:
170,346,44977,2,0,P|121:341|77:342,1,90,2|2,1:2|1:2,0:0:0:0:
125,250,45292,1,10,0:2:0:0:
263,329,45450,2,0,P|309:303|329:268,1,90,2|0,0:0|0:0,0:0:0:0:
225,98,45766,6,0,L|291:80,1,53.9999983520508,8|0,0:1|0:0,0:0:0:0:
324,69,45924,2,0,P|314:127|304:185,1,107.999996704102,8|0,0:1|0:0,0:0:0:0:
176,235,46240,6,0,P|141:231|115:215,1,45,2|0,1:2|0:0,0:0:0:0:
83,103,46398,2,0,L|72:150,1,45,8|8,0:0|0:0,0:0:0:0:
32,292,46556,5,8,0:0:0:0:
84,305,46635,1,8,0:0:0:0:
135,318,46713,1,8,0:0:0:0:
187,332,46792,1,8,0:0:0:0:
239,346,46871,2,0,P|227:294|222:243,1,90,6|0,1:2|0:0,0:0:0:0:
334,289,47187,2,0,P|341:242|356:189,1,90,10|0,0:0|0:0,0:0:0:0:
476,62,47503,5,2,1:2:0:0:
451,219,47661,1,0,1:0:0:0:
279,104,47819,1,8,0:0:0:0:
368,111,47977,2,0,P|317:107|266:103,1,90,2|0,0:0|1:0,0:0:0:0:
159,159,48292,2,0,P|108:155|57:151,1,90,2|8,1:2|0:0,0:0:0:0:
185,327,48608,6,0,L|211:285,1,45,2|0,0:0|0:0,0:0:0:0:
221,270,48766,2,0,P|260:274|311:278,1,90,2|0,1:2|1:0,0:0:0:0:
445,120,49082,2,0,P|453:166|432:215,1,90,10|0,0:0|0:0,0:0:0:0:
381,160,49319,5,8,0:0:0:0:
381,160,49398,1,6,1:2:0:0:
269,175,49556,1,0,1:0:0:0:
157,190,49713,2,0,P|112:181|76:140,1,90,10|2,0:2|0:2,0:0:0:0:
157,96,50029,1,2,1:2:0:0:
248,281,50187,2,0,P|298:266|336:261,1,90,0|10,1:2|0:2,0:0:0:0:
448,72,50503,5,2,0:2:0:0:
448,72,50582,1,2,0:0:0:0:
448,72,50661,1,2,1:2:0:0:
328,45,50819,1,0,1:2:0:0:
424,186,50977,1,8,0:1:0:0:
251,263,51135,1,8,0:1:0:0:
97,127,51292,5,8,0:0:0:0:
97,127,51371,1,8,0:0:0:0:
97,127,51450,2,0,L|85:184,1,45,0|0,1:0|1:0,0:0:0:0:
192,142,51608,2,0,L|201:97,1,45,10|0,0:0|0:0,0:0:0:0:
155,236,51766,2,0,L|143:293,1,45,2|0,0:0|0:0,0:0:0:0:
352,338,51924,6,0,P|414:330|482:322,1,125.999996154785,6|0,1:2|0:0,0:0:0:0:
444,180,52240,6,0,P|392:172|358:136,1,80.9999975280763,2|0,1:2|0:0,0:0:0:0:
293,181,52556,2,0,P|236:178|197:202,1,80.9999975280763,10|0,0:0|0:0,0:0:0:0:
137,154,52871,1,2,0:0:0:0:
237,309,53029,5,0,1:0:0:0:
139,292,53187,1,2,1:2:0:0:
243,320,53345,1,10,0:2:0:0:
312,230,53503,1,2,0:2:0:0:
138,302,53661,1,0,1:0:0:0:
321,236,53819,2,0,P|373:223|405:157,1,107.999996704102,10|0,1:2|0:0,0:0:0:0:
229,47,54135,5,8,0:0:0:0:
229,47,54213,1,8,0:3:0:0:
229,47,54292,1,12,0:3:0:0:
229,47,54371,1,8,1:3:0:0:
229,47,54450,2,0,P|233:72|211:103,1,45,4|0,1:3|0:0,0:0:0:0:
123,63,54608,2,0,P|118:112|136:147,1,90,0|2,1:0|1:2,0:0:0:0:
339,178,54924,1,0,1:2:0:0:
196,269,55082,6,0,P|156:291|101:281,1,90,10|0,0:0|0:0,0:0:0:0:
272,318,55398,2,0,P|322:334|365:322,1,90,2|0,1:2|0:0,0:0:0:0:
422,153,55713,5,2,1:2:0:0:
332,101,55871,1,10,0:2:0:0:
260,210,56029,1,2,0:2:0:0:
410,156,56187,1,2,0:2:0:0:
167,141,56345,6,0,B|149:138|130:127|130:127|119:82|138:44|138:44|165:36|190:39,2,161.999995056153,6|6|6,1:3|1:3|1:3,0:0:0:0:
397,297,56977,5,4,1:3:0:0:
394,202,57135,2,0,B|322:210|306:277|306:277|210:271,1,180,2|0,0:2|1:0,0:0:0:0:
122,222,57608,5,10,0:0:0:0:
131,331,57766,1,2,0:0:0:0:
154,129,57924,5,2,0:0:0:0:
164,298,58082,1,2,0:0:0:0:
373,191,58240,6,0,P|320:176|299:143,1,90,2|8,1:2|0:0,0:0:0:0:
301,149,58477,2,0,P|302:103|340:65,1,90,2|0,1:2|0:0,0:0:0:0:
329,70,58713,1,2,1:2:0:0:
418,290,58871,6,0,P|344:298|283:305,1,107.999996704102,8|0,0:0|0:0,0:0:0:0:
156,230,59187,2,0,P|98:208|35:182,1,107.999996704102,10|0,0:0|1:0,0:0:0:0:
162,30,59503,6,0,B|190:29|219:47|219:47|256:33|301:54,1,135,14|0,1:2|0:0,0:0:0:0:
315,46,59819,2,0,L|362:23,1,45,8|8,0:0|0:0,0:0:0:0:
361,142,59977,2,0,L|421:152,1,45,8|8,0:0|0:0,0:0:0:0:
288,266,60135,5,10,0:0:0:0:
246,281,60213,1,8,0:0:0:0:
203,266,60292,1,10,0:0:0:0:
178,228,60371,1,8,0:0:0:0:
179,182,60450,2,0,L|193:132,1,45,8|8,0:0|1:3,0:0:0:0:
325,171,60608,2,0,L|385:181,1,45,4|0,1:3|1:0,0:0:0:0:
474,351,60766,6,0,P|485:296|495:240,1,107.999996704102,14|0,0:0|1:0,0:0:0:0:
433,90,61082,1,0,1:0:0:0:
228,339,61240,6,0,P|239:284|249:228,1,107.999996704102,10|0,0:0|1:0,0:0:0:0:
225,92,61556,1,12,1:3:0:0:
316,161,61713,5,4,1:3:0:0:
78,269,61871,1,4,1:3:0:0:
380,296,62503,6,0,P|398:328|386:367,1,72,2|2,0:0|0:0,0:0:0:0:
391,281,62819,2,0,P|379:321|346:328,1,72,2|2,0:0|0:0,0:0:0:0:
277,308,63135,6,0,B|297:246|272:183|272:183|318:158,1,161.999995056153,6|0,1:2|0:0,0:0:0:0:
371,135,63450,1,2,0:0:0:0:
202,280,63608,2,0,B|207:248|198:221|198:221|139:226|73:191,1,161.999995056153,10|0,1:2|0:0,0:0:0:0:
39,153,63924,1,2,1:2:0:0:
118,295,64082,5,2,0:0:0:0:
141,107,64240,1,10,1:2:0:0:
112,280,64398,1,2,0:0:0:0:
319,217,64556,6,0,P|375:201|423:181,1,107.999996704102,2|0,1:2|0:0,0:0:0:0:
317,125,64871,1,10,1:2:0:0:
195,252,65029,2,0,P|179:313|168:372,1,107.999996704102,2|0,0:0|1:0,0:0:0:0:
219,115,65345,2,0,P|174:70|128:31,1,107.999996704102,2|8,0:0|0:0,0:0:0:0:
0,208,65661,6,0,B|66:208|116:231|116:231|79:190,1,161.999995056153,6|0,1:2|0:0,0:0:0:0:
259,297,65977,1,2,0:0:0:0:
259,297,66135,2,0,P|273:243|232:188,1,107.999996704102,10|0,1:2|0:0,0:0:0:0:
69,122,66450,1,2,1:2:0:0:
100,319,66608,1,2,0:0:0:0:
223,110,66766,5,10,1:2:0:0:
144,221,66924,1,2,0:0:0:0:
297,228,67082,2,0,P|364:222|413:214,1,107.999996704102,2|0,1:2|0:0,0:0:0:0:
299,87,67398,1,10,1:2:0:0:
364,315,67556,2,0,P|297:321|248:329,1,107.999996704102,2|0,0:0|1:0,0:0:0:0:
146,141,67871,1,2,0:0:0:0:
297,228,68029,1,10,0:0:0:0:
67,343,68187,6,0,B|49:300|74:266|74:266|22:208|70:136,1,215.999993408203,6|0,1:2|0:0,0:0:0:0:
242,52,68661,2,0,P|295:70|316:119,1,107.999996704102,8|2,1:2|0:0,0:0:0:0:
189,288,68977,2,0,P|167:230|149:180,1,107.999996704102,0|2,1:0|0:0,0:0:0:0:
396,290,69292,6,0,P|450:281|507:273,1,107.999996704102,10|0,1:2|0:0,0:0:0:0:
508,182,69608,2,0,B|454:189|382:202|382:202|375:157,1,161.999995056153,2|0,1:2|0:0,0:0:0:0:
376,158,69924,1,10,1:2:0:0:
320,316,70082,1,2,0:0:0:0:
263,109,70240,1,0,1:0:0:0:
235,332,70398,1,2,0:0:0:0:
119,94,70556,6,0,L|110:163,1,53.9999983520508,10|0,0:2|0:0,0:0:0:0:
91,342,70713,2,0,P|98:273|106:218,1,107.999996704102,6|0,1:2|0:0,0:0:0:0:
303,208,71029,5,2,1:2:0:0:
303,208,71108,1,0,1:0:0:0:
303,208,71187,1,8,1:2:0:0:
191,148,71345,1,2,0:0:0:0:
171,355,71503,1,2,1:2:0:0:
389,218,71661,5,8,0:1:0:0:
176,259,71819,1,8,0:1:0:0:
389,218,71977,2,0,B|403:194|403:194|392:174|392:174|421:109|392:36,1,188.999994232178,6|0,1:2|2:0,0:0:0:0:
381,28,72292,6,0,L|354:93,1,62.9999980773926,8|0,1:0|1:0,0:0:0:0:
309,255,72450,2,0,L|281:181,1,62.9999980773926,8|0,1:0|1:0,0:0:0:0:
233,48,72608,2,0,L|206:113,1,62.9999980773926,8|0,1:0|1:0,0:0:0:0:
104,210,72766,5,4,1:3:0:0:
347,157,72924,1,4,1:3:0:0:
425,329,73240,6,0,P|343:360|246:290,1,215.999993408203,6|2,1:2|0:0,0:0:0:0:
52,152,73713,2,0,B|114:125|182:132|182:132|159:112,1,161.999995056153,10|0,1:2|0:0,0:0:0:0:
253,98,74029,1,2,1:2:0:0:
197,233,74187,1,2,0:2:0:0:
315,145,74345,1,10,1:2:0:0:
123,210,74503,1,2,0:2:0:0:
340,250,74661,6,0,P|399:261|453:231,1,107.999996704102,2|0,1:2|0:0,0:0:0:0:
417,74,74977,1,10,1:2:0:0:
307,34,75135,2,0,P|249:62|225:112,1,107.999996704102,2|0,0:0|1:0,0:0:0:0:
171,290,75450,2,0,P|180:235|157:186,1,107.999996704102,2|8,0:0|0:0,0:0:0:0:
26,310,75766,6,0,B|69:342|140:305|140:305|185:361|251:358,1,215.999993408203,6|2,1:2|0:0,0:0:0:0:
468,297,76240,2,0,P|406:289|341:281,1,107.999996704102,10|0,1:2|0:0,0:0:0:0:
166,179,76556,1,2,1:2:0:0:
329,206,76713,1,2,0:2:0:0:
217,93,76871,1,10,1:2:0:0:
238,259,77029,1,2,0:2:0:0:
439,79,77187,5,10,1:2:0:0:
445,86,77266,1,8,1:2:0:0:
452,94,77345,1,0,1:0:0:0:
433,209,77503,1,10,0:0:0:0:
325,43,77661,5,6,1:3:0:0:
76,178,77977,1,6,1:3:0:0:
352,354,78292,2,0,P|430:326|414:180,1,215.999993408203,6|0,1:2|1:0,0:0:0:0:
314,153,78766,5,8,0:0:0:0:
298,280,78924,1,0,1:0:0:0:
325,147,79082,5,10,0:0:0:0:
148,192,79240,1,0,1:0:0:0:
307,287,79398,1,10,0:0:0:0:
138,188,79556,1,0,1:0:0:0:
385,216,79713,5,10,0:0:0:0:
385,216,79792,1,0,1:0:0:0:
385,216,79871,2,0,L|403:147,1,53.9999983520508,0|0,1:0|1:0,0:0:0:0:
207,313,80029,1,10,0:0:0:0:
207,313,80108,1,0,1:0:0:0:
207,313,80187,2,0,L|188:256,1,53.9999983520508,0|0,1:0|1:0,0:0:0:0:
267,60,80345,6,0,P|291:85|291:124,1,53.9999983520508,8|0,0:0|0:0,0:0:0:0:
311,235,80503,2,0,P|277:243|243:223,1,53.9999983520508,2|0,1:2|0:0,0:0:0:0:
137,185,80661,2,0,P|146:151|180:132,1,53.9999983520508,8|0,0:0|0:0,0:0:0:0:
390,167,80819,2,0,P|452:164|512:160,1,107.999996704102,6|0,1:2|0:0,0:0:0:0:
388,336,81135,5,0,1:0:0:0:
388,336,81213,1,0,1:0:0:0:
388,336,81292,2,0,L|340:304,1,53.9999983520508,10|0,0:0|1:0,0:0:0:0:
204,348,81450,2,0,L|185:291,1,53.9999983520508,2|0,1:2|1:0,0:0:0:0:
143,96,81608,5,12,1:3:0:0:
435,38,81845,1,8,1:2:0:0:
143,96,82082,1,8,1:2:0:0:
56,114,82240,5,10,1:2:0:0:
289,67,82477,1,8,0:2:0:0:
56,114,82714,1,8,1:2:0:0:
212,298,83029,5,8,0:0:0:0:
219,306,83108,1,8,0:0:0:0:
228,311,83187,1,8,0:0:0:0:
238,312,83266,1,8,0:0:0:0:
248,309,83345,1,4,1:2:0:0:
390,138,85556,5,4,1:3:0:0:
266,184,85713,1,8,1:2:0:0:
389,261,85871,1,8,0:0:0:0:
392,107,86187,5,4,1:3:0:0:
236,191,86345,1,8,0:0:0:0:
401,295,86503,1,8,0:0:0:0:
392,77,86819,5,4,1:3:0:0:
210,198,86977,1,8,0:0:0:0:
411,321,87135,1,8,0:0:0:0:
395,48,87450,5,4,1:3:0:0:
184,203,87608,1,8,0:0:0:0:
415,344,87766,1,8,0:0:0:0:
157,209,87924,1,0,1:0:0:0:
419,190,88082,5,8,1:3:0:0:
264,220,88240,1,4,1:3:0:0:
78,255,88398,1,12,1:2:0:0:
