osu file format v14

[General]
AudioFilename: audio.mp3
AudioLeadIn: 0
PreviewTime: 62449
Countdown: 0
SampleSet: Soft
StackLeniency: 0.7
Mode: 0
LetterboxInBreaks: 0
WidescreenStoryboard: 1

[Editor]
DistanceSpacing: 1.3
BeatDivisor: 4
GridSize: 8
TimelineZoom: 4.399999

[Metadata]
Title:No.7 (TV Size)
TitleUnicode:No.7 (TV Size)
Artist:Jibaku Shounen Band
ArtistUnicode:地縛少年バンド
Creator:Nevo
Version:Apparition
Source:地縛少年花子くん
Tags:anime japanese rock jrock j-rock number 7 no seven hanako san kun Toilet bound Toilet-bound Hanako-kun - from PENGUIN RESEARCH Masayoshi Ooishi opening op anchor addy2607 shiratoi shira xandit torriru tori no7 KaedeharaKazuha Kaedehara Kazuha
BeatmapID:3049882
BeatmapSetID:1487638

[Difficulty]
HPDrainRate:6
CircleSize:4
OverallDifficulty:9
ApproachRate:9.3
SliderMultiplier:1.7
SliderTickRate:1

[Events]
//Background and Video events
0,0,"80139140_p0.jpg",0,0
Video,0,"HANAKO.mp4"
//Break Periods
//Storyboard Layer 0 (Background)
//Storyboard Layer 1 (Fail)
//Storyboard Layer 2 (Pass)
//Storyboard Layer 3 (Foreground)
//Storyboard Layer 4 (Overlay)
//Storyboard Sound Samples

[TimingPoints]
5212,315.789473684211,4,2,1,100,1,0
6318,-83.3333333333333,4,2,1,100,0,0
9002,-133.333333333333,4,2,1,60,0,0
10580,-133.333333333333,4,2,1,70,0,0
11527,-100,4,2,1,80,0,0
11528,-100,4,2,1,80,0,0
31738,-125,4,2,1,70,0,0
36791,-100,4,2,1,80,0,0
41843,-100,4,2,1,75,0,0
46896,-100,4,2,1,80,0,0
51949,-100,4,2,1,90,0,0
62054,-100,4,2,1,60,0,0
63159,-83.3333333333333,4,2,1,100,0,1
68212,-90.9090909090909,4,2,1,100,0,1
68528,-83.3333333333333,4,2,1,100,0,1
80843,-83.3333333333333,4,2,1,100,0,0
81317,-100,4,2,1,100,0,0
83685,-100,4,2,1,60,0,0
85580,-100,4,2,1,100,0,0

[Colours]
Combo1 : 74,181,149
Combo2 : 255,172,132
Combo3 : 153,77,77

[HitObjects]
154,243,6318,6,0,L|143:352,1,101.999996887207,14|0,0:0|0:0,0:0:0:0:
251,191,6633,1,10,3:2:0:0:
47,279,6791,1,10,3:2:0:0:
250,304,6949,1,2,3:2:0:0:
68,169,7107,6,0,L|48:7,2,152.999995330811,10|10|10,3:2|3:2|3:2,0:0:0:0:
172,91,7739,2,0,L|154:243,2,152.999995330811,10|10|10,3:2|3:2|3:2,0:0:0:0:
281,288,8496,2,0,L|270:242,3,40.7999987548829,0|0|0|12,3:0|3:0|3:0|0:0,0:0:0:0:
112,9,9002,6,0,L|46:17,1,63.7500024318696,2|2,0:0|0:0,0:0:0:0:
330,120,9475,2,0,L|396:128,1,63.7500024318696,2|2,0:0|0:0,0:0:0:0:
78,100,9949,2,0,L|12:108,1,63.7500024318696,2|2,0:0|0:0,0:0:0:0:
338,197,10423,2,0,L|335:177,2,21.2500008106232,0|0|0,3:0|3:0|3:0,3:0:0:0:
359,218,10581,2,0,L|453:230,1,63.7500024318696,12|0,0:0|0:0,0:0:0:0:
220,283,10896,1,8,3:2:0:0:
200,257,10974,1,8,0:0:0:0:
190,227,11053,1,8,0:0:0:0:
188,196,11132,1,8,0:0:0:0:
196,165,11211,1,8,3:2:0:0:
213,138,11290,1,8,0:0:0:0:
237,117,11370,2,0,L|231:68,1,31.8750012159348,8|8,0:0|0:0,0:0:0:0:
55,19,11528,6,0,L|42:121,1,85,6|0,3:1|0:0,0:0:0:0:
15,273,11843,1,10,0:0:0:0:
111,153,12001,1,0,0:0:0:0:
86,322,12159,1,2,3:0:0:0:
32,188,12317,1,2,3:0:0:0:
176,299,12475,1,10,0:0:0:0:
15,273,12633,6,0,P|-3:329|3:355,1,85,2|0,0:0|3:0,0:0:0:0:
163,379,12949,2,0,P|181:323|175:297,1,85,2|8,3:0|0:0,0:0:0:0:
111,153,13264,2,0,L|219:167,1,85,2|0,0:0|3:0,0:0:0:0:
332,229,13580,2,0,L|224:243,2,85,2|10|0,3:0|0:0|0:0,0:0:0:0:
428,118,14054,5,6,3:2:0:0:
421,288,14212,1,0,0:0:0:0:
348,144,14370,1,10,0:0:0:0:
511,267,14528,1,0,0:0:0:0:
512,97,14685,1,2,3:0:0:0:
421,288,14843,1,2,3:0:0:0:
428,118,15001,1,10,0:0:0:0:
487,349,15159,6,0,P|453:374|394:367,1,85,2|0,0:0|3:0,0:0:0:0:
281,265,15475,1,10,0:0:0:0:
435,204,15633,2,0,B|421:287,1,85,8|2,0:0|0:0,0:0:0:0:
298,348,15949,2,0,L|281:265,1,85,8|10,3:2|0:2,0:0:0:0:
108,308,16264,2,0,P|156:332|198:327,1,85,10|8,3:2|0:0,0:0:0:0:
186,330,16501,1,8,0:0:0:0:
186,330,16580,5,6,3:2:0:0:
254,173,16738,1,0,0:0:0:0:
176,236,16896,1,8,0:0:0:0:
345,203,17054,2,0,P|351:161|335:122,1,85,2|0,0:0|3:0,0:0:0:0:
172,56,17370,1,2,3:0:0:0:
172,56,17528,2,0,L|162:141,1,85,10|0,0:0|0:0,0:0:0:0:
93,294,17843,6,0,L|82:210,1,85,0|0,3:0|3:0,0:0:0:0:
264,88,18159,2,0,L|253:173,1,85,10|2,0:0|0:0,0:0:0:0:
172,56,18475,1,0,3:0:0:0:
356,40,18633,1,2,3:0:0:0:
187,159,18791,1,10,0:0:0:0:
361,143,18949,1,8,0:0:0:0:
361,143,19028,1,8,0:0:0:0:
361,143,19106,6,0,L|460:130,1,85,6|0,3:2|0:0,0:0:0:0:
354,247,19422,1,8,0:0:0:0:
264,88,19580,1,2,0:0:0:0:
441,199,19738,1,0,3:0:0:0:
264,187,19896,1,2,3:0:0:0:
439,100,20054,1,10,0:0:0:0:
440,296,20212,6,0,L|438:401,1,85,2|0,0:0|3:0,0:0:0:0:
179,235,20528,1,8,0:0:0:0:
354,247,20685,2,0,L|352:331,1,85,10|0,0:0|0:0,0:0:0:0:
177,134,21001,5,10,3:2:0:0:
441,199,21238,1,10,3:2:0:0:
185,335,21475,1,10,3:2:0:0:
185,335,21554,1,8,0:2:0:0:
185,335,21633,6,0,P|113:321|97:299,1,85,6|0,3:1|0:0,0:0:0:0:
271,279,21949,1,10,0:0:0:0:
270,379,22106,1,0,0:0:0:0:
179,235,22264,1,2,3:0:0:0:
358,327,22422,1,2,3:0:0:0:
264,178,22580,1,10,0:0:0:0:
438,233,22738,6,0,L|354:226,1,85,2|0,0:0|3:0,0:0:0:0:
496,173,23054,2,0,P|523:232|502:286,1,85,2|8,3:0|0:0,0:0:0:0:
416,139,23370,2,0,P|466:88|509:80,1,85,2|0,0:0|3:0,0:0:0:0:
512,335,23685,2,0,P|475:328|441:297,1,85,2|10,3:0|0:0,0:0:0:0:
268,218,24001,1,8,0:0:0:0:
268,218,24080,1,8,0:0:0:0:
268,218,24159,6,0,L|352:225,1,85,6|0,3:2|0:0,0:0:0:0:
232,301,24475,1,10,0:0:0:0:
231,128,24633,1,0,0:0:0:0:
329,302,24791,1,2,3:0:0:0:
186,215,24949,1,2,3:0:0:0:
327,131,25106,1,10,0:0:0:0:
232,301,25264,1,2,0:0:0:0:
231,128,25422,5,0,3:0:0:0:
277,384,25580,1,10,0:0:0:0:
369,213,25738,2,0,P|327:210|287:222,1,85,8|2,0:0|0:0,0:0:0:0:
147,311,26054,2,0,L|247:298,1,85,8|10,3:2|0:2,0:0:0:0:
121,125,26370,2,0,L|21:112,1,85,10|8,3:2|0:0,0:0:0:0:
36,114,26606,1,8,0:0:0:0:
36,114,26685,6,0,P|49:160|105:193,1,85,6|0,3:2|0:0,0:0:0:0:
187,73,27001,2,0,P|142:40|103:34,1,85,8|2,0:0|0:0,0:0:0:0:
186,162,27317,1,0,3:0:0:0:
263,118,27475,1,2,3:0:0:0:
115,115,27633,1,10,0:0:0:0:
264,205,27791,6,0,L|354:192,1,85,0|0,0:0|3:0,0:0:0:0:
188,249,28106,1,0,3:0:0:0:
263,118,28264,2,0,L|353:105,1,85,10|2,0:0|0:0,0:0:0:0:
510,162,28580,2,0,L|420:149,1,85,0|2,3:0|3:0,0:0:0:0:
272,297,28896,2,0,L|362:284,1,85,10|0,0:0|0:0,0:0:0:0:
437,256,29133,1,8,0:0:0:0:
437,256,29212,6,0,P|432:324|414:346,1,85,6|0,3:2|0:0,0:0:0:0:
272,297,29528,1,8,0:0:0:0:
342,215,29685,1,2,0:0:0:0:
332,382,29843,1,0,3:0:0:0:
241,204,30001,1,2,3:0:0:0:
205,376,30159,1,10,0:0:0:0:
301,128,30317,1,2,0:0:0:0:
272,297,30475,5,0,3:0:0:0:
135,189,30633,1,10,0:0:0:0:
64,304,30791,2,0,L|179:289,1,85,10|2,0:0|0:0,0:0:0:0:
192,100,31106,2,0,L|77:85,1,85,10|10,3:2|0:2,0:0:0:0:
90,71,31343,1,8,0:2:0:0:
135,63,31422,1,8,3:2:0:0:
177,58,31500,1,8,0:2:0:0:
219,53,31579,1,8,0:2:0:0:
261,48,31658,1,8,0:2:0:0:
303,43,31738,6,0,P|308:88|294:134,1,68,6|0,3:2|0:0,0:0:0:0:
184,211,32054,2,0,P|220:184|267:173,1,68,10|0,0:0|0:0,0:0:0:0:
345,282,32370,1,2,3:2:0:0:
261,265,32528,1,2,3:2:0:0:
403,219,32685,1,10,0:0:0:0:
382,362,32843,1,2,0:0:0:0:
319,199,33001,6,0,L|330:121,1,68,0|2,3:2|0:0,0:0:0:0:
485,182,33317,2,0,L|496:260,1,68,10|2,0:0|0:0,0:0:0:0:
409,135,33633,1,2,3:2:0:0:
486,94,33791,1,2,3:2:0:0:
403,219,33949,1,8,0:0:0:0:
340,82,34106,1,10,0:0:0:0:
340,82,34185,1,8,0:0:0:0:
340,82,34264,6,0,P|306:68|260:72,1,68,6|0,3:2|0:0,0:0:0:0:
169,183,34580,2,0,P|198:160|217:118,1,68,10|0,0:0|0:0,0:0:0:0:
115,22,34896,1,2,3:2:0:0:
133,108,35054,1,2,3:2:0:0:
197,49,35212,1,10,0:0:0:0:
51,83,35370,1,2,0:0:0:0:
213,133,35528,5,0,3:2:0:0:
73,168,35685,1,2,3:2:0:0:
279,77,35843,1,10,0:0:0:0:
133,108,36001,1,2,0:0:0:0:
246,212,36159,1,10,3:2:0:0:
276,227,36237,1,8,0:2:0:0:
309,232,36316,1,10,0:2:0:0:
342,226,36395,1,8,0:2:0:0:
372,209,36475,2,0,B|382:135|382:135|410:115,1,102,0|0,3:2|0:0,0:0:0:0:
463,180,36791,6,0,L|457:280,1,85,6|0,3:2|0:0,0:0:0:0:
302,335,37106,2,0,P|351:304|380:302,1,85,10|0,0:2|0:0,0:0:0:0:
508,378,37422,1,2,3:2:0:0:
457,264,37580,1,0,3:2:0:0:
366,384,37738,1,10,0:2:0:0:
316,277,37896,6,0,L|208:260,1,85,2|0,0:0|3:2,0:0:0:0:
128,368,38212,2,0,L|236:351,1,85,2|8,0:0|0:2,0:0:0:0:
168,195,38528,1,2,0:0:0:0:
168,195,38685,2,0,P|131:240|132:288,1,85,2|2,3:2|3:2,0:0:0:0:
260,165,39001,2,0,L|251:72,1,85,10|0,0:2|0:0,0:0:0:0:
24,111,39317,5,14,0:2:0:0:
232,263,39475,1,0,3:2:0:0:
116,68,39633,1,2,3:2:0:0:
47,285,39791,5,10,0:2:0:0:
260,165,39949,1,2,3:2:0:0:
0,201,40106,1,0,3:2:0:0:
141,304,40264,5,10,0:2:0:0:
202,98,40422,1,2,3:2:0:0:
227,364,40580,5,14,0:2:0:0:
148,210,40738,1,0,3:2:0:0:
329,238,40896,1,2,3:2:0:0:
141,304,41054,2,0,L|53:296,1,85,10|0,0:2|3:2,0:0:0:0:
322,339,41370,2,0,L|381:327,1,42.5,10|0,0:2|0:0,0:0:0:0:
433,252,41528,1,8,0:2:0:0:
434,209,41606,1,8,0:2:0:0:
417,171,41685,1,8,0:2:0:0:
386,143,41764,1,8,0:2:0:0:
345,133,41843,6,0,L|331:232,1,85,6|0,3:2|0:0,0:0:0:0:
202,98,42159,2,0,L|190:14,1,85,10|0,0:2|0:0,0:0:0:0:
21,61,42475,2,0,P|59:78|102:75,1,85,2|0,3:2|3:2,0:0:0:0:
153,195,42791,2,0,P|114:178|72:181,1,85,8|2,0:2|0:0,0:0:0:0:
259,261,43106,5,0,3:2:0:0:
202,98,43264,1,2,3:2:0:0:
91,261,43422,1,10,0:2:0:0:
240,179,43580,1,2,0:0:0:0:
253,347,43738,1,2,3:2:0:0:
170,302,43896,1,2,3:2:0:0:
332,311,44054,1,8,0:2:0:0:
178,384,44212,1,2,0:0:0:0:
341,222,44370,6,0,P|408:258|415:270,1,85,2|0,3:2|3:0,0:0:0:0:
411,263,44606,1,0,3:0:0:0:
411,263,44685,2,0,L|423:175,1,85,10|0,0:2|0:0,0:0:0:0:
293,56,45001,1,2,3:2:0:0:
352,123,45159,1,2,3:2:0:0:
382,38,45317,1,10,0:2:0:0:
265,141,45475,2,0,L|170:132,1,85,2|0,0:0|3:2,0:0:0:0:
293,56,45791,5,10,0:2:0:0:
422,178,45949,2,0,L|517:169,1,85,10|2,0:2|0:0,0:0:0:0:
399,302,46264,2,0,L|331:294,1,42.5,10|0,3:2|0:0,0:0:0:0:
280,254,46422,1,10,0:2:0:0:
240,240,46500,1,8,0:2:0:0:
197,239,46579,1,8,3:2:0:0:
157,251,46658,1,8,0:2:0:0:
117,264,46738,1,8,0:2:0:0:
74,265,46817,1,8,0:2:0:0:
34,253,46896,6,0,L|19:148,1,85,6|0,3:2|0:0,0:0:0:0:
161,10,47212,1,10,0:2:0:0:
96,165,47370,1,0,0:0:0:0:
71,64,47528,1,2,3:2:0:0:
189,199,47685,1,0,3:2:0:0:
254,50,47843,1,10,0:2:0:0:
362,156,48001,6,0,L|249:143,1,85,2|0,0:0|3:2,0:0:0:0:
145,305,48317,2,0,L|258:292,1,85,2|8,3:2|0:2,0:0:0:0:
422,274,48633,1,2,0:0:0:0:
338,322,48791,2,0,P|327:274|336:230,1,85,2|0,3:2|3:2,0:0:0:0:
454,94,49106,2,0,L|439:178,1,85,10|0,0:2|0:0,0:0:0:0:
439,177,49343,1,8,0:2:0:0:
439,177,49422,6,0,P|387:129|353:121,1,85,6|0,3:2|0:0,0:0:0:0:
179,162,49738,1,10,0:2:0:0:
332,239,49896,1,2,0:0:0:0:
144,258,50054,1,2,3:2:0:0:
282,149,50212,1,0,3:2:0:0:
246,319,50370,1,10,0:2:0:0:
179,162,50528,1,2,0:0:0:0:
103,352,50685,5,2,3:2:0:0:
237,228,50843,1,8,0:2:0:0:
67,178,51001,1,10,0:2:0:0:
246,319,51159,1,10,0:2:0:0:
32,272,51317,1,8,0:2:0:0:
32,272,51396,1,8,0:2:0:0:
35,275,51475,1,2,3:1:0:0:
282,149,51633,1,10,0:0:0:0:
144,258,51791,1,2,0:0:0:0:
220,57,51949,6,0,P|300:36|366:72,1,127.5,6|0,3:2|0:0,0:0:0:0:
366,156,52264,2,0,L|281:148,1,85,2|0,0:0|3:2,0:0:0:0:
420,84,52580,2,0,L|504:76,1,85,14|2,0:2|0:0,0:0:0:0:
411,243,52896,1,2,0:0:0:0:
366,156,53054,1,10,0:2:0:0:
366,329,53212,6,0,P|441:336|478:311,1,85,2|10,3:2|0:2,0:0:0:0:
308,243,53528,2,0,P|264:304|267:348,1,85,2|2,0:0|3:2,0:0:0:0:
169,381,53843,2,0,L|156:275,1,85,10|0,0:0|0:0,0:0:0:0:
78,173,54159,1,10,0:0:0:0:
72,215,54237,1,8,0:0:0:0:
67,257,54316,1,10,0:3:0:0:
171,145,54475,5,6,3:2:0:0:
100,79,54633,2,0,P|152:104|261:52,1,170,2|2,0:0|3:2,0:0:0:0:
371,9,55106,2,0,P|348:60|359:110,1,85,14|2,0:0|0:0,0:0:0:0:
502,126,55422,2,0,P|469:80|420:65,1,85,2|2,0:0|0:0,0:0:0:0:
279,142,55738,5,2,3:2:0:0:
409,159,55896,1,10,0:0:0:0:
207,210,56054,1,2,0:0:0:0:
350,87,56212,1,2,0:0:0:0:
295,268,56370,2,0,L|277:131,2,127.5,2|0|2,3:2|3:2|3:2,0:0:0:0:
313,372,57001,5,6,3:2:0:0:
470,316,57159,2,0,L|386:307,1,85,2|0,0:0|0:0,0:0:0:0:
216,326,57475,1,2,3:2:0:0:
313,372,57633,1,14,0:0:0:0:
137,384,57791,1,2,0:0:0:0:
295,268,57949,1,2,0:0:0:0:
121,277,58106,1,10,0:0:0:0:
386,307,58264,6,0,P|395:238|360:187,2,127.5,2|2|2,3:2|0:0|3:2,0:0:0:0:
313,372,58817,1,0,3:2:0:0:
313,372,58896,2,0,L|199:359,1,85,8|2,0:0|3:2,0:0:0:0:
45,344,59212,1,10,0:0:0:0:
295,268,59370,1,2,3:2:0:0:
148,107,59528,5,6,3:2:0:0:
106,101,59606,1,8,0:0:0:0:
66,115,59685,1,8,0:0:0:0:
37,145,59764,1,8,0:0:0:0:
25,185,59843,6,0,L|34:245,1,42.5,10|8,3:2|0:0,0:0:0:0:
129,278,60001,2,0,L|138:217,1,42.5,10|8,0:0|0:0,0:0:0:0:
13,198,60159,6,0,L|22:258,1,42.5,10|8,3:2|0:0,0:0:0:0:
116,290,60317,2,0,L|125:229,1,42.5,10|8,0:0|0:0,0:0:0:0:
37,345,60475,5,8,3:2:0:0:
70,370,60553,1,8,0:3:0:0:
111,382,60632,1,6,0:3:0:0:
153,378,60711,1,0,3:2:0:0:
190,358,60791,6,0,L|284:344,1,85,14|2,0:0|3:2,0:0:0:0:
465,316,61106,1,2,3:2:0:0:
341,182,61264,1,14,0:0:0:0:
375,384,61422,1,0,3:2:0:0:
448,214,61580,1,10,3:2:0:0:
250,254,61738,1,8,3:2:0:0:
334,72,61896,1,8,3:2:0:0:
89,342,63159,6,0,P|156:369|258:297,1,203.999993774414,6|2,3:1|1:0,0:0:0:0:
135,168,63633,2,0,L|159:267,1,101.999996887207,10|0,0:0|1:0,0:0:0:0:
230,99,63949,1,2,3:0:0:0:
28,149,64106,1,2,1:0:0:0:
265,207,64264,1,10,0:0:0:0:
34,261,64422,1,2,1:0:0:0:
132,57,64580,6,0,P|194:2|323:38,1,203.999993774414,2|10,3:0|0:0,0:0:0:0:
374,206,65054,2,0,P|363:134|378:106,1,101.999996887207,2|0,1:0|3:0,0:0:0:0:
462,260,65370,2,0,P|405:305|373:306,1,101.999996887207,2|8,1:0|0:0,0:0:0:0:
177,197,65685,6,0,B|235:175|235:175|398:211,1,203.999993774414,6|2,3:2|1:0,0:0:0:0:
440,75,66159,2,0,L|321:99,1,101.999996887207,10|0,0:0|1:0,0:0:0:0:
237,286,66475,1,2,3:0:0:0:
373,205,66633,1,2,1:0:0:0:
135,111,66791,1,10,0:0:0:0:
112,351,66949,1,2,1:0:0:0:
208,43,67106,6,0,P|166:14|115:10,1,101.999996887207,2|0,3:0|1:0,0:0:0:0:
166,213,67422,1,10,0:0:0:0:
166,213,67580,2,0,P|211:190|240:149,1,101.999996887207,2|0,1:0|3:0,0:0:0:0:
135,111,67896,1,2,1:0:0:0:
286,252,68054,1,10,0:0:0:0:
88,372,68212,6,0,L|67:187,1,187.000005706787,6|0,3:2|1:0,0:0:0:0:
326,352,68685,2,0,P|259:355|222:335,1,101.999996887207,8|0,0:0|1:0,0:0:0:0:
295,150,69001,2,0,L|285:260,1,101.999996887207,2|0,3:0|1:0,0:0:0:0:
392,114,69317,2,0,L|382:4,1,101.999996887207,10|0,0:0|1:0,0:0:0:0:
196,23,69633,6,0,P|239:50|290:53,1,101.999996887207,2|0,3:0|1:0,0:0:0:0:
205,147,69949,1,10,0:0:0:0:
205,147,70106,2,0,P|154:149|111:176,1,101.999996887207,2|0,1:0|3:0,0:0:0:0:
23,327,70422,2,0,L|145:305,1,101.999996887207,2|10,1:0|0:0,0:0:0:0:
458,356,70738,6,0,L|295:343,1,152.999995330811,6|0,3:2|0:0,0:0:0:0:
207,290,71054,1,2,3:2:0:0:
476,213,71212,1,10,0:0:0:0:
192,183,71370,1,2,0:0:0:0:
431,113,71528,1,2,3:2:0:0:
376,316,71685,1,8,0:0:0:0:
279,54,71843,1,10,0:0:0:0:
267,369,72001,2,0,P|206:387|126:347,1,152.999995330811,6|0,3:2|0:0,0:0:0:0:
65,233,72317,5,2,3:2:0:0:
338,200,72475,1,10,0:0:0:0:
178,33,72633,1,2,0:0:0:0:
213,286,72791,1,10,3:2:0:0:
378,104,72949,1,8,0:0:0:0:
378,104,73264,6,0,L|493:87,1,101.999996887207,6|0,3:1|0:0,0:0:0:0:
338,200,73580,1,2,1:0:0:0:
178,33,73738,2,0,L|43:16,1,101.999996887207,10|0,0:0|1:0,0:0:0:0:
239,123,74054,1,2,3:0:0:0:
279,34,74212,1,2,1:0:0:0:
142,127,74370,1,10,0:0:0:0:
302,210,74528,1,2,1:0:0:0:
157,330,74685,6,0,P|80:334|-2:233,1,203.999993774414,2|10,3:0|0:0,0:0:0:0:
142,127,75159,2,0,L|110:238,1,101.999996887207,2|0,1:0|3:0,0:0:0:0:
330,308,75475,2,0,L|298:197,1,101.999996887207,2|8,1:0|0:0,0:0:0:0:
512,89,75791,6,0,B|466:140|466:140|295:119,1,203.999993774414,6|2,3:2|1:0,0:0:0:0:
170,13,76264,2,0,P|220:33|250:75,1,101.999996887207,10|0,0:0|1:0,0:0:0:0:
228,274,76580,1,2,3:0:0:0:
150,113,76738,1,2,1:0:0:0:
76,277,76896,1,10,0:0:0:0:
286,170,77054,1,2,1:0:0:0:
154,360,77212,5,10,0:0:0:0:
154,360,77291,1,8,0:0:0:0:
154,360,77370,1,0,3:0:0:0:
25,163,77528,1,10,0:0:0:0:
335,263,77685,5,2,3:0:0:0:
291,25,78001,1,2,3:0:0:0:
162,138,78317,2,0,B|240:123|240:123|287:146|287:146|387:127,1,203.999993774414,6|0,3:2|3:2,0:0:0:0:
416,5,78791,5,8,0:0:0:0:
207,256,78949,1,0,3:2:0:0:
512,194,79106,1,10,0:0:0:0:
287,21,79264,5,0,3:2:0:0:
287,21,79343,1,0,3:2:0:0:
287,21,79422,1,10,0:0:0:0:
346,298,79580,5,0,3:2:0:0:
346,298,79659,1,0,3:2:0:0:
346,298,79738,1,10,0:0:0:0:
450,53,79896,5,0,3:2:0:0:
450,53,79975,1,0,3:2:0:0:
450,53,80054,1,10,0:0:0:0:
161,114,80212,5,2,3:2:0:0:
161,114,80291,1,0,3:2:0:0:
161,114,80370,1,8,0:0:0:0:
491,225,80528,5,2,3:2:0:0:
491,225,80606,1,0,3:2:0:0:
491,225,80685,1,8,0:0:0:0:
131,322,80843,5,6,3:2:0:0:
71,75,81159,5,2,3:2:0:0:
71,75,81238,1,0,3:2:0:0:
71,75,81317,2,0,P|62:128|77:178,1,85,10|2,0:0|0:0,0:0:0:0:
165,246,81633,6,0,L|185:105,2,127.5,10|10|10,3:2|3:2|3:2,0:0:0:0:
293,315,82264,2,0,L|273:174,2,127.5,10|10|10,3:2|3:2|3:2,0:0:0:0:
497,270,83054,1,10,0:0:0:0:
474,250,83132,1,8,0:0:0:0:
447,237,83211,1,10,0:0:0:0:
418,232,83290,1,8,0:0:0:0:
389,234,83369,1,6,3:2:0:0:
182,313,83685,5,2,0:0:0:0:
264,360,83843,1,2,0:0:0:0:
262,268,84001,1,2,0:0:0:0:
102,351,84159,5,2,0:0:0:0:
372,309,84396,1,2,0:0:0:0:
222,159,84633,1,2,0:0:0:0:
182,313,84791,5,2,0:0:0:0:
317,120,85028,1,2,0:0:0:0:
68,113,85264,2,0,L|53:255,1,127.5,2|0,0:0|0:0,0:0:0:0:
44,315,85580,5,2,3:0:0:0:
369,233,85738,1,10,0:0:0:0:
190,182,85896,1,14,0:0:0:0:
176,199,86212,5,2,3:0:0:0:
466,220,86370,1,10,0:0:0:0:
346,38,86528,1,14,0:0:0:0:
335,26,86843,5,2,3:0:0:0:
265,313,87001,1,10,0:0:0:0:
401,134,87159,1,14,0:0:0:0:
414,150,87475,5,2,3:0:0:0:
159,127,87633,1,10,0:0:0:0:
366,244,87791,1,10,0:0:0:0:
242,43,87949,1,2,3:0:0:0:
198,249,88106,1,10,0:0:0:0:
365,50,88264,1,10,0:0:0:0:
429,329,88422,5,14,0:0:0:0:
