osu file format v14

[General]
AudioFilename: audio.mp3
AudioLeadIn: 0
PreviewTime: 62031
Countdown: 0
SampleSet: Soft
StackLeniency: 0.4
Mode: 0
LetterboxInBreaks: 0
WidescreenStoryboard: 1

[Editor]
Bookmarks: 6294,11505,31715,63137,88400
DistanceSpacing: 0.4
BeatDivisor: 4
GridSize: 32
TimelineZoom: 2.3

[Metadata]
Title:No.7 (TV Size)
TitleUnicode:No.7 (TV Size)
Artist:Jibaku Shounen Band
ArtistUnicode:地縛少年バンド
Creator:AirinCat
Version:Insane
Source:地縛少年花子くん
Tags:anime japanese rock jrock j-rock number 7 no seven hanako san kun Toilet bound Toilet-bound Hanako-kun Yashiro Nene Minamoto Kou Mitsuba Sousuke 生田鷹司 × オーイシマサヨシ x ZiNG Youji Ikuta from PENGUIN RESEARCH Masayoshi Ooishi opening op anchor
BeatmapID:2284962
BeatmapSetID:1093207

[Difficulty]
HPDrainRate:5
CircleSize:3.8
OverallDifficulty:7.8
ApproachRate:8.8
SliderMultiplier:1.6
SliderTickRate:1

[Events]
//Background and Video events
Video,0,"HANAKO.mp4"
0,0,"bgpog.jpg",0,0
//Break Periods
//Storyboard Layer 0 (Background)
//Storyboard Layer 1 (Fail)
//Storyboard Layer 2 (Pass)
//Storyboard Layer 3 (Foreground)
//Storyboard Layer 4 (Overlay)
//Storyboard Sound Samples

[TimingPoints]
145,315.789473684211,4,2,1,40,1,0
5671,-200,4,2,1,40,0,0
6302,-100,4,2,1,80,0,0
6539,-100,4,2,1,5,0,0
6618,-100,4,2,1,70,0,0
7092,-100,4,2,1,80,0,0
7329,-100,4,2,1,70,0,0
7723,-100,4,2,1,80,0,0
7960,-100,4,2,1,70,0,0
8513,-100,4,2,1,60,0,0
8750,-100,4,2,1,30,0,0
10408,-100,4,2,1,50,0,0
11197,-100,4,2,1,60,0,0
11513,-95.2380952380952,4,2,1,70,0,0
31723,-200,4,2,1,56,0,0
36776,-100,4,2,1,66,0,0
41829,-111.111111111111,4,2,1,56,0,0
45460,-100,4,2,1,56,0,0
46881,-100,4,2,1,66,0,0
51145,-111.111111111111,4,2,1,66,0,0
51460,-125,4,2,1,60,0,0
51934,-76.9230769230769,4,2,1,78,0,0
52250,-111.111111111111,4,2,1,78,0,0
52566,-111.111111111111,4,2,1,66,0,0
53197,-111.111111111111,4,2,1,78,0,0
54145,-111.111111111111,4,2,1,60,0,0
54460,-111.111111111111,4,2,1,66,0,0
55723,-111.111111111111,4,2,1,78,0,0
56355,-111.111111111111,4,2,1,66,0,0
56987,-111.111111111111,4,2,1,78,0,0
57460,-111.111111111111,4,2,1,66,0,0
58250,-111.111111111111,4,2,1,78,0,0
58881,-111.111111111111,4,2,1,66,0,0
59513,-99.9999999999999,4,2,1,70,0,0
60776,-95.2380952380952,4,2,1,80,0,0
62513,-200,4,2,1,50,0,0
63145,-90.9090909090909,4,2,1,80,0,1
72934,-90.9090909090909,4,2,1,74,0,0
73250,-90.9090909090909,4,2,1,80,0,1
78302,-86.9565217391304,4,2,1,80,0,1
81618,-86.9565217391304,4,2,1,90,0,1
81855,-86.9565217391304,4,2,1,80,0,1
83039,-86.9565217391304,4,2,1,64,0,1
83355,-95.2380952380952,4,2,1,70,0,0
84776,-200,4,2,24,20,0,0
84855,-200,4,2,2,20,0,0
84934,-200,4,2,24,30,0,0
85013,-200,4,2,2,40,0,0
85092,-200,4,2,24,50,0,0
85171,-200,4,2,2,60,0,0
85250,-200,4,2,24,70,0,0
85329,-200,4,2,2,80,0,0
85408,-200,4,2,24,90,0,0
85487,-200,4,2,2,5,0,0
85566,-100,4,2,1,70,0,0
87934,-100,4,2,1,80,0,0
88092,-100,4,2,1,86,0,0

[Colours]
Combo1 : 227,87,133
Combo2 : 255,125,125
Combo3 : 192,150,226
Combo4 : 231,209,171

[HitObjects]
82,135,5671,5,2,0:0:0:0:
35,73,5829,2,0,L|46:34,2,40,2|2|2,0:0|0:0|0:0,0:0:0:0:
89,215,6302,6,0,B|143:215|171:172|133:166|178:126|221:135,1,160,6|8,1:2|1:3,0:0:0:0:
331,194,6776,1,8,1:2:0:0:
262,290,6934,1,8,1:3:0:0:
415,278,7092,5,14,1:2:0:0:
421,134,7329,1,10,0:0:0:0:
290,79,7566,1,10,0:0:0:0:
467,217,7723,5,10,1:2:0:0:
385,64,7960,1,8,0:2:0:0:
214,134,8197,1,8,0:2:0:0:
214,134,8513,6,0,L|209:102,3,26.6666666666667,0|0|0|12,1:0|1:0|1:0|0:0,0:0:0:0:
256,192,8750,12,0,10250,0:0:0:0:
214,134,10408,6,0,L|209:102,3,26.6666666666667,0|0|0|12,1:0|1:0|1:0|0:0,0:0:0:0:
8,173,10881,6,0,L|-1:127,3,40,8|8|8|8,0:0|0:0|0:0|0:0,0:0:0:0:
53,72,11197,1,10,0:0:0:0:
53,72,11276,1,10,0:0:0:0:
53,72,11355,1,10,0:0:0:0:
53,72,11434,1,10,0:0:0:0:
53,72,11513,6,0,L|140:56,1,83.9999974365235,4|0,1:2|0:0,0:0:0:0:
232,199,11829,2,0,L|142:179,1,83.9999974365235,8|0,0:0|0:0,0:0:0:0:
254,63,12145,1,2,1:2:0:0:
335,156,12302,1,0,1:0:0:0:
410,39,12460,1,8,0:0:0:0:
495,207,12618,6,0,P|500:165|519:124,1,83.9999974365235,2|0,0:0|1:0,0:0:0:0:
335,156,12934,2,0,L|354:251,1,83.9999974365235,2|8,1:2|0:0,0:0:0:0:
228,317,13250,2,0,P|195:297|141:289,1,83.9999974365235,2|0,0:0|1:0,0:0:0:0:
251,209,13566,1,2,1:2:0:0:
334,339,13723,2,0,P|393:346|435:298,1,125.999996154785,10|8,0:0|0:0,0:0:0:0:
417,286,14039,6,0,L|427:373,1,83.9999974365235,2|0,1:2|0:0,0:0:0:0:
512,215,14355,2,0,L|499:121,1,83.9999974365235,8|0,0:0|0:0,0:0:0:0:
382,47,14671,1,2,1:2:0:0:
386,167,14829,1,0,1:0:0:0:
488,50,14987,1,8,0:0:0:0:
323,119,15145,6,0,P|270:104|230:94,1,83.9999974365235,2|0,0:0|1:0,0:0:0:0:
102,188,15460,1,8,0:1:0:0:
218,279,15618,1,8,0:1:0:0:
218,279,15934,2,0,B|239:242|239:242|220:195,1,83.9999974365235,10|2,1:2|0:0,0:0:0:0:
155,104,16250,1,10,1:2:0:0:
9,192,16408,5,8,0:0:0:0:
9,192,16487,1,8,0:0:0:0:
9,192,16566,2,0,B|89:169|89:169|132:186|125:247,1,167.999994873047,6|8,1:2|0:0,0:0:0:0:
62,380,17039,2,0,P|48:335|36:295,1,83.9999974365235,2|0,1:2|1:0,0:0:0:0:
236,214,17355,1,2,1:2:0:0:
236,214,17513,2,0,L|220:296,1,83.9999974365235,10|0,0:0|0:0,0:0:0:0:
367,376,17829,5,0,1:0:0:0:
446,309,17987,1,0,1:0:0:0:
357,232,18145,1,10,0:0:0:0:
464,146,18302,2,0,P|485:173|480:228,1,83.9999974365235,2|0,0:0|1:0,0:0:0:0:
366,93,18618,1,2,1:2:0:0:
256,157,18776,2,0,P|197:162|174:107,1,125.999996154785,10|8,0:0|0:0,0:0:0:0:
188,94,19092,6,0,P|182:153|173:281,1,167.999994873047,6|8,1:2|0:0,0:0:0:0:
42,353,19566,2,0,B|13:320|13:320|19:279,1,83.9999974365235,2|0,0:0|1:0,0:0:0:0:
86,177,19881,1,2,1:2:0:0:
174,261,20039,1,10,0:0:0:0:
322,137,20197,6,0,L|308:37,1,83.9999974365235,2|0,0:0|1:0,0:0:0:0:
193,163,20513,1,8,1:1:0:0:
324,270,20671,1,8,1:1:0:0:
331,284,20987,5,4,1:3:0:0:
460,148,21223,5,4,1:3:0:0:
317,33,21460,5,4,1:3:0:0:
317,33,21539,1,4,1:3:0:0:
317,33,21618,2,0,L|218:45,1,83.9999974365235,6|0,1:2|0:0,0:0:0:0:
111,116,21934,2,0,P|90:80|97:39,1,83.9999974365235,8|0,0:0|0:0,0:0:0:0:
225,134,22250,1,2,1:2:0:0:
149,208,22408,1,0,1:0:0:0:
251,304,22566,1,8,0:0:0:0:
129,370,22723,6,0,B|106:334|106:334|119:294,1,83.9999974365235,2|0,0:0|1:0,0:0:0:0:
258,217,23039,2,0,L|350:232,1,83.9999974365235,2|8,1:2|0:0,0:0:0:0:
477,295,23355,2,0,P|496:258|478:202,1,83.9999974365235,2|0,0:0|1:0,0:0:0:0:
377,148,23671,1,2,1:2:0:0:
308,319,23829,2,0,L|179:296,1,125.999996154785,10|8,0:0|0:0,0:0:0:0:
187,278,24145,6,0,P|200:316|189:356,1,83.9999974365235,2|0,1:2|0:0,0:0:0:0:
3,359,24460,2,0,P|-10:320|1:280,1,83.9999974365235,8|0,0:0|0:0,0:0:0:0:
130,206,24776,1,2,1:2:0:0:
96,313,24934,1,0,1:0:0:0:
12,192,25092,1,8,0:0:0:0:
187,278,25250,6,0,P|227:272|277:266,1,83.9999974365235,2|0,0:0|1:0,0:0:0:0:
393,182,25566,1,8,0:1:0:0:
488,299,25723,1,8,0:1:0:0:
488,299,26039,2,0,B|516:265|516:265|507:225,1,83.9999974365235,10|2,1:2|0:0,0:0:0:0:
445,102,26355,1,10,1:2:0:0:
290,175,26513,5,8,0:0:0:0:
290,175,26592,1,8,0:0:0:0:
290,175,26671,2,0,B|242:185|200:143|235:123|198:83|142:104,1,167.999994873047,6|8,1:2|0:0,0:0:0:0:
54,217,27145,2,0,P|97:223|135:195,1,83.9999974365235,2|0,0:0|1:0,0:0:0:0:
39,36,27460,1,2,1:2:0:0:
39,36,27618,2,0,L|23:130,1,83.9999974365235,10|0,0:0|0:0,0:0:0:0:
52,301,27934,5,0,1:0:0:0:
129,202,28092,1,0,1:0:0:0:
227,305,28250,1,10,0:0:0:0:
299,189,28408,2,0,P|265:166|223:170,1,83.9999974365235,2|0,0:0|1:0,0:0:0:0:
334,293,28723,1,2,1:2:0:0:
444,236,28881,2,0,P|503:245|520:304,1,125.999996154785,10|8,0:0|0:0,0:0:0:0:
504,313,29197,6,0,P|508:203|509:139,1,167.999994873047,6|8,1:2|0:0,0:0:0:0:
416,38,29671,2,0,B|379:57|379:57|375:99,1,83.9999974365235,2|0,0:0|1:0,0:0:0:0:
408,221,29987,1,2,1:2:0:0:
509,146,30145,1,10,0:0:0:0:
316,172,30302,6,0,L|234:153,1,83.9999974365235,2|0,0:0|1:0,0:0:0:0:
121,282,30618,1,8,0:1:0:0:
219,335,30776,2,0,B|244:300|244:300|231:260,1,83.9999974365235,8|2,0:1|0:0,0:0:0:0:
119,165,31092,1,8,0:1:0:0:
8,274,31250,1,8,0:0:0:0:
8,274,31329,1,8,0:0:0:0:
8,274,31408,2,0,L|-4:213,3,41.9999987182618,8|8|8|8,0:0|0:0|0:0|0:0,0:0:0:0:
16,147,31723,5,6,1:2:0:0:
171,110,32039,1,10,0:0:0:0:
326,71,32355,2,0,L|317:31,2,40,2|0|8,1:2|1:0|0:0,0:0:0:0:
338,101,32987,2,0,L|382:91,1,40,0|0,1:0|0:0,0:0:0:0:
401,167,33302,2,0,L|355:175,1,40,8|0,0:0|0:0,0:0:0:0:
305,234,33618,1,0,1:0:0:0:
305,234,33776,2,0,L|313:278,2,40,0|8|0,1:0|0:0|0:0,0:0:0:0:
329,347,34250,5,6,1:2:0:0:
170,368,34566,1,10,0:0:0:0:
11,383,34881,2,0,L|4:296,1,80,2|8,1:2|0:0,0:0:0:0:
0,228,35355,1,2,0:0:0:0:
0,228,35513,2,0,L|55:225,1,40,0|0,1:0|1:0,0:0:0:0:
117,212,35829,2,0,L|119:251,1,40,8|0,0:0|0:0,0:0:0:0:
131,331,36145,2,0,L|169:326,3,20,8|8|8|8,0:0|0:0|0:0|0:0,0:0:0:0:
225,320,36460,1,4,1:3:0:0:
470,183,36776,6,0,P|434:136|376:145,1,120,4|0,1:2|0:0,0:0:0:0:
373,160,37092,2,0,P|399:131|403:91,1,80,10|0,0:0|0:0,0:0:0:0:
282,8,37408,2,0,L|297:96,1,80,2|0,1:2|1:0,0:0:0:0:
221,164,37723,1,8,0:0:0:0:
113,84,37881,6,0,L|195:68,1,80,2|0,0:0|1:0,0:0:0:0:
132,174,38197,2,0,L|50:190,1,80,2|8,0:0|0:0,0:0:0:0:
94,283,38513,1,2,0:0:0:0:
178,331,38671,2,0,B|196:295|196:295|184:257,1,80,2|0,1:2|1:0,0:0:0:0:
15,370,38987,1,10,0:0:0:0:
15,370,39302,6,0,P|8:332|-4:277,1,80,10|0,0:0|1:0,0:0:0:0:
165,169,39618,1,0,1:0:0:0:
165,169,39776,1,8,0:0:0:0:
165,169,39934,2,0,L|154:254,1,80,2|0,1:2|1:0,0:0:0:0:
307,361,40250,1,8,0:0:0:0:
307,361,40408,1,0,1:0:0:0:
307,361,40566,6,0,L|296:276,1,80,10|0,1:2|1:0,0:0:0:0:
457,173,40881,1,0,1:0:0:0:
457,173,41039,2,0,L|446:258,1,80,10|0,0:0|1:0,0:0:0:0:
337,141,41355,1,10,0:0:0:0:
221,184,41513,1,8,0:0:0:0:
209,188,41592,1,8,0:0:0:0:
198,191,41671,1,8,0:0:0:0:
187,195,41750,1,8,0:0:0:0:
178,198,41829,6,0,L|168:125,1,71.9999978027344,6|0,1:2|0:0,0:0:0:0:
197,354,42145,2,0,L|187:281,1,71.9999978027344,10|0,0:0|0:0,0:0:0:0:
17,236,42460,1,2,1:2:0:0:
17,236,42618,2,0,L|28:317,1,71.9999978027344,0|8,1:0|0:0,0:0:0:0:
99,220,42934,6,0,P|25:197|28:129,1,143.999995605469,2|2,0:0|1:2,0:0:0:0:
83,42,43408,2,0,P|43:36|5:31,1,71.9999978027344,10|2,0:0|0:0,0:0:0:0:
142,130,43723,1,2,1:2:0:0:
142,130,43881,2,0,P|178:121|221:109,1,71.9999978027344,2|8,1:2|0:0,0:0:0:0:
307,63,44197,1,2,0:0:0:0:
384,173,44355,6,0,L|395:95,1,71.9999978027344,2|0,1:2|0:0,0:0:0:0:
353,328,44671,2,0,L|364:250,1,71.9999978027344,10|0,0:0|0:0,0:0:0:0:
512,213,44987,1,2,1:2:0:0:
512,213,45145,2,0,L|499:289,1,71.9999978027344,2|10,1:2|0:2,0:0:0:0:
363,256,45460,6,0,P|322:249|277:240,1,80,2|0,0:0|1:0,0:0:0:0:
172,323,45776,1,8,0:1:0:0:
94,177,45934,2,0,P|69:206|68:250,1,80,8|0,0:1|0:0,0:0:0:0:
183,242,46250,1,2,1:2:0:0:
206,132,46408,1,8,0:0:0:0:
206,132,46487,1,8,0:0:0:0:
206,132,46566,2,0,L|199:77,3,40,8|8|8|8,0:0|0:0|0:0|0:0,0:0:0:0:
272,56,46881,6,0,P|333:48|400:37,1,120,6|0,1:2|0:0,0:0:0:0:
385,26,47197,2,0,P|376:62|397:100,1,80,10|0,0:0|0:0,0:0:0:0:
512,86,47513,2,0,P|521:50|500:12,1,80,2|0,1:2|1:0,0:0:0:0:
437,171,47829,1,8,0:0:0:0:
299,149,47987,6,0,L|213:133,1,80,2|0,0:0|1:0,0:0:0:0:
151,229,48302,2,0,L|237:245,1,80,2|8,1:2|0:0,0:0:0:0:
103,147,48618,1,2,0:0:0:0:
35,212,48776,2,0,B|7:183|7:183|11:143,1,80,2|0,1:2|1:0,0:0:0:0:
81,53,49092,2,0,L|209:76,1,120,10|8,0:0|0:0,0:0:0:0:
224,86,49408,6,0,L|242:-7,1,80,6|0,1:2|0:0,0:0:0:0:
400,143,49723,1,10,0:2:0:0:
400,143,49881,1,2,0:2:0:0:
400,143,50039,2,0,L|382:50,1,80,2|0,1:2|1:2,0:0:0:0:
240,238,50355,1,10,0:2:0:0:
240,238,50513,1,2,0:2:0:0:
240,238,50671,6,0,L|258:145,1,80,2|0,1:2|1:2,0:0:0:0:
416,297,50987,1,8,0:1:0:0:
416,297,51145,2,0,L|398:204,1,71.9999978027344,8|8,0:1|0:0,0:0:0:0:
252,380,51460,1,0,1:0:0:0:
252,380,51539,1,0,1:0:0:0:
252,380,51618,2,0,L|260:313,1,64,10|2,0:0|0:0,0:0:0:0:
402,226,51934,6,0,B|444:186|435:130|394:121|394:121|377:156,1,155.999992858887,6|0,1:2|0:0,0:0:0:0:
369,153,52250,6,0,P|329:158|276:164,1,71.9999978027344,2|0,1:2|0:0,0:0:0:0:
188,217,52566,2,0,P|171:183|176:148,1,71.9999978027344,10|0,0:0|0:0,0:0:0:0:
289,90,52881,2,0,L|297:161,1,71.9999978027344,2|0,0:0|0:0,0:0:0:0:
165,302,53197,5,2,1:2:0:0:
80,321,53355,1,10,0:2:0:0:
30,248,53513,1,2,0:2:0:0:
71,177,53671,1,0,1:0:0:0:
71,177,53750,1,0,1:0:0:0:
71,175,53829,2,0,B|125:163|125:163|174:165|189:221,1,143.999995605469,10|8,1:2|0:0,0:0:0:0:
295,324,54302,5,12,0:3:0:0:
306,336,54381,1,8,1:3:0:0:
315,347,54460,2,0,P|325:308|325:271,1,71.9999978027344,4|0,1:3|0:0,0:0:0:0:
438,228,54776,2,0,P|439:263|448:298,1,71.9999978027344,2|0,1:2|1:2,0:0:0:0:
280,179,55092,2,0,P|316:175|356:160,1,71.9999978027344,10|0,0:0|0:0,0:0:0:0:
430,74,55408,2,0,P|393:69|353:55,1,71.9999978027344,2|0,0:0|0:0,0:0:0:0:
212,113,55723,5,2,1:2:0:0:
124,165,55881,1,10,0:2:0:0:
45,103,56039,2,0,B|33:69|33:69|57:29,1,71.9999978027344,2|2,0:2|0:2,0:0:0:0:
212,113,56355,5,6,1:3:0:0:
15,198,56592,1,6,1:3:0:0:
218,139,56829,1,6,1:3:0:0:
123,81,56987,5,4,1:3:0:0:
159,199,57145,2,0,P|227:176|297:164,1,143.999995605469,2|0,0:2|1:0,0:0:0:0:
412,162,57618,2,0,B|420:126|420:126|390:93,1,71.9999978027344,10|0,0:0|0:0,0:0:0:0:
298,163,57934,2,0,P|308:201|317:247,1,71.9999978027344,2|0,0:0|0:0,0:0:0:0:
348,319,58250,5,2,1:2:0:0:
503,266,58487,1,2,1:2:0:0:
343,337,58723,1,2,1:2:0:0:
244,251,58881,2,0,L|329:229,1,71.9999978027344,8|0,0:0|0:0,0:0:0:0:
213,143,59197,1,10,0:0:0:0:
91,288,59355,5,0,1:0:0:0:
91,288,59434,1,0,1:0:0:0:
91,288,59513,2,0,P|147:253|118:171,1,160,14|8,1:2|0:0,0:0:0:0:
7,149,59987,1,8,0:0:0:0:
7,149,60066,1,8,0:0:0:0:
7,149,60145,2,0,L|11:194,3,40,10|8|10|8,0:0|0:0|0:0|0:0,0:0:0:0:
87,79,60460,2,0,L|83:34,3,40,8|8|4|0,0:0|1:3|1:3|1:0,0:0:0:0:
189,129,60776,6,0,L|287:115,1,83.9999974365235,14|0,0:0|1:0,0:0:0:0:
403,174,61092,1,0,1:0:0:0:
323,275,61250,2,0,B|300:239|300:239|312:199,1,83.9999974365235,10|0,0:0|1:0,0:0:0:0:
407,87,61566,1,12,1:3:0:0:
489,212,61723,1,4,1:3:0:0:
415,67,61881,1,4,1:3:0:0:
423,48,62513,5,2,0:0:0:0:
338,59,62671,2,0,L|323:5,2,40,2|2|2,0:0|0:0|0:0,0:0:0:0:
170,150,63145,6,0,B|84:127|84:127|34:136|36:189,1,176.000005371094,6|2,1:2|0:0,0:0:0:0:
158,354,63618,2,0,P|195:310|148:264,1,132.00000402832,10|0,1:2|0:0,0:0:0:0:
126,260,63934,2,0,P|170:249|225:236,1,88.000002685547,2|2,1:2|0:0,0:0:0:0:
295,131,64250,1,10,1:2:0:0:
393,222,64408,1,2,0:0:0:0:
486,103,64566,6,0,L|471:16,1,88.000002685547,2|0,1:2|0:0,0:0:0:0:
386,136,64881,1,10,1:2:0:0:
237,56,65039,2,0,B|274:29|274:29|314:41,1,88.000002685547,2|0,0:0|1:0,0:0:0:0:
194,166,65355,2,0,L|104:137,1,88.000002685547,2|8,0:0|0:0,0:0:0:0:
285,316,65671,6,0,B|263:226|263:226|294:185|345:215,1,176.000005371094,6|2,1:2|0:0,0:0:0:0:
452,338,66145,2,0,B|490:276|490:276|480:237|438:244,1,132.00000402832,10|0,1:2|0:0,0:0:0:0:
428,236,66460,2,0,L|527:206,1,88.000002685547,2|2,1:2|0:0,0:0:0:0:
343,352,66776,1,10,1:2:0:0:
250,263,66934,1,2,0:0:0:0:
100,370,67092,6,0,P|53:363|23:325,1,88.000002685547,2|0,1:2|0:0,0:0:0:0:
108,249,67408,1,10,1:2:0:0:
228,384,67566,2,0,L|243:289,1,88.000002685547,2|0,0:0|1:0,0:0:0:0:
147,144,67881,1,2,0:0:0:0:
101,269,68039,1,10,0:0:0:0:
150,122,68197,6,0,B|203:112|245:155|211:158|236:201|311:199,1,176.000005371094,6|0,1:2|0:0,0:0:0:0:
458,91,68671,2,0,L|441:0,1,88.000002685547,8|2,1:2|0:0,0:0:0:0:
337,86,68987,1,0,1:0:0:0:
417,201,69145,1,2,0:0:0:0:
319,74,69302,2,0,P|274:57|232:75,1,88.000002685547,10|0,1:2|0:0,0:0:0:0:
257,252,69618,6,0,L|267:155,1,88.000002685547,2|0,1:2|0:0,0:0:0:0:
110,42,69934,1,10,1:2:0:0:
110,42,70092,2,0,L|120:132,1,88.000002685547,2|0,0:0|1:0,0:0:0:0:
90,277,70408,1,2,0:0:0:0:
0,176,70566,1,10,0:2:0:0:
184,211,70723,6,0,B|236:205|236:205|266:183|266:183|308:207|357:189,1,176.000005371094,6|2,1:2|1:2,0:0:0:0:
479,211,71197,1,8,1:2:0:0:
391,306,71355,1,2,0:0:0:0:
499,380,71513,2,0,B|525:342|525:342|505:289,1,88.000002685547,2|8,1:2|0:1,0:0:0:0:
426,138,71829,1,8,0:1:0:0:
294,250,71987,6,0,B|237:237|237:237|209:183|209:183|148:171,1,176.000005371094,6|0,1:2|1:0,0:0:0:0:
54,224,72460,1,10,0:2:0:0:
145,302,72618,1,2,0:0:0:0:
0,306,72776,5,4,1:3:0:0:
153,172,72934,1,4,1:3:0:0:
158,187,73250,6,0,B|209:194|258:158|204:148|273:108|312:120,1,176.000005371094,6|2,1:2|0:0,0:0:0:0:
445,234,73723,2,0,P|392:264|350:210,1,132.00000402832,10|0,1:2|0:0,0:0:0:0:
358,205,74039,2,0,P|348:245|339:296,1,88.000002685547,2|2,1:2|0:2,0:0:0:0:
232,367,74355,1,10,1:2:0:0:
155,245,74513,1,2,0:2:0:0:
40,368,74671,6,0,L|145:348,1,88.000002685547,2|0,1:2|0:0,0:0:0:0:
236,269,74987,1,10,1:2:0:0:
84,189,75145,2,0,B|56:222|56:222|69:270,1,88.000002685547,2|0,0:0|1:0,0:0:0:0:
184,147,75460,2,0,P|171:102|166:58,1,88.000002685547,2|8,0:0|0:0,0:0:0:0:
321,182,75776,6,0,P|404:153|501:143,1,176.000005371094,6|2,1:2|0:0,0:0:0:0:
512,344,76250,2,0,P|455:318|382:311,1,132.00000402832,10|0,1:2|0:0,0:0:0:0:
369,325,76566,2,0,P|392:291|386:246,1,88.000002685547,2|2,1:2|0:2,0:0:0:0:
270,122,76881,1,10,1:2:0:0:
213,263,77039,1,2,0:2:0:0:
404,161,77197,6,0,L|394:107,3,44.0000013427735,10|8|0|0,1:2|1:2|1:0|1:0,0:0:0:0:
377,39,77513,1,10,0:0:0:0:
284,140,77671,5,6,1:3:0:0:
133,29,77987,5,6,1:3:0:0:
267,337,78302,6,0,P|281:246|299:151,1,184.000003509522,6|0,1:2|1:0,0:0:0:0:
133,29,78776,2,0,P|138:74|143:130,1,92.0000017547608,8|0,0:0|1:0,0:0:0:0:
366,49,79092,2,0,B|334:15|334:15|289:23,1,92.0000017547608,10|0,0:0|1:0,0:0:0:0:
389,210,79408,2,0,P|437:198|487:188,1,92.0000017547608,10|0,0:0|1:0,0:0:0:0:
490,205,79645,1,0,1:0:0:0:
497,219,79723,6,0,P|504:163|515:120,1,92.0000017547608,10|0,0:0|1:0,0:0:0:0:
288,284,80039,1,10,0:0:0:0:
288,284,80197,2,0,P|280:228|270:185,1,92.0000017547608,0|8,1:0|0:0,0:0:0:0:
444,355,80513,1,2,1:2:0:0:
444,355,80592,1,0,1:0:0:0:
444,355,80671,1,8,0:0:0:0:
284,317,80829,6,0,B|189:287|189:287|134:292|128:337,1,184.000003509522,6|0,1:2|1:0,0:0:0:0:
135,347,81223,1,0,1:0:0:0:
146,359,81302,2,0,B|159:314|159:314|130:269,1,92.0000017547608,10|2,0:0|1:2,0:0:0:0:
23,163,81618,5,12,1:3:0:0:
176,25,81855,1,8,1:2:0:0:
296,173,82092,1,8,1:2:0:0:
88,82,82250,5,10,1:2:0:0:
257,85,82487,1,8,0:2:0:0:
230,251,82723,1,8,1:2:0:0:
230,251,83039,6,0,L|234:302,3,46.0000008773804,8|8|8|8,0:0|0:0|0:0|0:0,0:0:0:0:
240,374,83355,1,4,1:2:0:0:
122,332,84776,6,0,B|169:390|233:355|246:320|216:272|189:279|178:289,1,180,2|0,0:0|0:0,0:0:0:0:
177,285,85566,6,0,L|191:370,1,80,4|8,1:3|1:2,0:0:0:0:
353,230,85881,1,8,0:0:0:0:
353,230,86197,2,0,L|339:315,1,80,4|8,1:3|0:0,0:0:0:0:
144,130,86513,1,8,0:0:0:0:
144,130,86829,2,0,L|158:215,1,80,4|8,1:3|0:0,0:0:0:0:
375,70,87145,1,8,0:0:0:0:
375,70,87460,2,0,L|361:155,1,80,4|8,1:3|0:0,0:0:0:0:
215,65,87776,1,8,0:0:0:0:
297,22,87934,5,0,1:0:0:0:
227,163,88092,1,8,1:3:0:0:
123,57,88250,1,4,1:3:0:0:
361,148,88408,5,12,1:2:0:0:
