osu file format v14

[General]
AudioFilename: audio.mp3
AudioLeadIn: 0
PreviewTime: 62031
Countdown: 0
SampleSet: Soft
StackLeniency: 0.4
Mode: 0
LetterboxInBreaks: 0
WidescreenStoryboard: 1

[Editor]
Bookmarks: 6294,11505,31715,63137,88400
DistanceSpacing: 0.6
BeatDivisor: 4
GridSize: 32
TimelineZoom: 2.3

[Metadata]
Title:No.7 (TV Size)
TitleUnicode:No.7 (TV Size)
Artist:Jibaku Shounen Band
ArtistUnicode:地縛少年バンド
Creator:AirinCat
Version:Another
Source:地縛少年花子くん
Tags:anime japanese rock jrock j-rock number 7 no seven hanako san kun Toilet bound Toilet-bound Hanako-kun Yashiro Nene Minamoto Kou Mitsuba Sousuke 生田鷹司 × オーイシマサヨシ x ZiNG Youji Ikuta from PENGUIN RESEARCH Masayoshi Ooishi opening op anchor
BeatmapID:2284958
BeatmapSetID:1093207

[Difficulty]
HPDrainRate:5.4
CircleSize:3.8
OverallDifficulty:8.2
ApproachRate:9
SliderMultiplier:1.6
SliderTickRate:1

[Events]
//Background and Video events
Video,0,"HANAKO.mp4"
0,0,"aaaabg.jpg",0,0
//Break Periods
//Storyboard Layer 0 (Background)
//Storyboard Layer 1 (Fail)
//Storyboard Layer 2 (Pass)
//Storyboard Layer 3 (Foreground)
//Storyboard Layer 4 (Overlay)
//Storyboard Sound Samples

[TimingPoints]
145,315.789473684211,4,2,1,40,1,0
5671,-200,4,2,1,40,0,0
6302,-83.3333333333333,4,2,1,80,0,0
6539,-83.3333333333333,4,2,1,5,0,0
6618,-83.3333333333333,4,2,1,70,0,0
7092,-83.3333333333333,4,2,1,80,0,0
7329,-83.3333333333333,4,2,1,70,0,0
7723,-83.3333333333333,4,2,1,80,0,0
7960,-83.3333333333333,4,2,1,70,0,0
8513,-83.3333333333333,4,2,1,60,0,0
8750,-83.3333333333333,4,2,1,30,0,0
10408,-83.3333333333333,4,2,1,50,0,0
11197,-83.3333333333333,4,2,1,60,0,0
11513,-90.9090909090909,4,2,1,70,0,0
31723,-200,4,2,1,56,0,0
36776,-100,4,2,1,66,0,0
41829,-111.111111111111,4,2,1,56,0,0
45460,-100,4,2,1,56,0,0
46881,-100,4,2,1,66,0,0
51145,-111.111111111111,4,2,1,66,0,0
51460,-125,4,2,1,60,0,0
51934,-76.9230769230769,4,2,1,78,0,0
52250,-111.111111111111,4,2,1,78,0,0
52566,-111.111111111111,4,2,1,66,0,0
53197,-111.111111111111,4,2,1,78,0,0
54145,-111.111111111111,4,2,1,60,0,0
54460,-111.111111111111,4,2,1,66,0,0
55723,-111.111111111111,4,2,1,78,0,0
56355,-111.111111111111,4,2,1,66,0,0
56987,-111.111111111111,4,2,1,78,0,0
57460,-111.111111111111,4,2,1,66,0,0
58250,-111.111111111111,4,2,1,78,0,0
58881,-111.111111111111,4,2,1,66,0,0
59513,-99.9999999999999,4,2,1,70,0,0
60776,-95.2380952380952,4,2,1,80,0,0
62513,-200,4,2,1,50,0,0
63145,-83.3333333333333,4,2,1,80,0,1
72934,-90.9090909090909,4,2,1,74,0,0
73250,-90.9090909090909,4,2,1,80,0,1
78302,-86.9565217391304,4,2,1,80,0,1
81618,-86.9565217391304,4,2,1,90,0,1
81855,-86.9565217391304,4,2,1,80,0,1
83039,-86.9565217391304,4,2,1,64,0,1
83355,-95.2380952380952,4,2,1,70,0,0
84776,-200,4,2,24,20,0,0
84855,-200,4,2,2,20,0,0
84934,-200,4,2,24,30,0,0
85013,-200,4,2,2,40,0,0
85092,-200,4,2,24,50,0,0
85171,-200,4,2,2,60,0,0
85250,-200,4,2,24,70,0,0
85329,-200,4,2,2,80,0,0
85408,-200,4,2,24,90,0,0
85487,-200,4,2,2,5,0,0
85566,-100,4,2,1,70,0,0
87934,-100,4,2,1,80,0,0
88092,-100,4,2,1,86,0,0

[Colours]
Combo1 : 227,87,133
Combo2 : 255,125,125
Combo3 : 192,150,226
Combo4 : 231,209,171

[HitObjects]
7,245,5671,5,2,0:0:0:0:
7,245,5829,2,0,L|14:201,1,40,2|2,0:0|0:0,0:0:0:0:
29,131,6145,1,2,0:0:0:0:
132,316,6302,6,0,B|226:336|226:336|282:323|290:260,1,191.999994140625,6|8,1:2|1:3,0:0:0:0:
244,106,6776,1,8,1:2:0:0:
197,240,6934,1,8,1:3:0:0:
401,214,7092,5,14,1:2:0:0:
135,148,7329,1,10,0:0:0:0:
418,220,7566,1,10,0:0:0:0:
335,47,7723,5,10,1:2:0:0:
281,288,7960,1,8,0:2:0:0:
329,72,8197,1,8,0:2:0:0:
304,189,8513,6,0,L|312:142,3,31.9999990234375,0|0|0|12,1:0|1:0|1:0|0:0,0:0:0:0:
256,192,8750,12,0,10250,0:0:0:0:
304,189,10408,6,0,L|312:142,3,31.9999990234375,0|0|0|12,1:0|1:0|1:0|0:0,0:0:0:0:
211,376,10881,5,8,0:0:0:0:
201,379,10960,1,8,0:0:0:0:
191,381,11039,1,8,0:0:0:0:
181,384,11118,1,8,0:0:0:0:
148,377,11197,1,10,0:0:0:0:
125,351,11276,1,10,0:0:0:0:
120,317,11355,1,10,0:0:0:0:
136,287,11434,1,10,0:0:0:0:
160,268,11513,6,0,P|207:277|249:283,1,88.000002685547,4|0,1:2|0:0,0:0:0:0:
436,250,11829,2,0,B|457:211|457:211|435:166,1,88.000002685547,8|0,0:0|0:0,0:0:0:0:
268,71,12145,1,2,1:2:0:0:
344,221,12302,1,0,1:0:0:0:
438,49,12460,1,8,0:0:0:0:
257,165,12618,6,0,P|207:157|163:150,1,88.000002685547,2|0,0:0|1:0,0:0:0:0:
13,220,12934,2,0,P|-7:181|7:141,1,88.000002685547,2|8,1:2|0:0,0:0:0:0:
165,72,13250,2,0,P|184:110|170:150,1,88.000002685547,2|0,0:0|1:0,0:0:0:0:
43,47,13566,1,2,1:2:0:0:
230,0,13723,1,10,0:0:0:0:
322,180,13960,5,8,0:0:0:0:
328,190,14039,2,0,P|352:154|344:112,1,88.000002685547,2|0,1:2|0:0,0:0:0:0:
169,150,14355,2,0,L|184:236,1,88.000002685547,8|0,0:0|0:0,0:0:0:0:
164,384,14671,1,2,1:2:0:0:
275,301,14829,1,0,1:0:0:0:
68,270,14987,1,8,0:0:0:0:
289,312,15145,6,0,L|389:290,1,88.000002685547,2|0,0:0|1:0,0:0:0:0:
479,171,15460,1,8,0:1:0:0:
309,92,15618,1,8,0:1:0:0:
309,92,15934,2,0,B|274:122|274:122|284:182,1,88.000002685547,10|2,1:2|0:0,0:0:0:0:
441,251,16250,1,10,1:2:0:0:
512,99,16408,5,8,0:0:0:0:
511,87,16487,1,8,0:0:0:0:
510,75,16566,2,0,B|456:73|431:117|467:126|435:172|367:170,1,176.000005371094,6|8,1:2|0:0,0:0:0:0:
219,87,17039,2,0,P|226:39|231:0,1,88.000002685547,2|0,1:2|1:0,0:0:0:0:
361,79,17355,1,2,1:2:0:0:
211,179,17513,1,10,0:0:0:0:
211,179,17829,5,0,1:0:0:0:
116,257,17987,1,0,1:0:0:0:
31,79,18145,1,10,0:0:0:0:
0,178,18302,2,0,P|44:167|89:155,1,88.000002685547,2|0,0:0|1:0,0:0:0:0:
228,101,18618,1,2,1:2:0:0:
136,4,18776,1,10,0:0:0:0:
281,205,19013,5,8,0:0:0:0:
289,221,19092,2,0,P|305:149|336:41,1,176.000005371094,6|8,1:2|0:0,0:0:0:0:
477,0,19566,2,0,B|502:32|502:32|490:76,1,88.000002685547,2|0,0:0|1:0,0:0:0:0:
435,218,19881,1,2,1:2:0:0:
332,50,20039,1,10,0:0:0:0:
237,185,20197,6,0,P|194:178|146:169,1,88.000002685547,2|0,0:0|1:0,0:0:0:0:
0,73,20513,1,8,1:1:0:0:
173,0,20671,1,8,1:1:0:0:
173,0,20987,5,4,1:3:0:0:
316,120,21223,5,4,1:3:0:0:
196,303,21460,5,4,1:3:0:0:
196,303,21539,1,4,1:3:0:0:
196,303,21618,2,0,P|205:256|217:208,1,88.000002685547,6|0,1:2|0:0,0:0:0:0:
42,103,21934,2,0,B|20:142|20:142|37:186,1,88.000002685547,8|0,0:0|0:0,0:0:0:0:
212,109,22250,1,2,1:2:0:0:
109,29,22408,1,0,1:0:0:0:
107,230,22566,1,8,0:0:0:0:
279,159,22723,6,0,P|332:153|376:144,1,88.000002685547,2|0,0:0|1:0,0:0:0:0:
332,341,23039,2,0,P|308:304|313:262,1,88.000002685547,2|8,1:2|0:0,0:0:0:0:
482,225,23355,2,0,P|505:261|500:303,1,88.000002685547,2|0,0:0|1:0,0:0:0:0:
365,146,23671,1,2,1:2:0:0:
512,109,23829,1,10,0:0:0:0:
272,41,24066,5,8,0:0:0:0:
257,35,24145,2,0,L|271:122,1,88.000002685547,2|0,1:2|0:0,0:0:0:0:
196,252,24460,2,0,P|159:275|114:263,1,88.000002685547,8|0,0:0|0:0,0:0:0:0:
17,181,24776,1,2,1:2:0:0:
135,143,24934,1,0,1:0:0:0:
35,305,25092,1,8,0:0:0:0:
133,126,25250,6,0,L|118:35,1,88.000002685547,2|0,0:0|1:0,0:0:0:0:
330,88,25566,1,8,0:1:0:0:
244,240,25723,1,8,0:1:0:0:
244,240,26039,2,0,B|285:258|285:258|328:239,1,88.000002685547,10|2,1:2|0:0,0:0:0:0:
486,145,26355,1,10,1:2:0:0:
401,12,26513,5,8,0:0:0:0:
389,6,26592,1,8,0:0:0:0:
375,0,26671,2,0,P|382:79|391:184,1,176.000005371094,6|8,1:2|0:0,0:0:0:0:
447,332,27145,2,0,P|487:318|512:283,1,88.000002685547,2|0,0:0|1:0,0:0:0:0:
390,175,27460,1,2,1:2:0:0:
309,328,27618,1,10,0:0:0:0:
309,328,27934,5,0,1:0:0:0:
381,260,28092,1,0,1:0:0:0:
220,192,28250,1,10,0:0:0:0:
318,87,28408,2,0,P|311:128|302:185,1,88.000002685547,2|0,0:0|1:0,0:0:0:0:
214,286,28723,1,2,1:2:0:0:
141,135,28881,1,10,0:0:0:0:
62,362,29118,5,8,0:0:0:0:
55,377,29197,2,0,B|3:357|3:357|-26:294|31:243,1,176.000005371094,6|8,1:2|0:0,0:0:0:0:
141,135,29671,2,0,L|47:117,1,88.000002685547,2|0,0:0|1:0,0:0:0:0:
150,271,29987,1,2,1:2:0:0:
252,133,30145,1,10,0:0:0:0:
361,288,30302,6,0,P|414:279|462:271,1,88.000002685547,2|0,0:0|1:0,0:0:0:0:
512,122,30618,1,8,0:1:0:0:
381,83,30776,2,0,B|356:119|356:119|378:164,1,88.000002685547,8|2,0:1|0:0,0:0:0:0:
447,273,31092,1,8,0:1:0:0:
312,368,31250,1,8,0:0:0:0:
303,347,31329,1,8,0:0:0:0:
294,326,31408,1,8,0:0:0:0:
286,305,31487,1,8,0:0:0:0:
278,284,31566,2,0,L|327:274,1,44.0000013427735,8|8,0:0|0:0,0:0:0:0:
197,363,31723,5,6,1:2:0:0:
155,224,32039,1,10,0:0:0:0:
110,86,32355,2,0,L|64:101,2,40,2|0|8,1:2|1:0|0:0,0:0:0:0:
189,98,32987,2,0,L|203:154,1,40,0|0,1:0|0:0,0:0:0:0:
229,208,33302,2,0,L|285:194,1,40,8|0,0:0|0:0,0:0:0:0:
340,171,33618,1,0,1:0:0:0:
340,171,33776,2,0,L|326:115,2,40,0|8|0,1:0|0:0|0:0,0:0:0:0:
483,15,34250,5,6,1:2:0:0:
466,158,34566,1,10,0:0:0:0:
442,299,34881,2,0,L|363:285,1,80,2|8,1:2|0:0,0:0:0:0:
288,268,35355,1,2,0:0:0:0:
288,268,35513,2,0,L|279:313,1,40,0|0,1:0|1:0,0:0:0:0:
253,379,35829,2,0,L|208:370,1,40,8|0,0:0|0:0,0:0:0:0:
131,346,36145,5,8,0:0:0:0:
136,316,36223,1,8,0:0:0:0:
141,286,36302,1,8,0:0:0:0:
146,256,36381,1,8,0:0:0:0:
151,226,36460,1,4,1:3:0:0:
377,365,36776,6,0,P|432:347|438:285,1,120,4|0,1:2|0:0,0:0:0:0:
418,216,37092,2,0,L|497:199,1,80,10|0,0:0|0:0,0:0:0:0:
353,35,37408,2,0,P|326:63|327:110,1,80,2|0,1:2|1:0,0:0:0:0:
436,113,37723,1,8,0:0:0:0:
306,205,37881,6,0,L|228:184,1,80,2|0,0:0|1:0,0:0:0:0:
156,75,38197,2,0,L|233:95,1,80,2|8,0:0|0:0,0:0:0:0:
126,172,38513,1,2,0:0:0:0:
61,57,38671,2,0,B|30:81|30:81|37:123,1,80,2|0,1:2|1:0,0:0:0:0:
79,280,38987,1,10,0:0:0:0:
79,280,39302,6,0,L|-12:266,1,80,10|0,0:0|1:0,0:0:0:0:
126,172,39618,1,0,1:0:0:0:
183,236,39776,1,8,0:0:0:0:
267,204,39934,2,0,P|272:164|277:124,1,80,2|0,1:2|1:0,0:0:0:0:
451,228,40250,1,8,0:0:0:0:
512,169,40408,1,0,1:0:0:0:
479,91,40566,6,0,L|401:77,1,80,10|0,1:2|1:0,0:0:0:0:
276,124,40881,1,0,1:0:0:0:
218,32,41039,2,0,P|252:12|290:18,1,80,10|0,0:0|1:0,0:0:0:0:
195,174,41355,1,10,0:0:0:0:
112,55,41513,1,8,0:0:0:0:
96,57,41592,1,8,0:0:0:0:
80,60,41671,1,8,0:0:0:0:
64,62,41750,1,8,0:0:0:0:
49,64,41829,6,0,L|59:135,1,71.9999978027344,6|0,1:2|0:0,0:0:0:0:
84,290,42145,2,0,L|74:219,1,71.9999978027344,10|0,0:0|0:0,0:0:0:0:
223,341,42460,1,2,1:2:0:0:
223,341,42618,2,0,L|143:357,1,71.9999978027344,0|8,1:0|0:0,0:0:0:0:
259,254,42934,6,0,P|251:298|347:335,1,143.999995605469,2|2,0:0|1:2,0:0:0:0:
419,285,43408,2,0,P|408:253|397:213,1,71.9999978027344,10|2,0:0|0:0,0:0:0:0:
470,153,43723,1,2,1:2:0:0:
326,121,43881,1,2,1:2:0:0:
326,121,44039,2,0,P|363:109|400:99,1,71.9999978027344,8|2,0:0|0:0,0:0:0:0:
255,347,44355,6,0,L|236:268,1,71.9999978027344,2|0,1:2|0:0,0:0:0:0:
195,122,44671,2,0,L|214:201,1,71.9999978027344,10|0,0:0|0:0,0:0:0:0:
40,99,44987,1,2,1:2:0:0:
40,99,45145,2,0,L|119:80,1,71.9999978027344,2|10,1:2|0:2,0:0:0:0:
60,296,45460,6,0,P|22:282|2:236,1,80,2|0,0:0|1:0,0:0:0:0:
91,191,45776,1,8,0:1:0:0:
205,345,45934,2,0,L|226:261,1,80,8|0,0:1|0:0,0:0:0:0:
262,132,46250,1,2,1:2:0:0:
376,255,46408,1,8,0:0:0:0:
402,263,46487,1,8,0:0:0:0:
429,259,46566,1,8,0:0:0:0:
451,241,46645,1,8,0:0:0:0:
460,215,46723,1,8,0:0:0:0:
459,186,46802,1,8,0:0:0:0:
443,162,46881,6,0,P|383:172|324:183,1,120,6|0,1:2|0:0,0:0:0:0:
262,132,47197,2,0,P|277:96|266:58,1,80,10|0,0:0|0:0,0:0:0:0:
103,51,47513,2,0,P|87:86|98:124,1,80,2|0,1:2|1:0,0:0:0:0:
189,95,47829,1,8,0:0:0:0:
77,214,47987,6,0,L|-5:192,1,80,2|0,0:0|1:0,0:0:0:0:
29,305,48302,2,0,L|111:327,1,80,2|8,1:2|0:0,0:0:0:0:
175,250,48618,1,2,0:0:0:0:
237,369,48776,2,0,B|264:338|264:338|256:297,1,80,2|0,1:2|1:0,0:0:0:0:
217,169,49092,1,10,0:0:0:0:
368,330,49329,5,8,0:0:0:0:
375,346,49408,2,0,L|453:330,1,80,6|0,1:2|0:0,0:0:0:0:
488,217,49723,1,10,0:2:0:0:
395,137,49881,1,2,0:2:0:0:
471,48,50039,2,0,L|486:131,1,80,2|0,1:2|1:2,0:0:0:0:
380,234,50355,1,10,0:2:0:0:
298,140,50513,1,2,0:2:0:0:
210,233,50671,5,2,1:2:0:0:
210,233,50829,1,0,1:2:0:0:
290,321,50987,1,8,0:1:0:0:
169,384,51145,2,0,P|162:344|157:309,1,71.9999978027344,8|8,0:1|0:0,0:0:0:0:
27,307,51460,1,0,1:0:0:0:
27,307,51539,1,0,1:0:0:0:
27,307,51618,2,0,P|20:346|15:382,1,64,10|2,0:0|0:0,0:0:0:0:
66,134,51934,6,0,B|65:111|71:97|71:97|25:110|21:160|57:189,1,155.999992858887,6|0,1:2|0:0,0:0:0:0:
129,227,52250,6,0,L|209:209,1,71.9999978027344,2|0,1:2|0:0,0:0:0:0:
332,207,52566,2,0,B|339:173|339:173|311:137,1,71.9999978027344,10|0,0:0|0:0,0:0:0:0:
199,211,52881,2,0,L|216:280,1,71.9999978027344,2|0,0:0|0:0,0:0:0:0:
338,349,53197,5,2,1:2:0:0:
427,267,53355,1,10,0:2:0:0:
338,367,53513,1,2,0:2:0:0:
442,277,53671,1,0,1:0:0:0:
455,289,53750,1,0,1:0:0:0:
469,302,53829,2,0,P|497:232|443:190,1,143.999995605469,10|8,1:2|0:0,0:0:0:0:
378,178,54223,5,8,0:3:0:0:
359,189,54302,1,12,0:3:0:0:
341,201,54381,1,8,1:3:0:0:
323,214,54460,2,0,L|309:137,1,71.9999978027344,4|0,1:3|0:0,0:0:0:0:
296,12,54776,1,2,1:2:0:0:
404,75,54934,1,0,1:2:0:0:
287,29,55092,2,0,L|217:48,1,71.9999978027344,10|0,0:0|0:0,0:0:0:0:
103,128,55408,2,0,B|76:105|76:105|83:62,1,71.9999978027344,2|0,0:0|0:0,0:0:0:0:
217,163,55723,5,2,1:2:0:0:
161,253,55881,1,10,0:2:0:0:
240,335,56039,2,0,L|315:323,1,71.9999978027344,2|2,0:2|0:2,0:0:0:0:
103,128,56355,5,6,1:3:0:0:
38,344,56592,1,6,1:3:0:0:
86,123,56829,1,6,1:3:0:0:
4,184,56987,5,4,1:3:0:0:
115,251,57145,2,0,B|166:239|166:239|186:202|186:202|234:193,1,143.999995605469,2|0,0:2|1:0,0:0:0:0:
333,324,57618,2,0,B|257:303,1,71.9999978027344,10|0,0:0|0:0,0:0:0:0:
428,222,57934,2,0,P|442:254|438:293,1,71.9999978027344,2|0,0:0|0:0,0:0:0:0:
328,174,58250,5,2,1:2:0:0:
512,110,58487,1,2,1:2:0:0:
304,63,58723,1,2,1:2:0:0:
304,63,58802,1,0,1:0:0:0:
304,63,58881,2,0,P|334:68|375:74,1,71.9999978027344,8|0,0:0|0:0,0:0:0:0:
250,224,59197,1,10,0:0:0:0:
132,64,59355,5,0,1:0:0:0:
132,64,59434,1,0,1:0:0:0:
132,64,59513,2,0,P|205:60|220:132,1,160,14|8,1:2|0:0,0:0:0:0:
123,234,59987,1,8,0:0:0:0:
123,234,60066,1,8,0:0:0:0:
123,234,60145,2,0,L|76:227,1,40,10|8,0:0|0:0,0:0:0:0:
34,141,60302,1,10,0:0:0:0:
34,141,60381,1,8,0:0:0:0:
34,141,60460,2,0,L|81:148,1,40,8|8,0:0|1:3,0:0:0:0:
132,64,60618,2,0,L|92:58,1,40,4|0,1:3|1:0,0:0:0:0:
219,132,60776,6,0,L|311:143,1,83.9999974365235,14|0,0:0|1:0,0:0:0:0:
380,63,61092,1,0,1:0:0:0:
457,206,61250,2,0,B|480:173|480:173|468:130,1,83.9999974365235,10|0,0:0|1:0,0:0:0:0:
223,239,61566,1,12,1:3:0:0:
295,48,61723,1,4,1:3:0:0:
398,280,61881,1,4,1:3:0:0:
55,252,62513,5,2,0:0:0:0:
0,191,62671,2,0,L|3:146,2,40,2|2|2,0:0|0:0|0:0,0:0:0:0:
120,319,63145,6,0,B|149:280|203:301|203:301|235:357|293:335,1,191.999994140625,6|2,1:2|0:0,0:0:0:0:
488,268,63618,2,0,P|456:198|386:201,1,143.999995605469,10|0,1:2|0:0,0:0:0:0:
391,211,63934,2,0,P|399:152|405:109,1,95.9999970703126,2|2,1:2|0:0,0:0:0:0:
261,6,64250,1,10,1:2:0:0:
164,167,64408,1,2,0:0:0:0:
8,43,64566,6,0,L|118:21,1,95.9999970703126,2|0,1:2|0:0,0:0:0:0:
256,130,64881,1,10,1:2:0:0:
81,229,65039,2,0,B|52:191|52:191|68:139,1,95.9999970703126,2|0,0:0|1:0,0:0:0:0:
248,266,65355,1,2,0:0:0:0:
123,379,65513,1,8,0:0:0:0:
237,252,65671,6,0,P|325:233|376:308,1,191.999994140625,6|2,1:2|0:0,0:0:0:0:
512,116,66145,2,0,P|466:78|392:132,1,143.999995605469,10|0,1:2|0:0,0:0:0:0:
404,128,66460,2,0,L|424:26,1,95.9999970703126,2|2,1:2|0:0,0:0:0:0:
190,73,66776,1,10,1:2:0:0:
297,234,66934,1,2,0:0:0:0:
94,314,67092,6,0,B|67:276|67:276|83:229,1,95.9999970703126,2|0,1:2|0:0,0:0:0:0:
271,327,67408,1,10,1:2:0:0:
308,139,67566,2,0,L|209:158,1,95.9999970703126,2|0,0:0|1:0,0:0:0:0:
386,350,67881,1,2,0:0:0:0:
485,181,68039,1,10,0:0:0:0:
374,363,68197,6,0,P|308:340|353:233,1,191.999994140625,6|0,1:2|0:0,0:0:0:0:
197,62,68671,2,0,L|215:170,1,95.9999970703126,8|2,1:2|0:0,0:0:0:0:
81,339,68987,1,0,1:0:0:0:
0,189,69145,1,2,0:0:0:0:
96,350,69302,2,0,L|111:255,1,95.9999970703126,10|0,1:2|0:0,0:0:0:0:
99,57,69618,6,0,P|54:53|12:87,1,95.9999970703126,2|0,1:2|0:0,0:0:0:0:
225,254,69934,1,10,1:2:0:0:
225,254,70092,2,0,L|213:156,1,95.9999970703126,2|0,0:0|1:0,0:0:0:0:
284,27,70408,1,2,0:0:0:0:
379,221,70566,1,10,0:2:0:0:
508,86,70723,6,0,B|406:63|406:63|352:71|341:122,1,191.999994140625,6|2,1:2|1:2,0:0:0:0:
463,309,71197,2,0,P|493:273|492:226,1,95.9999970703126,8|2,1:2|0:0,0:0:0:0:
342,115,71513,1,2,1:2:0:0:
315,367,71671,1,8,0:1:0:0:
491,225,71829,1,8,0:1:0:0:
155,277,71987,6,0,B|87:260|87:260|66:204|66:204|-8:183,1,191.999994140625,6|0,1:2|1:0,0:0:0:0:
167,179,72460,1,10,0:2:0:0:
66,104,72618,1,2,0:0:0:0:
113,368,72776,5,4,1:3:0:0:
240,103,72934,1,4,1:3:0:0:
251,118,73250,6,0,B|268:61|268:61|326:23|381:76,1,176.000005371094,6|2,1:2|0:0,0:0:0:0:
512,242,73723,2,0,P|454:268|403:231,1,132.00000402832,10|0,1:2|0:0,0:0:0:0:
414,212,74039,2,0,L|397:302,1,88.000002685547,2|2,1:2|0:2,0:0:0:0:
280,384,74355,1,10,1:2:0:0:
212,205,74513,1,2,0:2:0:0:
24,374,74671,6,0,P|1:336|9:293,1,88.000002685547,2|0,1:2|0:0,0:0:0:0:
122,171,74987,1,10,1:2:0:0:
208,328,75145,2,0,L|110:307,1,88.000002685547,2|0,0:0|1:0,0:0:0:0:
343,180,75460,1,2,0:0:0:0:
398,352,75618,1,8,0:0:0:0:
333,165,75776,6,0,P|374:94|454:113,1,176.000005371094,6|2,1:2|0:0,0:0:0:0:
220,136,76250,2,0,B|176:127|160:90|191:89|166:58|132:51,1,132.00000402832,10|0,1:2|0:0,0:0:0:0:
115,62,76566,2,0,L|107:164,1,88.000002685547,2|2,1:2|0:2,0:0:0:0:
76,367,76881,1,10,1:2:0:0:
0,232,77039,1,2,0:2:0:0:
237,285,77197,6,0,L|296:271,3,44.0000013427735,10|8|0|0,1:2|1:2|1:0|1:0,0:0:0:0:
356,256,77513,1,10,0:0:0:0:
396,371,77671,5,6,1:3:0:0:
321,120,77987,5,6,1:3:0:0:
69,384,78302,6,0,B|53:337|53:337|53:292|53:292|35:258|27:196,1,184.000003509522,6|0,1:2|1:0,0:0:0:0:
111,60,78776,1,8,0:0:0:0:
230,199,78934,1,0,1:0:0:0:
340,31,79092,2,0,B|297:10|297:10|255:26,1,92.0000017547608,10|0,0:0|1:0,0:0:0:0:
263,33,79329,1,0,1:0:0:0:
263,33,79408,1,10,0:0:0:0:
465,151,79566,5,0,1:0:0:0:
465,151,79645,1,0,1:0:0:0:
465,151,79723,2,0,L|473:53,1,92.0000017547608,10|0,0:0|1:0,0:0:0:0:
288,139,80039,1,10,0:0:0:0:
423,286,80197,1,0,1:0:0:0:
423,286,80276,1,0,1:0:0:0:
423,286,80355,2,0,B|464:302|464:302|506:284,1,92.0000017547608,8|2,0:0|1:2,0:0:0:0:
472,59,80671,1,8,0:0:0:0:
278,268,80829,6,0,B|220:277|193:234|193:234|142:222|111:270,1,184.000003509522,6|0,1:2|1:0,0:0:0:0:
124,285,81223,1,0,1:0:0:0:
133,305,81302,2,0,B|157:266|157:266|139:223,1,92.0000017547608,10|2,0:0|1:2,0:0:0:0:
44,54,81618,5,12,1:3:0:0:
329,200,81855,1,8,1:2:0:0:
62,66,82092,1,8,1:2:0:0:
241,12,82250,5,10,1:2:0:0:
139,223,82487,1,8,0:2:0:0:
242,34,82723,1,8,1:2:0:0:
243,55,83039,5,8,0:0:0:0:
239,79,83118,1,8,0:0:0:0:
234,103,83197,1,8,0:0:0:0:
229,127,83276,1,8,0:0:0:0:
225,148,83355,1,4,1:2:0:0:
446,380,84776,6,0,B|386:396|344:353|380:345|347:314|287:326,1,180,2|0,0:0|0:0,0:0:0:0:
292,339,85566,6,0,L|304:259,1,80,4|8,1:3|1:2,0:0:0:0:
86,192,85881,1,8,0:0:0:0:
86,192,86197,2,0,L|98:271,1,80,4|8,1:3|0:0,0:0:0:0:
331,172,86513,1,8,0:0:0:0:
331,172,86829,2,0,L|343:92,1,80,4|8,1:3|0:0,0:0:0:0:
59,15,87145,1,8,0:0:0:0:
59,15,87460,2,0,L|71:94,1,80,4|8,1:3|0:0,0:0:0:0:
224,190,87776,1,8,0:0:0:0:
260,39,87934,5,0,1:0:0:0:
106,233,88092,1,8,1:3:0:0:
367,320,88250,1,4,1:3:0:0:
82,248,88408,5,12,1:2:0:0:
