osu file format v14

[General]
AudioFilename: audio.mp3
AudioLeadIn: 0
PreviewTime: 63895
Countdown: 0
SampleSet: Soft
StackLeniency: 0.3
Mode: 0
LetterboxInBreaks: 0
WidescreenStoryboard: 1

[Editor]
Bookmarks: 12948,18000,23053,28105,33158,53369,105158,112737,120316,134211,135474,143053,146842,177000,182053,194696
DistanceSpacing: 1.4
BeatDivisor: 4
GridSize: 8
TimelineZoom: 2.799999

[Metadata]
Title:No.7
TitleUnicode:No.7
Artist:Jibaku Shounen Band
ArtistUnicode:地縛少年バンド
Creator:Nevo
Version:Stack's Insane
Source:地縛少年花子くん
Tags:anime japanese rock jrock j-rock number 7 no seven hanako san kun Toilet bound Toilet-bound Hanako-kun - from PENGUIN RESEARCH Masayoshi Ooishi opening op anchor habiholic len fast stack ggf Gottagof4st
BeatmapID:2986144
BeatmapSetID:1413965

[Difficulty]
HPDrainRate:5.4
CircleSize:4
OverallDifficulty:8
ApproachRate:9
SliderMultiplier:1.6
SliderTickRate:1

[Events]
//Background and Video events
0,0,"80139140_p0.jpg",0,0
//Break Periods
2,105408,109661
2,187355,191621
//Storyboard Layer 0 (Background)
//Storyboard Layer 1 (Fail)
//Storyboard Layer 2 (Pass)
//Storyboard Layer 3 (Foreground)
//Storyboard Layer 4 (Overlay)
//Storyboard Sound Samples

[TimingPoints]
2892,315.789473684211,4,2,1,100,1,0
7155,-166.666666666667,4,2,1,100,0,0
7786,-100,4,2,1,100,0,0
10470,-100,4,2,1,60,0,0
12998,-90.9090909090909,4,2,1,100,0,0
33208,-125,4,2,1,70,0,0
37945,-166.666666666667,4,2,1,70,0,0
38261,-100,4,2,1,80,0,0
43313,-125,4,2,1,75,0,0
48050,-166.666666666667,4,2,1,75,0,0
48366,-100,4,2,1,80,0,0
53419,-100,4,2,1,90,0,0
63524,-100,4,2,1,60,0,0
63998,-200,4,2,1,60,0,0
64628,-83.3333333333333,4,2,1,100,0,1
84997,-90.9090909090909,4,2,1,100,0,0
105208,-90.9090909090909,4,2,1,60,0,0
110261,-90.9090909090909,4,2,1,80,0,0
112471,-100,4,2,1,80,0,0
115313,-125,4,2,1,80,0,0
119182,-125,4,2,1,80,0,0
119261,-125,4,2,1,80,0,0
120366,-100,4,2,1,80,0,0
125419,-100,4,2,1,90,0,0
135208,-166.666666666667,4,2,1,90,0,0
135524,-100,4,2,1,90,0,0
140576,-90.9090909090909,4,2,1,90,0,0
146734,-83.3333333333333,4,2,1,100,0,1
166944,-83.3333333333333,4,2,1,100,0,0
177050,-125,4,2,1,90,0,0
181471,-100,4,2,1,90,0,0
181550,-100,4,2,1,90,0,0
181787,-100,4,2,1,90,0,0
181866,-100,4,2,1,90,0,0
184629,-90.9090909090909,4,2,1,90,0,0
187155,-90.9090909090909,4,2,1,60,0,0
192221,315.789473684211,4,2,1,70,1,0
192378,315.789473684211,4,2,1,70,1,0
192693,-333.333333333333,4,2,1,70,0,0
194746,-100,4,2,1,100,0,0
196009,-83.3333333333333,4,2,1,100,0,0
197430,-83.3333333333333,4,2,1,60,0,0
197904,-200,4,2,1,60,0,0
198535,-83.3333333333333,4,2,1,100,0,1
218746,-83.3333333333333,4,2,1,100,0,0
219062,-83.3333333333333,4,2,1,60,0,0
220956,-83.3333333333333,4,2,1,100,0,0

[Colours]
Combo1 : 74,181,149
Combo2 : 255,172,132
Combo3 : 153,77,77

[HitObjects]
96,86,7155,6,0,P|70:92|38:93,2,47.9999985351563,2|2|2,0:0|0:0|0:0,0:0:0:0:
157,32,7628,1,2,0:0:0:0:
280,129,7786,6,0,B|303:202|303:202|281:284,1,160,14|10,0:0|3:2,0:0:0:0:
185,353,8260,1,10,3:2:0:0:
122,222,8418,1,2,3:2:0:0:
122,222,8497,1,0,3:2:0:0:
122,222,8576,2,0,P|161:207|207:205,1,80,10|0,3:2|0:0,0:0:0:0:
228,224,8813,2,0,P|267:238|313:241,1,80,10|0,3:2|0:0,0:0:0:0:
339,214,9049,1,10,3:2:0:0:
471,231,9207,6,0,B|475:276|475:276|483:291|483:291|487:352,2,120,10|10|10,3:2|3:2|3:2,0:0:0:0:
498,26,9965,2,0,L|503:-15,3,32,0|0|0|12,3:0|3:0|3:0|0:0,0:0:0:0:
498,26,11892,6,0,L|503:-15,3,26.6666666666667,0|0|0|12,3:0|3:0|3:0|0:0,0:0:0:0:
390,214,12365,5,8,3:2:0:0:
374,216,12444,1,8,0:0:0:0:
358,218,12523,1,8,0:0:0:0:
342,220,12602,1,8,0:0:0:0:
326,222,12681,2,0,L|259:215,3,40,8|8|8|8,3:2|0:0|0:0|0:0,0:0:0:0:
253,214,12998,5,6,3:1:0:0:
329,138,13155,1,0,0:0:0:0:
279,314,13313,1,10,0:0:0:0:
174,153,13471,2,0,P|133:144|82:140,1,88.000002685547,0|2,0:0|3:0,0:0:0:0:
255,87,13787,1,2,3:0:0:0:
167,235,13945,1,10,0:0:0:0:
93,50,14103,6,0,P|134:41|185:37,1,88.000002685547,2|0,0:0|3:0,0:0:0:0:
342,96,14419,2,0,P|300:94|249:84,1,88.000002685547,2|8,3:0|0:0,0:0:0:0:
437,3,14734,2,0,L|446:94,1,88.000002685547,2|0,0:0|3:0,0:0:0:0:
333,183,15050,2,0,L|342:92,1,88.000002685547,2|10,3:0|0:0,0:0:0:0:
453,245,15366,5,0,0:0:0:0:
453,245,15445,1,8,0:0:0:0:
453,245,15524,1,6,3:2:0:0:
333,183,15682,1,0,0:0:0:0:
485,162,15840,1,10,0:0:0:0:
352,268,15998,2,0,P|341:332|337:370,1,88.000002685547,0|2,0:0|3:0,0:0:0:0:
245,188,16313,2,0,P|234:124|230:86,1,88.000002685547,2|10,3:0|0:0,0:0:0:0:
163,295,16629,6,0,L|255:301,1,88.000002685547,2|0,0:0|3:0,0:0:0:0:
88,210,16945,1,10,0:0:0:0:
245,188,17103,2,0,L|337:182,1,88.000002685547,8|2,0:0|0:0,0:0:0:0:
143,95,17419,2,0,L|235:101,1,88.000002685547,8|10,3:2|0:2,0:0:0:0:
83,20,17734,1,10,3:2:0:0:
286,10,17892,5,8,0:0:0:0:
286,10,17971,1,8,0:0:0:0:
286,10,18050,2,0,B|260:64|260:64|294:176,1,176.000005371094,6|8,3:2|0:0,0:0:0:0:
467,254,18524,2,0,P|430:239|379:241,1,88.000002685547,2|0,0:0|3:0,0:0:0:0:
321,337,18840,1,2,3:0:0:0:
475,365,18998,1,10,0:0:0:0:
259,261,19155,6,0,B|171:261|193:324|100:324,1,176.000005371094,0|0,0:0|3:0,0:0:0:0:
105,149,19629,1,10,0:0:0:0:
105,149,19787,2,0,P|114:193|120:243,1,88.000002685547,2|0,0:0|3:0,0:0:0:0:
242,81,20103,1,2,3:0:0:0:
242,81,20261,2,0,P|233:125|227:175,1,88.000002685547,10|0,0:0|0:0,0:0:0:0:
256,199,20498,1,8,0:0:0:0:
256,199,20576,6,0,B|326:197|326:197|346:209|346:209|433:205,1,176.000005371094,6|8,3:2|0:0,0:0:0:0:
385,42,21050,2,0,P|375:92|371:133,1,88.000002685547,2|0,0:0|3:0,0:0:0:0:
478,79,21366,1,2,3:0:0:0:
478,79,21524,1,10,0:0:0:0:
512,218,21682,2,0,P|462:208|421:204,1,88.000002685547,2|0,0:0|3:0,0:0:0:0:
371,128,21998,1,8,0:0:0:0:
296,275,22155,2,0,P|245:282|205:292,1,88.000002685547,10|0,0:0|0:0,0:0:0:0:
53,371,22471,6,0,B|68:348|68:348|51:283,1,88.000002685547,10|0,3:2|0:0,0:0:0:0:
79,256,22708,2,0,B|64:233|64:233|81:168,1,88.000002685547,10|0,3:2|0:0,0:0:0:0:
114,99,22945,1,10,3:2:0:0:
110,89,23024,1,8,0:2:0:0:
107,79,23103,5,6,3:1:0:0:
215,28,23260,1,0,0:0:0:0:
60,3,23418,1,10,0:0:0:0:
212,124,23576,2,0,P|261:115|314:109,1,88.000002685547,0|2,0:0|3:0,0:0:0:0:
233,251,23892,1,2,3:0:0:0:
138,182,24050,1,10,0:0:0:0:
90,343,24208,6,0,P|86:298|77:251,1,88.000002685547,2|0,0:0|3:0,0:0:0:0:
233,251,24524,2,0,P|237:206|246:159,1,88.000002685547,2|8,3:0|0:0,0:0:0:0:
376,343,24840,2,0,P|372:298|363:251,1,88.000002685547,2|0,0:0|3:0,0:0:0:0:
501,234,25155,2,0,P|505:189|514:142,1,88.000002685547,2|10,3:0|0:0,0:0:0:0:
423,46,25471,5,0,0:0:0:0:
423,46,25550,1,8,0:0:0:0:
423,46,25629,1,6,3:2:0:0:
438,152,25787,1,0,0:0:0:0:
499,15,25945,1,10,0:0:0:0:
352,117,26103,2,0,P|288:128|250:132,1,88.000002685547,0|2,0:0|3:0,0:0:0:0:
168,12,26419,2,0,P|232:17|270:23,1,88.000002685547,2|10,3:0|0:0,0:0:0:0:
155,190,26734,6,0,L|149:94,1,88.000002685547,2|0,0:0|3:0,0:0:0:0:
88,256,27050,1,10,0:0:0:0:
246,231,27208,2,0,L|240:135,1,88.000002685547,12|2,0:0|0:0,0:0:0:0:
163,354,27524,2,0,L|169:258,1,88.000002685547,8|10,3:2|0:2,0:0:0:0:
240,143,27839,1,10,3:2:0:0:
297,334,27997,5,8,0:0:0:0:
297,334,28076,1,8,0:0:0:0:
297,334,28155,2,0,B|343:357|343:357|464:316,1,176.000005371094,6|8,3:2|0:0,0:0:0:0:
357,175,28629,2,0,P|345:219|353:264,1,88.000002685547,2|0,0:0|3:0,0:0:0:0:
475,214,28945,1,2,3:0:0:0:
333,156,29103,1,10,0:0:0:0:
479,11,29261,6,0,B|369:11|414:72|318:64,1,176.000005371094,0|0,0:0|3:0,0:0:0:0:
230,7,29734,1,10,0:0:0:0:
182,114,29892,2,0,P|174:156|169:212,1,88.000002685547,2|0,0:0|3:0,0:0:0:0:
211,0,30208,1,2,3:0:0:0:
119,42,30366,2,0,L|9:49,1,88.000002685547,10|0,0:0|0:0,0:0:0:0:
3,38,30603,1,8,0:0:0:0:
3,38,30682,6,0,B|28:87|28:87|3:209,1,176.000005371094,6|8,3:2|0:0,0:0:0:0:
101,305,31155,2,0,L|89:211,1,88.000002685547,2|0,0:0|3:0,0:0:0:0:
17,365,31471,1,2,3:0:0:0:
17,365,31629,1,10,0:0:0:0:
198,275,31787,2,0,L|210:181,1,88.000002685547,2|0,0:0|3:0,0:0:0:0:
101,305,32103,1,10,0:0:0:0:
278,353,32261,2,0,L|371:344,1,88.000002685547,10|2,0:0|0:0,0:0:0:0:
452,257,32576,1,10,3:2:0:0:
311,155,32734,1,10,0:2:0:0:
310,137,32813,1,8,0:2:0:0:
309,119,32892,1,8,3:2:0:0:
308,101,32971,1,8,0:2:0:0:
307,83,33050,1,8,0:2:0:0:
306,65,33129,1,8,0:2:0:0:
305,52,33208,6,0,P|349:43|400:44,1,96,6|0,3:2|0:0,0:0:0:0:
422,54,33524,2,0,B|428:84|428:84|421:117,1,64,10|0,0:0|0:0,0:0:0:0:
311,155,33840,1,2,3:2:0:0:
311,155,33998,1,2,3:2:0:0:
228,149,34155,1,10,0:0:0:0:
145,142,34313,1,2,0:0:0:0:
145,142,34629,5,2,0:0:0:0:
228,149,34787,1,10,0:0:0:0:
181,223,34945,1,2,0:0:0:0:
98,216,35103,1,2,3:2:0:0:
58,138,35261,2,0,P|50:108|54:75,1,64,2|8,3:2|0:0,0:0:0:0:
145,142,35576,1,10,0:0:0:0:
73,244,35734,6,0,B|90:297|90:297|85:310,1,64,6|0,3:2|0:0,0:0:0:0:
174,313,36050,2,0,B|171:368|171:368|162:379,1,64,10|0,0:0|0:0,0:0:0:0:
250,384,36366,1,2,3:2:0:0:
250,384,36524,1,2,3:2:0:0:
326,348,36682,1,10,0:0:0:0:
401,384,36840,1,2,0:0:0:0:
401,384,37155,5,2,3:2:0:0:
326,348,37313,1,10,0:0:0:0:
397,294,37471,1,2,0:0:0:0:
486,340,37629,1,10,3:2:0:0:
487,327,37708,1,8,0:2:0:0:
488,314,37787,1,10,0:2:0:0:
489,301,37866,1,8,0:2:0:0:
490,291,37945,2,0,P|483:255|465:226,1,71.9999978027344,8|8,3:2|0:2,0:0:0:0:
440,212,38261,6,0,B|416:179|416:179|436:76,1,120,6|0,3:2|0:0,0:0:0:0:
441,77,38576,2,0,L|354:70,1,80,10|0,0:2|0:0,0:0:0:0:
294,5,38892,2,0,L|207:12,1,80,2|0,3:2|3:2,0:0:0:0:
161,83,39208,1,10,0:2:0:0:
33,6,39366,6,0,P|47:49|52:90,1,80,2|0,0:0|3:2,0:0:0:0:
103,148,39682,2,0,P|93:192|77:230,1,80,2|8,0:0|0:2,0:0:0:0:
11,309,39998,1,2,0:0:0:0:
11,309,40155,2,0,L|92:303,1,80,2|2,3:2|3:2,0:0:0:0:
207,295,40471,1,10,0:2:0:0:
207,295,40787,5,14,0:2:0:0:
347,347,40945,1,0,3:2:0:0:
347,347,41103,1,2,3:2:0:0:
277,222,41261,5,10,0:2:0:0:
263,379,41419,1,2,3:2:0:0:
263,379,41577,1,0,3:2:0:0:
376,249,41734,5,10,0:2:0:0:
376,249,41892,1,2,3:2:0:0:
247,209,42050,2,0,P|206:201|150:198,1,80,14|0,0:2|3:2,0:0:0:0:
291,278,42366,1,2,3:2:0:0:
370,164,42524,2,0,P|411:156|467:153,1,80,10|0,0:2|3:2,0:0:0:0:
272,198,42840,1,10,0:2:0:0:
334,90,42998,1,8,0:2:0:0:
335,74,43077,1,8,0:2:0:0:
336,58,43155,1,8,0:2:0:0:
337,42,43234,1,8,0:2:0:0:
337,29,43313,6,0,P|288:21|256:18,1,80,6|0,3:2|0:0,0:0:0:0:
242,30,43629,2,0,B|207:35|207:35|158:22,1,64,10|0,0:2|0:0,0:0:0:0:
99,0,43945,1,2,3:2:0:0:
99,0,44103,1,0,3:2:0:0:
86,81,44260,1,8,0:2:0:0:
73,163,44418,1,2,0:0:0:0:
73,163,44734,5,2,3:2:0:0:
86,81,44892,1,10,0:2:0:0:
137,212,45050,1,2,0:0:0:0:
150,130,45208,1,2,3:2:0:0:
58,251,45366,2,0,L|66:326,1,64,2|8,3:2|0:2,0:0:0:0:
137,212,45681,1,2,0:0:0:0:
145,378,45840,6,0,B|190:361|190:361|224:371,1,64,2|0,3:2|0:0,0:0:0:0:
279,384,46155,2,0,B|324:367|324:367|358:377,1,64,10|0,0:2|0:0,0:0:0:0:
459,331,46471,1,2,3:2:0:0:
379,280,46629,1,2,3:2:0:0:
485,343,46787,1,10,0:2:0:0:
359,361,46945,1,2,0:0:0:0:
359,361,47260,5,10,0:2:0:0:
379,280,47418,1,10,0:2:0:0:
310,231,47576,1,2,0:0:0:0:
315,143,47734,1,10,3:2:0:0:
319,130,47813,1,0,0:0:0:0:
321,117,47892,1,10,0:2:0:0:
322,104,47971,1,8,0:2:0:0:
322,82,48049,2,0,L|323:39,3,32
284,23,48366,6,0,L|156:32,1,120,6|0,3:2|0:0,0:0:0:0:
45,14,48682,2,0,P|71:41|90:83,1,80,10|0,0:2|0:0,0:0:0:0:
143,157,48998,2,0,P|132:193|105:230,1,80,2|0,3:2|3:2,0:0:0:0:
21,265,49313,1,10,0:2:0:0:
110,363,49471,6,0,L|193:356,1,80,2|0,0:0|3:2,0:0:0:0:
282,259,49787,2,0,L|199:252,1,80,2|8,3:2|0:2,0:0:0:0:
306,364,50103,1,2,0:0:0:0:
306,364,50261,2,0,L|389:357,1,80,2|0,3:2|3:2,0:0:0:0:
486,314,50576,1,10,0:2:0:0:
486,314,50892,6,0,B|489:246|489:246|499:233|499:233|504:156,1,160,6|10,3:2|0:2,0:0:0:0:
413,93,51366,1,2,0:0:0:0:
413,93,51524,2,0,L|419:173,1,80,2|0,3:2|3:2,0:0:0:0:
475,33,51840,1,10,0:2:0:0:
475,33,51998,1,2,0:0:0:0:
333,48,52155,2,0,L|327:128,1,80,2|8,3:2|0:2,0:0:0:0:
399,0,52471,1,10,0:2:0:0:
234,94,52629,2,0,L|240:174,1,80,10|8,0:2|0:2,0:0:0:0:
327,127,52945,1,2,3:1:0:0:
196,84,53103,1,10,0:0:0:0:
341,145,53261,1,2,0:0:0:0:
212,256,53419,6,0,B|148:251|170:302|100:290,1,120,6|0,3:2|0:0,0:0:0:0:
64,310,53734,2,0,P|80:265|61:197,1,120,2|0,0:0|0:0,0:0:0:0:
34,177,54050,2,0,L|22:96,1,80,14|2,0:2|0:0,0:0:0:0:
124,0,54366,2,0,L|112:81,1,80,2|10,0:0|0:2,0:0:0:0:
181,168,54682,1,2,3:2:0:0:
215,52,54840,1,10,0:2:0:0:
194,180,54998,1,2,0:0:0:0:
206,41,55155,1,2,3:2:0:0:
291,182,55313,6,0,P|358:177|383:96,1,160,10|10,0:0|0:0,0:0:0:0:
383,73,55708,1,8,0:0:0:0:
396,49,55787,1,10,0:3:0:0:
421,40,55866,1,8,0:3:0:0:
447,41,55945,6,0,P|459:99|471:213,1,160,6|0,3:2|0:0,0:0:0:0:
392,246,56419,1,2,3:2:0:0:
494,345,56576,2,0,L|393:333,1,80,14|2,0:0|0:0,0:0:0:0:
338,372,56892,2,0,L|237:360,1,80,2|2,0:0|0:0,0:0:0:0:
143,294,57208,5,2,3:2:0:0:
239,259,57366,1,10,0:0:0:0:
167,371,57524,1,2,0:0:0:0:
254,245,57682,1,2,0:0:0:0:
113,280,57840,6,0,P|97:236|92:186,1,80,2|0,3:2|0:0,0:0:0:0:
101,174,58076,2,0,P|109:132|128:84,1,80,0|0,3:2|0:0,0:0:0:0:
145,80,58313,1,2,3:2:0:0:
260,38,58471,5,6,3:2:0:0:
260,38,58629,2,0,L|448:47,1,160,2|2,0:0|3:2,0:0:0:0:
512,132,59103,2,0,L|419:136,1,80,14|2,0:0|0:0,0:0:0:0:
351,184,59419,1,2,0:0:0:0:
351,184,59576,1,10,0:0:0:0:
493,262,59734,6,0,B|515:297|515:297|488:381,2,120,2|2|2,3:2|0:0|3:2,0:0:0:0:
467,252,60287,1,0,3:2:0:0:
467,252,60366,2,0,L|362:262,1,80,8|2,0:0|3:2,0:0:0:0:
315,193,60682,1,10,0:0:0:0:
287,321,60840,1,2,3:2:0:0:
287,321,60919,1,0,0:0:0:0:
287,321,60998,6,0,B|185:310|232:378|142:364,1,160,6|10,3:2|3:2,0:0:0:0:
66,321,61392,1,8,0:0:0:0:
63,297,61471,1,10,0:0:0:0:
60,273,61550,1,8,0:0:0:0:
57,249,61629,2,0,L|69:179,3,40,10|8|10|8,3:2|0:0|0:0|0:0,0:0:0:0:
142,168,61945,2,0,L|130:98,3,40,8|8|6|0,3:2|0:3|0:3|3:2,0:0:0:0:
77,68,62261,5,14,0:0:0:0:
229,105,62419,1,2,3:2:0:0:
52,81,62576,1,2,3:2:0:0:
221,16,62734,5,14,0:0:0:0:
142,168,62892,1,0,3:2:0:0:
123,1,63050,5,10,3:2:0:0:
220,191,63208,1,8,3:2:0:0:
305,3,63366,1,8,3:2:0:0:
305,3,63998,5,2,0:0:0:0:
368,43,64155,2,0,L|412:37,2,40,2|2|2,0:0|0:0|0:0,0:0:0:0:
493,125,64629,6,0,B|526:173|526:173|501:305,1,191.999994140625,6|2,3:1|1:0,0:0:0:0:
313,194,65103,2,0,P|383:172|429:245,1,143.999995605469,10|0,0:0|0:0,0:0:0:0:
422,246,65419,1,2,3:0:0:0:
258,299,65576,1,2,1:0:0:0:
313,194,65734,1,10,0:0:0:0:
407,343,65892,1,2,1:0:0:0:
199,378,66050,6,0,P|209:319|221:187,1,191.999994140625,2|10,3:0|0:0,0:0:0:0:
65,119,66524,2,0,B|113:135|113:135|160:122,1,95.9999970703126,2|0,1:0|3:0,0:0:0:0:
267,20,66840,2,0,B|219:4|219:4|172:17,1,95.9999970703126,2|8,1:0|0:0,0:0:0:0:
300,161,67155,6,0,B|406:158|359:231|473:226,1,191.999994140625,6|2,3:2|1:0,0:0:0:0:
444,0,67629,2,0,B|415:37|415:37|448:152,1,143.999995605469,10|0,0:0|0:0,0:0:0:0:
448,151,67945,1,2,3:0:0:0:
349,75,68103,1,2,1:0:0:0:
320,244,68261,1,10,0:0:0:0:
327,58,68419,1,2,1:0:0:0:
216,237,68576,6,0,P|126:231|16:227,1,191.999994140625,2|10,3:0|0:0,0:0:0:0:
0,105,69050,2,0,P|46:103|100:100,1,95.9999970703126,2|0,1:0|3:0,0:0:0:0:
197,158,69366,1,2,1:0:0:0:
47,208,69524,1,10,0:0:0:0:
252,308,69682,6,0,P|224:367|113:353,1,191.999994140625,6|0,3:2|1:0,0:0:0:0:
197,158,70155,2,0,P|191:205|189:255,1,95.9999970703126,8|0,0:0|1:0,0:0:0:0:
285,344,70471,2,0,P|279:296|277:247,1,95.9999970703126,2|0,3:0|1:0,0:0:0:0:
365,155,70787,2,0,P|359:202|357:252,1,95.9999970703126,10|0,0:0|1:0,0:0:0:0:
494,365,71103,6,0,P|501:305|503:211,1,143.999995605469,2|0,3:0|0:0,0:0:0:0:
502,197,71419,1,10,0:0:0:0:
421,35,71576,2,0,P|433:81|439:131,1,95.9999970703126,2|0,1:0|3:0,0:0:0:0:
371,232,71892,1,2,1:0:0:0:
466,126,72050,1,10,0:0:0:0:
265,62,72208,6,0,B|154:69|195:127|82:122,1,191.999994140625,6|2,3:2|3:2,0:0:0:0:
57,123,72603,1,0,3:2:0:0:
57,123,72682,1,10,0:0:0:0:
117,0,72840,1,2,0:0:0:0:
241,146,72998,2,0,P|245:190|247:244,1,95.9999970703126,2|8,3:2|0:0,0:0:0:0:
265,62,73313,1,10,0:0:0:0:
146,203,73470,6,0,P|142:247|140:301,1,95.9999970703126,6|0,3:2|0:0,0:0:0:0:
87,122,73787,1,2,3:2:0:0:
264,151,73945,1,10,0:0:0:0:
111,206,74103,1,2,0:0:0:0:
181,53,74261,5,10,3:2:0:0:
246,241,74419,1,8,0:0:0:0:
246,241,74734,6,0,B|305:220|305:220|437:253,1,191.999994140625,6|2,3:1|1:0,0:0:0:0:
461,89,75208,2,0,P|391:67|351:120,1,143.999995605469,10|0,0:0|0:0,0:0:0:0:
355,144,75524,1,2,3:0:0:0:
484,104,75681,1,2,1:0:0:0:
325,23,75839,1,10,0:0:0:0:
436,172,75997,1,2,1:0:0:0:
257,97,76155,6,0,P|165:88|53:82,1,191.999994140625,2|10,3:0|0:0,0:0:0:0:
0,176,76629,2,0,P|45:170|97:167,1,95.9999970703126,2|0,1:0|3:0,0:0:0:0:
246,241,76945,2,0,P|201:235|149:232,1,95.9999970703126,2|8,1:0|0:0,0:0:0:0:
0,345,77261,6,0,B|82:340|82:340|99:355|99:355|188:349,1,191.999994140625,6|2,3:2|1:0,0:0:0:0:
317,186,77734,2,0,P|272:237|287:312,1,143.999995605469,10|0,0:0|0:0,0:0:0:0:
300,332,78050,1,2,3:0:0:0:
388,179,78208,1,2,1:0:0:0:
422,301,78366,1,10,0:0:0:0:
331,113,78524,1,2,1:0:0:0:
246,241,78682,5,10,0:0:0:0:
226,243,78761,1,8,0:0:0:0:
206,245,78840,1,0,3:0:0:0:
186,247,78919,1,0,3:0:0:0:
166,249,78998,1,10,0:0:0:0:
84,315,79155,2,0,P|122:278|100:196,1,143.999995605469,2|0,3:0|0:0,0:0:0:0:
32,151,79471,2,0,L|179:153,1,143.999995605469,2|0,3:0|0:0,0:0:0:0:
242,82,79787,6,0,L|433:79,1,191.999994140625,6|0,3:2|3:2,0:0:0:0:
483,240,80261,2,0,P|501:194|503:134,1,95.9999970703126,8|0,0:0|3:2,0:0:0:0:
335,287,80576,2,0,P|317:241|315:181,1,95.9999970703126,10|0,0:0|3:2,0:0:0:0:
320,171,80813,1,0,3:2:0:0:
320,171,80892,1,10,0:0:0:0:
421,305,81050,1,0,3:2:0:0:
421,305,81129,1,0,3:2:0:0:
421,305,81208,2,0,P|371:307|320:313,1,95.9999970703126,10|0,0:0|3:2,0:0:0:0:
300,333,81445,1,0,3:2:0:0:
300,333,81524,5,10,0:0:0:0:
213,181,81682,2,0,L|225:287,1,95.9999970703126,2|8,3:2|0:0,0:0:0:0:
119,382,81998,2,0,L|131:276,1,95.9999970703126,2|8,3:2|0:0,0:0:0:0:
108,264,82234,1,0,3:0:0:0:
108,264,82313,6,0,B|83:221|83:221|100:126,1,143.999995605469,6|0,3:2|0:0,0:0:0:0:
107,97,82629,1,2,3:2:0:0:
183,21,82787,1,10,0:0:0:0:
263,96,82945,1,2,0:0:0:0:
344,15,83103,2,0,P|384:50|404:118,1,95.9999970703126,10|0,3:2|0:0,0:0:0:0:
420,110,83340,2,0,P|409:162|360:213,1,95.9999970703126,10|0,3:2|0:0,0:0:0:0:
352,206,83576,1,10,3:2:0:0:
249,182,83734,6,0,P|209:217|189:285,1,95.9999970703126,10|0,3:2|0:0,0:0:0:0:
173,277,83971,2,0,P|183:329|232:380,1,95.9999970703126,10|0,3:2|0:0,0:0:0:0:
241,373,84207,1,10,3:2:0:0:
493,327,84524,5,0,3:2:0:0:
493,327,84603,1,0,3:2:0:0:
493,327,84682,2,0,L|348:318,1,143.999995605469,12|0,0:0|0:0,0:0:0:0:
315,312,84998,5,6,3:1:0:0:
400,244,85155,1,0,0:0:0:0:
266,202,85313,1,10,0:0:0:0:
413,138,85471,2,0,P|422:179|426:230,1,88.000002685547,0|2,0:0|3:0,0:0:0:0:
338,88,85787,1,2,3:0:0:0:
292,222,85945,1,10,0:0:0:0:
417,50,86103,6,0,P|458:41|509:37,1,88.000002685547,2|0,0:0|3:0,0:0:0:0:
312,117,86419,2,0,P|271:108|220:104,1,88.000002685547,2|8,3:0|0:0,0:0:0:0:
124,1,86734,2,0,L|133:92,1,88.000002685547,2|0,0:0|3:0,0:0:0:0:
37,155,87050,2,0,L|28:246,1,88.000002685547,2|10,3:0|0:0,0:0:0:0:
205,348,87366,5,0,0:0:0:0:
205,348,87445,1,8,0:0:0:0:
205,348,87524,1,6,3:2:0:0:
118,234,87682,1,0,0:0:0:0:
95,373,87840,1,10,0:0:0:0:
240,241,87998,2,0,P|229:305|225:343,1,88.000002685547,0|2,0:0|3:0,0:0:0:0:
360,298,88313,2,0,P|371:362|375:400,1,88.000002685547,2|10,3:0|0:0,0:0:0:0:
413,194,88629,6,0,L|505:200,1,88.000002685547,2|0,0:0|3:0,0:0:0:0:
324,220,88945,1,10,0:0:0:0:
422,103,89103,2,0,L|514:97,1,88.000002685547,8|2,0:0|0:0,0:0:0:0:
334,6,89419,2,0,L|426:12,1,88.000002685547,8|2,3:2|0:2,0:0:0:0:
270,86,89734,2,0,L|203:79,1,44.0000013427735,10|0,3:2|0:0,0:0:0:0:
165,10,89892,5,8,0:0:0:0:
165,10,89971,1,8,0:0:0:0:
165,10,90050,2,0,B|191:64|191:64|157:176,1,176.000005371094,6|8,3:2|0:0,0:0:0:0:
54,301,90524,2,0,P|44:260|56:212,1,88.000002685547,2|0,0:0|3:0,0:0:0:0:
206,249,90840,1,2,3:0:0:0:
80,296,90998,1,10,0:0:0:0:
242,374,91155,6,0,B|330:374|308:311|401:311,1,176.000005371094,0|0,0:0|3:0,0:0:0:0:
493,194,91629,1,10,0:0:0:0:
493,194,91787,2,0,P|484:238|478:288,1,88.000002685547,2|0,0:0|3:0,0:0:0:0:
327,126,92103,1,2,3:0:0:0:
327,126,92261,2,0,P|336:170|342:220,1,88.000002685547,10|0,0:0|0:0,0:0:0:0:
323,240,92498,1,8,0:0:0:0:
323,240,92576,6,0,P|233:235|148:234,1,176.000005371094,6|8,3:2|0:0,0:0:0:0:
60,373,93050,2,0,B|51:330|51:330|61:284,1,88.000002685547,2|0,0:0|3:0,0:0:0:0:
167,219,93366,1,2,3:0:0:0:
167,219,93524,1,10,0:0:0:0:
38,122,93682,2,0,L|127:113,1,88.000002685547,2|0,0:0|3:0,0:0:0:0:
171,27,93998,1,8,0:0:0:0:
237,149,94155,2,0,L|326:158,1,88.000002685547,10|0,0:0|3:0,0:0:0:0:
454,60,94471,2,0,B|461:70|461:70|445:155,1,88.000002685547,10|0,3:2|0:0,0:0:0:0:
424,169,94708,2,0,B|417:179|417:179|433:264,1,88.000002685547,10|0,3:2|0:0,0:0:0:0:
453,276,94945,2,0,L|444:322,1,44.0000013427735,10|8,3:2|0:2,0:0:0:0:
387,371,95103,5,6,3:1:0:0:
308,271,95260,1,0,0:0:0:0:
444,319,95418,1,10,0:0:0:0:
273,376,95576,2,0,P|232:367|181:363,1,88.000002685547,0|2,0:0|3:0,0:0:0:0:
291,245,95892,1,2,3:0:0:0:
361,354,96050,1,10,0:0:0:0:
204,274,96208,6,0,P|195:233|191:182,1,88.000002685547,2|0,0:0|3:0,0:0:0:0:
298,68,96524,2,0,P|292:109|278:158,1,88.000002685547,2|8,3:0|0:0,0:0:0:0:
154,13,96840,2,0,L|245:4,1,88.000002685547,2|0,0:0|3:0,0:0:0:0:
385,76,97155,2,0,L|294:67,1,88.000002685547,2|10,3:0|0:0,0:0:0:0:
196,114,97471,5,0,0:0:0:0:
196,114,97550,1,8,0:0:0:0:
196,114,97629,1,6,3:2:0:0:
241,4,97787,1,0,0:0:0:0:
280,153,97945,1,10,0:0:0:0:
131,47,98103,2,0,P|67:39|29:35,1,88.000002685547,0|2,0:0|3:0,0:0:0:0:
196,114,98419,2,0,P|260:106|298:102,1,88.000002685547,2|10,3:0|0:0,0:0:0:0:
59,197,98734,6,0,L|50:288,1,88.000002685547,2|0,0:0|3:0,0:0:0:0:
118,129,99050,1,10,0:0:0:0:
160,251,99208,2,0,L|151:342,1,88.000002685547,8|2,0:0|0:0,0:0:0:0:
247,206,99524,2,0,L|256:297,1,88.000002685547,8|10,3:2|0:2,0:0:0:0:
274,321,99761,1,8,0:0:0:0:
274,321,99840,2,0,L|265:372,1,44.0000013427735,10|8,3:2|0:0,0:0:0:0:
388,384,99997,5,8,0:0:0:0:
388,384,100076,1,8,0:0:0:0:
388,384,100155,2,0,B|414:330|414:330|380:218,1,176.000005371094,6|8,3:2|0:0,0:0:0:0:
303,135,100629,2,0,P|293:92|305:50,1,88.000002685547,2|0,0:0|3:0,0:0:0:0:
419,5,100945,1,2,3:0:0:0:
450,133,101103,1,10,0:0:0:0:
286,19,101260,6,0,B|198:19|220:82|127:82,1,176.000005371094,0|0,0:0|3:0,0:0:0:0:
21,0,101734,1,10,0:0:0:0:
21,0,101892,2,0,P|30:44|36:94,1,88.000002685547,2|0,0:0|3:0,0:0:0:0:
144,182,102208,1,2,3:0:0:0:
144,182,102366,2,0,P|135:226|129:276,1,88.000002685547,10|0,0:0|0:0,0:0:0:0:
119,300,102603,1,8,0:0:0:0:
119,300,102682,6,0,B|176:284|176:284|293:309,1,176.000005371094,6|8,3:2|0:0,0:0:0:0:
403,384,103155,2,0,P|393:334|392:291,1,88.000002685547,2|0,0:0|3:0,0:0:0:0:
495,187,103471,1,2,3:0:0:0:
495,187,103629,2,0,B|462:199|462:199|374:187,1,88.000002685547,10|0,0:0|0:0,0:0:0:0:
294,216,103945,5,8,3:2:0:0:
283,233,104050,2,0,P|275:262|270:299,1,58.6666684570313,8|8,0:2|0:2,0:0:0:0:
195,283,104261,1,10,3:3:0:0:
184,300,104366,2,0,P|176:329|171:366,1,58.6666684570313,8|8,0:3|0:3,0:0:0:0:
91,384,104576,2,0,P|62:384|30:372,2,58.6666684570313,6|4|4,3:3|0:3|0:3,0:0:0:0:
171,357,104892,2,0,P|200:357|232:369,2,58.6666684570313,0|0|0,3:3|3:3|3:3,0:0:0:0:
105,300,105208,5,4,3:2:0:0:
256,192,110261,5,6,3:2:0:0:
192,110,112471,5,10,1:2:0:0:
192,110,112550,1,8,0:3:0:0:
192,110,112629,1,4,0:3:0:0:
274,62,112787,2,0,P|326:55|362:54,1,80,14|0,0:0|3:0,0:0:0:0:
212,130,113103,1,2,3:0:0:0:
317,192,113261,2,0,P|369:199|405:200,1,80,14|0,0:0|3:0,0:0:0:0:
216,249,113576,1,2,3:0:0:0:
334,322,113734,2,0,P|386:315|422:314,1,80,12|2,0:0|3:0,0:0:0:0:
192,253,114050,6,0,B|182:216|182:216|193:171,1,80,14|0,0:0|3:0,0:0:0:0:
118,314,114366,1,2,3:0:0:0:
53,209,114524,2,0,B|63:172|63:172|52:127,1,80,14|0,0:0|3:0,0:0:0:0:
94,291,114840,1,10,3:2:0:0:
187,168,114998,1,8,3:2:0:0:
202,165,115076,1,8,0:2:0:0:
217,164,115155,1,10,0:2:0:0:
232,166,115234,1,8,0:2:0:0:
247,169,115313,5,6,3:2:0:0:
247,169,115629,1,10,0:0:0:0:
302,229,115787,1,0,0:0:0:0:
369,176,115945,1,2,3:0:0:0:
369,176,116261,5,10,0:0:0:0:
302,229,116419,1,2,0:0:0:0:
371,291,116576,1,0,3:0:0:0:
305,353,116734,2,0,P|273:349|241:346,1,64,2|8,3:0|0:0,0:0:0:0:
159,375,117050,1,2,0:0:0:0:
159,375,117366,5,2,3:0:0:0:
105,311,117524,1,10,0:0:0:0:
157,246,117682,1,2,0:0:0:0:
52,168,117840,6,0,P|67:218|70:238,1,64,6|0,3:2|0:0,0:0:0:0:
162,106,118155,1,10,0:0:0:0:
162,106,118313,2,0,P|147:156|144:176,1,64,2|0,0:0|3:0,0:0:0:0:
247,51,118629,2,0,P|262:101|265:121,1,64,2|8,3:0|0:0,0:0:0:0:
343,177,118945,2,0,P|355:129|376:80,1,96,2|0,0:0|0:0,0:0:0:0:
388,65,119261,5,10,0:0:0:0:
468,84,119419,1,10,0:0:0:0:
425,154,119576,1,2,0:0:0:0:
504,177,119734,1,10,3:2:0:0:
448,239,119892,2,0,P|434:293|434:320,1,64,2|8,0:0|3:2,0:0:0:0:
447,326,120129,1,8,0:2:0:0:
447,326,120208,2,0,L|487:325,1,32,8|8,0:0|0:0,0:0:0:0:
368,372,120366,6,0,P|313:359|231:349,1,120,6|0,3:2|0:0,0:0:0:0:
218,343,120682,2,0,L|228:264,1,80,10|0,0:0|0:0,0:0:0:0:
122,384,120998,2,0,L|112:305,1,80,2|0,3:0|3:0,0:0:0:0:
8,278,121313,1,10,0:0:0:0:
8,278,121471,2,0,L|18:199,1,80,2|0,0:0|3:0,0:0:0:0:
129,168,121787,2,0,L|119:89,1,80,2|8,3:0|0:0,0:0:0:0:
40,31,122103,1,2,0:0:0:0:
228,16,122261,6,0,P|217:64|205:109,1,80,2|0,3:0|3:0,0:0:0:0:
230,124,122498,1,2,0:0:0:0:
230,124,122576,2,0,P|243:175|250:229,1,80,10|0,0:0|0:0,0:0:0:0:
411,131,122892,6,0,P|400:178|389:249,1,120,6|0,3:2|0:0,0:0:0:0:
395,285,123208,1,10,0:0:0:0:
446,368,123366,1,0,0:0:0:0:
314,309,123524,2,0,P|274:299|230:299,1,80,2|0,3:0|3:0,0:0:0:0:
152,364,123840,1,10,0:0:0:0:
152,364,123998,1,0,0:0:0:0:
54,268,124155,6,0,L|63:172,1,80,2|8,3:0|0:0,0:0:0:0:
180,133,124471,1,10,0:0:0:0:
180,133,124629,1,2,3:2:0:0:
141,221,124787,1,8,0:0:0:0:
97,99,124945,1,2,3:0:0:0:
97,99,125024,1,0,3:0:0:0:
97,99,125103,1,12,0:0:0:0:
156,210,125261,1,0,0:0:0:0:
244,68,125419,6,0,P|251:36|255:-6,2,53.3333333333333,6|2|2,3:2|0:0|0:0,0:0:0:0:
296,130,125734,2,0,P|303:185|310:268,1,120,2|0,0:0|3:2,0:0:0:0:
335,278,126050,2,0,P|367:285|409:289,2,53.3333333333333,14|2|2,0:0|0:0|0:0,0:0:0:0:
273,330,126366,2,0,P|218:337|135:344,1,120,2|8,0:0|0:0,0:0:0:0:
119,346,126682,5,2,3:2:0:0:
197,258,126840,1,8,0:0:0:0:
56,280,126998,1,0,0:0:0:0:
56,280,127076,1,2,3:2:0:0:
56,280,127155,2,0,P|49:224|49:192,1,80,2|10,3:2|0:0,0:0:0:0:
0,126,127471,1,2,3:2:0:0:
99,13,127629,2,0,P|92:69|92:101,1,80,2|8,0:0|0:0,0:0:0:0:
177,187,127945,6,0,P|145:180|103:176,2,53.3333333333333,2|2|2,3:0|0:0|0:0,0:0:0:0:
238,135,128261,2,0,P|293:128|376:121,1,120,2|0,0:0|0:0,0:0:0:0:
387,108,128576,2,0,P|394:76|398:34,2,53.3333333333333,10|2|2,0:0|0:0|0:0,0:0:0:0:
439,170,128892,2,0,P|446:225|453:308,1,120,2|0,0:0|0:0,0:0:0:0:
336,384,129208,6,0,L|340:299,1,80,2|8,3:0|0:0,0:0:0:0:
220,344,129524,2,0,L|216:259,1,80,2|0,0:0|0:0,0:0:0:0:
84,380,129840,2,0,L|88:295,1,80,2|0,3:0|0:0,0:0:0:0:
118,269,130076,2,0,L|114:184,1,80,0|0,3:0|0:0,0:0:0:0:
91,159,130313,1,0,3:0:0:0:
27,45,130471,6,0,B|59:75|59:75|176:52,1,160,4|2,3:2|0:0,0:0:0:0:
257,108,130945,1,0,3:0:0:0:
384,57,131103,2,0,P|403:53|444:49,2,53.3333333333333,14|2|2,0:0|0:0|0:0,0:0:0:0:
331,132,131419,2,0,P|312:128|271:124,2,53.3333333333333,2|2|0,0:0|0:0|0:0,0:0:0:0:
408,173,131734,5,2,3:0:0:0:
413,181,131840,2,0,L|424:249,1,53.3333333333333,2|2,0:0|0:0,0:0:0:0:
360,284,132050,1,2,0:0:0:0:
361,293,132156,2,0,L|348:360,1,53.3333333333333,2|0,0:0|0:0,0:0:0:0:
259,375,132366,5,2,3:0:0:0:
259,375,132445,1,0,3:0:0:0:
259,375,132524,1,0,3:0:0:0:
259,375,132603,1,0,3:0:0:0:
259,375,132682,2,0,L|250:332,3,40,10|0|0|0,0:3|3:0|3:0|3:0,0:0:0:0:
178,289,132998,6,0,B|150:291|150:291|108:304,2,53.3333333333333,6|2|2,3:2|0:0|0:0,0:0:0:0:
253,237,133313,2,0,B|281:235|281:235|323:222,2,53.3333333333333,2|2|2,0:0|0:0|0:0,0:0:0:0:
178,190,133628,1,10,0:0:0:0:
173,182,133735,2,0,L|162:114,1,53.3333333333333,2|2,0:0|0:0,0:0:0:0:
226,79,133945,1,2,0:0:0:0:
225,70,134049,2,0,L|237:2,1,53.3333333333333,2|0,0:0|0:0,0:0:0:0:
235,17,135208,6,0,B|259:18|259:18|271:25|271:25|310:20,1,71.9999978027344
339,2,135524,6,0,P|325:71|320:135,1,120,4|0,3:2|0:0,0:0:0:0:
335,148,135840,2,0,L|424:141,1,80,8|8,3:2|0:2,0:0:0:0:
508,249,136155,2,0,L|403:244,1,80,8|8,3:2|0:2,0:0:0:0:
402,269,136392,1,8,0:2:0:0:
402,269,136471,2,0,L|398:313,3,40,8|8|8|8,0:2|0:2|3:2|0:2,0:0:0:0:
302,359,136787,5,8,0:2:0:0:
270,365,136866,1,8,0:2:0:0:
237,364,136945,1,8,0:2:0:0:
207,352,137024,1,8,0:2:0:0:
185,328,137103,2,0,L|181:283,1,40,8|8,3:2|0:2,0:0:0:0:
251,230,137261,2,0,L|260:177,1,40,8|8,0:2|0:2,0:0:0:0:
193,130,137419,2,0,B|176:129|176:129|153:135,3,40,8|8|8|8,0:2|0:2|3:2|0:2,0:0:0:0:
262,70,137734,2,0,B|279:69|279:69|302:75,3,40,8|0|8|8,0:2|0:0|0:2|0:2,0:0:0:0:
164,8,138050,5,0,3:2:0:0:
140,9,138129,1,0,3:2:0:0:
116,10,138208,1,8,0:2:0:0:
92,11,138287,1,8,0:2:0:0:
68,13,138366,2,0,P|75:68|80:128,1,80,0|12,3:2|0:2,0:0:0:0:
14,168,138682,1,8,0:2:0:0:
88,275,138840,1,8,0:2:0:0:
112,276,138919,1,8,0:2:0:0:
136,277,138998,1,0,3:2:0:0:
159,278,139076,1,8,0:0:0:0:
182,279,139155,2,0,L|227:282,1,40,0|8,0:0|0:3,0:0:0:0:
310,338,139313,5,8,0:2:0:0:
310,338,139392,1,8,0:2:0:0:
310,338,139471,2,0,L|312:408,1,40,0|8,3:2|3:2,0:0:0:0:
396,271,139629,1,8,0:2:0:0:
396,271,139708,1,8,0:2:0:0:
396,271,139787,2,0,L|394:341,1,40,8|8,0:2|0:2,0:0:0:0:
318,166,139945,6,0,B|352:180|352:180|440:160,2,120,2|2|2,3:2|3:2|3:2,0:0:0:0:
231,87,140576,6,0,L|219:-10,1,88.000002685547,12|0,0:0|3:2,0:0:0:0:
318,166,140892,1,0,3:2:0:0:
125,115,141050,2,0,L|113:18,1,88.000002685547,8|0,0:0|3:2,0:0:0:0:
212,194,141366,1,0,3:2:0:0:
26,146,141524,2,0,L|14:49,1,88.000002685547,8|0,0:0|3:2,0:0:0:0:
0,260,141840,6,0,P|42:247|88:250,1,88.000002685547,8|0,0:0|3:2,0:0:0:0:
111,268,142076,1,0,3:2:0:0:
111,268,142155,1,8,0:0:0:0:
198,341,142313,2,0,L|205:387,2,44.0000013427735,0|0|8,3:2|3:2|0:0,0:0:0:0:
297,258,142629,1,0,3:2:0:0:
297,258,142708,1,0,3:2:0:0:
297,258,142787,2,0,L|399:248,1,88.000002685547,8|0,0:0|3:2,0:0:0:0:
419,247,143024,1,0,3:2:0:0:
419,247,143103,6,0,P|433:208|436:151,1,88.000002685547,4|0,3:2|0:0,0:0:0:0:
380,36,143419,1,8,3:2:0:0:
371,37,143498,1,8,0:0:0:0:
362,38,143576,1,8,0:0:0:0:
353,39,143655,1,8,0:0:0:0:
344,40,143734,2,0,B|333:17|333:17|334:-4,3,44.0000013427735,8|8|8|8,3:2|0:0|0:0|0:0,0:0:0:0:
292,107,144050,2,0,B|303:130|303:130|302:151,3,44.0000013427735,8|8|8|8,3:2|0:0|0:0|0:0,0:0:0:0:
240,220,144366,5,12,0:2:0:0:
208,94,144524,1,0,3:0:0:0:
213,242,144682,1,0,3:0:0:0:
118,127,144840,5,12,0:2:0:0:
302,148,144998,1,0,3:0:0:0:
120,217,145155,5,8,0:2:0:0:
208,94,145313,1,8,0:2:0:0:
216,268,145471,1,8,0:2:0:0:
302,148,145629,6,0,P|319:144|345:143,2,44.0000013427735,8|8|0,0:0|0:0|3:0,0:0:0:0:
211,183,145945,2,0,P|173:175|108:171,1,88.000002685547,8|2,0:0|0:0,0:0:0:0:
87,59,146261,1,10,3:2:0:0:
88,50,146340,1,8,0:0:0:0:
89,41,146419,1,10,0:0:0:0:
90,32,146498,1,8,0:0:0:0:
91,23,146576,1,10,0:0:0:0:
92,14,146655,1,8,0:0:0:0:
93,5,146734,6,0,P|139:56|113:184,1,191.999994140625,6|2,3:1|1:0,0:0:0:0:
11,283,147208,2,0,B|43:267|43:267|151:287,1,143.999995605469,10|0,0:0|0:0,0:0:0:0:
176,293,147524,1,2,3:0:0:0:
279,235,147681,1,2,1:0:0:0:
216,378,147839,1,10,0:0:0:0:
195,209,147997,1,2,1:0:0:0:
330,376,148155,6,0,B|412:369|412:369|431:347|431:347|513:339,1,191.999994140625,2|10,3:0|0:0,0:0:0:0:
367,193,148629,2,0,L|359:293,1,95.9999970703126,2|0,1:0|3:0,0:0:0:0:
512,226,148945,2,0,L|504:126,1,95.9999970703126,2|8,1:0|0:0,0:0:0:0:
381,10,149261,6,0,B|277:9|323:87|209:73,1,191.999994140625,6|2,3:2|1:0,0:0:0:0:
70,31,149734,2,0,B|91:1|91:1|127:42|101:118,1,143.999995605469,10|0,0:0|0:0,0:0:0:0:
94,131,150050,1,2,3:0:0:0:
0,89,150208,1,2,1:0:0:0:
175,148,150366,1,10,0:0:0:0:
36,206,150524,1,2,1:0:0:0:
219,276,150682,6,0,L|416:265,1,191.999994140625,2|10,3:0|0:0,0:0:0:0:
512,375,151155,2,0,L|416:369,1,95.9999970703126,2|0,1:0|3:0,0:0:0:0:
337,234,151471,1,2,1:0:0:0:
479,296,151629,1,10,0:0:0:0:
297,366,151787,6,0,B|316:327|316:327|276:182,1,191.999994140625,6|0,3:2|1:0,0:0:0:0:
195,60,152261,2,0,P|151:50|98:61,1,95.9999970703126,8|0,0:0|1:0,0:0:0:0:
136,234,152576,2,0,L|145:138,1,95.9999970703126,2|0,3:0|1:0,0:0:0:0:
280,95,152892,2,0,L|271:-1,1,95.9999970703126,10|0,0:0|1:0,0:0:0:0:
439,14,153208,6,0,P|421:92|411:162,1,143.999995605469,2|0,3:0|0:0,0:0:0:0:
414,181,153524,1,10,0:0:0:0:
504,321,153682,2,0,P|513:271|501:224,1,95.9999970703126,2|0,1:0|3:0,0:0:0:0:
411,155,153997,1,2,1:0:0:0:
370,335,154155,1,10,0:0:0:0:
265,174,154313,6,0,P|188:207|207:309,1,191.999994140625,6|0,3:2|0:0,0:0:0:0:
227,324,154708,1,0,3:2:0:0:
227,324,154787,1,10,0:0:0:0:
167,175,154945,1,2,0:0:0:0:
59,290,155103,2,0,P|48:337|43:387,1,95.9999970703126,2|8,3:2|0:0,0:0:0:0:
159,194,155418,1,10,0:0:0:0:
32,94,155576,2,0,L|128:85,1,95.9999970703126,6|0,3:2|0:0,0:0:0:0:
297,145,155892,1,2,3:2:0:0:
153,212,156050,1,10,0:0:0:0:
221,65,156208,1,2,0:0:0:0:
259,230,156366,5,10,3:2:0:0:
127,85,156524,1,8,0:0:0:0:
127,85,156839,6,0,B|160:133|160:133|135:265,1,191.999994140625,6|2,3:1|1:0,0:0:0:0:
27,366,157313,2,0,B|86:361|86:361|101:373|101:373|167:367,1,143.999995605469,10|0,0:0|0:0,0:0:0:0:
200,363,157629,1,2,3:0:0:0:
107,256,157786,1,2,1:0:0:0:
251,255,157944,1,10,0:0:0:0:
78,249,158102,1,2,1:0:0:0:
293,170,158261,6,0,P|283:259|278:373,1,191.999994140625,2|10,3:0|0:0,0:0:0:0:
479,362,158734,2,0,P|470:311|455:259,1,95.9999970703126,2|0,1:0|3:0,0:0:0:0:
389,171,159050,2,0,P|376:217|368:264,1,95.9999970703126,2|8,1:0|0:0,0:0:0:0:
474,94,159366,6,0,B|361:87|414:149|293:142,1,191.999994140625,6|2,3:2|1:0,0:0:0:0:
162,13,159839,2,0,P|220:36|188:107,1,143.999995605469,10|0,0:0|0:0,0:0:0:0:
176,99,160155,1,2,3:0:0:0:
249,0,160313,1,2,1:0:0:0:
294,142,160471,1,10,0:0:0:0:
162,13,160629,1,2,1:0:0:0:
92,175,160787,5,10,0:0:0:0:
90,195,160866,1,8,0:0:0:0:
88,215,160945,1,0,3:0:0:0:
86,235,161024,1,0,3:0:0:0:
84,255,161103,1,10,0:0:0:0:
3,316,161261,2,0,B|46:296|46:296|144:321,1,143.999995605469,2|0,3:0|0:0,0:0:0:0:
173,297,161576,2,0,B|216:317|216:317|314:292,1,143.999995605469,2|0,3:0|0:0,0:0:0:0:
367,344,161892,6,0,P|338:280|404:188,1,191.999994140625,6|0,3:2|3:2,0:0:0:0:
435,177,162287,1,0,3:0:0:0:
435,177,162366,2,0,P|443:128|442:79,1,95.9999970703126,8|0,0:0|3:2,0:0:0:0:
291,142,162682,2,0,P|283:93|284:44,1,95.9999970703126,10|0,0:0|3:2,0:0:0:0:
294,19,162918,1,0,3:2:0:0:
294,19,162997,1,10,0:0:0:0:
183,188,163155,5,0,3:2:0:0:
183,188,163234,1,0,3:2:0:0:
183,188,163314,2,0,P|183:139|173:91,1,95.9999970703126,10|0,0:0|3:2,0:0:0:0:
159,68,163550,1,0,3:2:0:0:
159,68,163629,1,10,0:0:0:0:
13,17,163787,1,2,3:2:0:0:
13,17,163866,1,0,3:2:0:0:
13,17,163945,2,0,P|33:70|36:121,1,95.9999970703126,10|0,0:0|3:2,0:0:0:0:
38,143,164181,1,0,3:2:0:0:
38,143,164261,1,10,0:0:0:0:
112,272,164418,6,0,P|198:263|307:255,1,191.999994140625,6|0,3:2|3:2,0:0:0:0:
325,264,164813,1,0,3:2:0:0:
325,264,164892,1,8,0:0:0:0:
325,264,165208,1,8,3:2:0:0:
401,159,165366,2,0,L|408:216,1,47.9999985351563,8|8,0:0|0:0,0:0:0:0:
469,360,165524,5,8,0:0:0:0:
469,360,165603,1,8,0:0:0:0:
469,360,165682,2,0,P|383:351|274:343,1,191.999994140625,4|8,3:2|0:0,0:0:0:0:
180,227,166155,1,8,0:0:0:0:
325,264,166313,1,8,0:0:0:0:
136,331,166471,1,2,3:0:0:0:
272,173,166629,1,8,0:0:0:0:
280,145,166708,1,8,0:0:0:0:
275,116,166787,1,8,0:0:0:0:
256,93,166866,1,8,0:0:0:0:
229,82,166945,6,0,L|129:94,1,95.9999970703126,6|0,3:1|0:0,0:0:0:0:
320,15,167261,1,2,0:0:0:0:
280,145,167419,1,10,0:2:0:0:
299,0,167576,1,2,0:0:0:0:
385,125,167734,2,0,L|485:137,2,95.9999970703126,2|2|10,3:2|0:0|0:2,0:0:0:0:
207,184,168208,6,0,B|244:230|244:230|229:364,1,191.999994140625,2|2,0:0|0:0,0:0:0:0:
163,251,168682,1,10,0:2:0:0:
307,336,168840,1,2,0:0:0:0:
128,274,168998,2,0,P|123:231|113:174,1,95.9999970703126,2|2,3:2|0:0,0:0:0:0:
209,103,169313,1,10,0:2:0:0:
41,94,169471,6,0,B|123:91|123:91|140:80|140:80|230:77,1,191.999994140625,6|2,3:2|0:0,0:0:0:0:
385,155,169945,2,0,L|283:149,1,95.9999970703126,8|2,0:2|0:0,0:0:0:0:
441,50,170261,1,0,3:2:0:0:
487,159,170419,1,2,0:0:0:0:
461,35,170576,1,8,0:2:0:0:
399,174,170734,1,2,0:0:0:0:
360,28,170892,6,0,B|290:31|313:79|229:77,1,143.999995605469,0|0,3:2|0:0,0:0:0:0:
207,58,171208,2,0,P|167:44|111:40,1,95.9999970703126,10|2,0:2|0:0,0:0:0:0:
25,120,171524,1,0,3:2:0:0:
164,186,171682,1,10,0:2:0:0:
158,214,171761,1,8,0:2:0:0:
152,242,171840,1,8,0:2:0:0:
146,270,171919,1,8,0:2:0:0:
140,298,171998,6,0,B|108:274|108:274|261:288,1,191.999994140625,6|2,3:2|0:0,0:0:0:0:
347,337,172471,1,10,0:2:0:0:
219,369,172629,1,2,0:0:0:0:
381,262,172787,2,0,P|369:313|364:358,1,95.9999970703126,2|2,3:2|0:0,0:0:0:0:
287,201,173103,1,10,0:2:0:0:
466,129,173261,6,0,P|481:195|501:324,1,191.999994140625,2|2,0:0|0:0,0:0:0:0:
343,136,173734,1,10,0:2:0:0:
291,277,173892,1,2,0:0:0:0:
227,105,174050,2,0,P|186:94|132:90,1,95.9999970703126,2|2,3:2|0:0,0:0:0:0:
302,42,174366,1,10,0:2:0:0:
90,23,174524,6,0,L|112:241,1,191.999994140625,6|2,3:2|3:2,0:0:0:0:
90,264,174919,1,0,3:2:0:0:
90,264,174998,2,0,B|108:254|108:254|185:265,1,95.9999970703126,10|2,0:0|0:0,0:0:0:0:
275,364,175313,1,10,3:2:0:0:
391,234,175471,1,10,0:0:0:0:
394,262,175550,1,8,0:0:0:0:
398,291,175629,1,10,0:0:0:0:
401,320,175708,1,8,0:0:0:0:
405,349,175787,6,0,L|422:150,1,191.999994140625,6|2,3:2|3:2,0:0:0:0:
426,127,176182,1,0,3:2:0:0:
426,127,176261,2,0,P|382:107|335:105,1,95.9999970703126,10|0,0:0|0:0,0:0:0:0:
249,221,176576,5,10,3:2:0:0:
164,36,176734,1,10,3:2:0:0:
164,36,177050,6,0,P|188:84|119:123,1,128,6|0,3:2|0:0,0:0:0:0:
56,75,177524,1,2,0:0:0:0:
263,17,177840,1,10,0:0:0:0:
263,17,178155,6,0,L|271:84,1,64,2|10,0:0|0:0,0:0:0:0:
333,145,178471,2,0,L|317:275,1,128,2|2,3:2|0:0,0:0:0:0:
260,336,178945,1,2,3:2:0:0:
425,234,179261,1,2,0:0:0:0:
425,234,179576,6,0,L|438:316,1,64,6|0,3:2|0:0,0:0:0:0:
345,198,179892,1,2,0:0:0:0:
317,272,180050,1,2,3:2:0:0:
263,215,180208,1,2,0:0:0:0:
231,288,180366,2,0,P|192:282|95:278,1,128,10|2,0:0|3:2,0:0:0:0:
25,195,180840,2,0,P|59:189|92:185,1,64,2|0,0:0|3:2,0:0:0:0:
215,123,181155,2,0,P|181:117|148:113,1,64,10|8,0:0|0:0,0:0:0:0:
63,37,181471,6,0,L|70:83,1,40,2|0,3:2|0:0,0:0:0:0:
221,83,181787,2,0,L|214:129,1,40,2|0,3:2|0:0,0:0:0:0:
349,18,182103,6,0,B|378:59|378:59|357:179,1,160,6|0,3:2|3:2,0:0:0:0:
193,209,182576,2,0,P|233:202|284:211,1,80,10|0,0:0|3:2,0:0:0:0:
297,225,182813,1,0,3:2:0:0:
297,225,182892,1,10,0:0:0:0:
242,364,183050,1,0,3:2:0:0:
242,364,183129,1,0,3:2:0:0:
242,364,183208,2,0,L|233:276,1,80,10|0,0:0|3:2,0:0:0:0:
98,229,183524,6,0,L|107:141,1,80,10|0,0:0|3:2,0:0:0:0:
113,124,183761,1,0,3:2:0:0:
113,124,183840,1,10,0:0:0:0:
241,51,183998,1,2,3:2:0:0:
241,51,184076,1,0,3:2:0:0:
241,51,184155,2,0,P|199:62|160:60,1,80,8|2,0:0|3:2,0:0:0:0:
141,50,184392,1,0,3:2:0:0:
141,50,184471,1,10,0:0:0:0:
350,0,184629,6,0,B|322:37|322:37|354:173,1,176.000005371094,6|2,3:2|3:2,0:0:0:0:
501,243,185103,2,0,P|463:233|414:238,1,88.000002685547,10|2,0:0|0:0,0:0:0:0:
277,320,185419,1,10,3:2:0:0:
351,163,185576,2,0,L|356:110,2,44.0000013427735,10|8|10,0:0|0:0|3:2,0:0:0:0:
399,350,185892,5,10,0:0:0:0:
399,350,185971,1,8,0:0:0:0:
399,350,186050,2,0,P|442:342|498:341,1,88.000002685547,8|8,3:2|0:0,0:0:0:0:
267,236,186366,1,8,0:0:0:0:
414,237,186524,1,8,0:0:0:0:
248,336,186682,1,8,0:0:0:0:
376,157,186840,1,8,0:0:0:0:
380,122,186919,1,8,0:0:0:0:
384,87,186998,1,8,0:0:0:0:
389,52,187076,1,8,0:0:0:0:
394,17,187155,5,6,3:2:0:0:
256,192,192221,5,6,3:2:0:0:
256,192,192693,2,0,P|267:221|276:244,2,47.9999985351563,0|2|2,1:0|1:0|1:0,0:0:0:0:
197,125,193641,2,0,P|208:96|217:73,2,47.9999985351563,2|2|0,1:0|1:0|1:0,0:0:0:0:
144,202,194588,1,2,0:0:0:0:
81,146,194746,6,0,P|103:213|115:304,1,160,6|2,3:2|3:2,0:0:0:0:
232,338,195220,2,0,P|233:293|244:238,1,80,10|2,0:0|0:0,0:0:0:0:
274,151,195535,1,8,3:2:0:0:
379,197,195693,1,8,0:2:0:0:
384,232,195772,1,8,0:2:0:0:
389,267,195851,1,10,0:2:0:0:
395,302,195930,1,8,0:2:0:0:
401,337,196009,6,0,P|407:264|435:146,1,191.999994140625,6|2,3:2|3:2,0:0:0:0:
261,23,196483,2,0,P|281:81|292:126,1,95.9999970703126,10|2,0:0|0:0,0:0:0:0:
144,202,196799,1,10,0:0:0:0:
227,55,196956,1,8,0:0:0:0:
329,200,197114,1,8,0:0:0:0:
435,6,197272,5,8,0:0:0:0:
435,6,197904,5,2,0:0:0:0:
371,55,198062,2,0,L|361:102,2,40,2|2|2,0:0|0:0|0:0,0:0:0:0:
286,21,198535,6,0,B|201:23|225:86|111:85,1,191.999994140625,6|2,3:1|1:0,0:0:0:0:
12,213,199009,2,0,B|29:176|29:176|7:63,1,143.999995605469,10|0,0:0|0:0,0:0:0:0:
2,42,199325,1,2,3:0:0:0:
143,0,199482,1,2,1:0:0:0:
0,21,199640,1,10,0:0:0:0:
140,87,199798,1,2,1:0:0:0:
12,213,199956,6,0,B|84:212|84:212|119:228|119:228|202:225,1,191.999994140625,2|10,3:0|0:0,0:0:0:0:
288,322,200430,2,0,L|189:317,1,95.9999970703126,2|0,1:0|3:0,0:0:0:0:
286,181,200746,2,0,L|385:176,1,95.9999970703126,2|8,1:0|0:0,0:0:0:0:
479,341,201062,6,0,B|449:297|449:297|480:154,1,191.999994140625,6|2,3:2|1:0,0:0:0:0:
493,5,201535,2,0,P|443:52|370:45,1,143.999995605469,10|0,0:0|0:0,0:0:0:0:
351,20,201851,1,2,3:0:0:0:
332,147,202009,1,2,1:0:0:0:
262,37,202167,1,10,0:0:0:0:
354,166,202325,1,2,1:0:0:0:
175,117,202483,6,0,B|65:120|110:184|0:184,1,191.999994140625,2|10,3:0|0:0,0:0:0:0:
0,2,202956,2,0,P|14:49|24:108,1,95.9999970703126,2|0,1:0|3:0,0:0:0:0:
152,214,203272,1,2,1:0:0:0:
101,89,203430,1,10,0:0:0:0:
22,290,203588,6,0,P|50:349|161:335,1,191.999994140625,6|0,3:2|1:0,0:0:0:0:
258,189,204062,2,0,L|253:285,1,95.9999970703126,8|0,0:0|1:0,0:0:0:0:
354,116,204378,2,0,L|359:212,1,95.9999970703126,2|0,3:0|1:0,0:0:0:0:
178,90,204693,2,0,L|173:186,1,95.9999970703126,10|0,0:0|1:0,0:0:0:0:
370,35,205009,6,0,L|377:177,1,143.999995605469,2|0,3:0|0:0,0:0:0:0:
379,208,205325,1,10,0:0:0:0:
512,316,205483,2,0,P|471:296|409:295,1,95.9999970703126,2|0,1:0|3:0,0:0:0:0:
361,365,205798,1,2,1:0:0:0:
506,285,205956,1,10,0:0:0:0:
278,252,206114,6,0,B|297:283|297:283|275:116,1,191.999994140625,6|2,3:2|3:2,0:0:0:0:
274,103,206509,1,0,3:2:0:0:
274,103,206588,1,10,0:0:0:0:
199,211,206746,1,2,0:0:0:0:
72,61,206904,2,0,P|83:106|92:158,1,95.9999970703126,2|8,3:2|0:0,0:0:0:0:
32,235,207219,1,10,0:0:0:0:
197,30,207378,2,0,P|186:75|177:127,1,95.9999970703126,6|0,3:2|0:0,0:0:0:0:
199,211,207693,1,2,3:2:0:0:
91,154,207851,1,10,0:0:0:0:
274,103,208009,1,2,0:0:0:0:
113,239,208167,5,10,3:2:0:0:
315,311,208325,1,8,0:0:0:0:
315,311,208640,6,0,B|345:330|345:330|173:331,1,191.999994140625,6|2,3:1|1:0,0:0:0:0:
0,248,209114,2,0,P|70:226|110:279,1,143.999995605469,10|0,0:0|0:0,0:0:0:0:
96,301,209430,1,2,3:0:0:0:
111,160,209587,1,2,1:0:0:0:
78,311,209745,1,10,0:0:0:0:
196,223,209903,1,2,1:0:0:0:
38,107,210062,6,0,P|130:116|242:122,1,191.999994140625,2|10,3:0|0:0,0:0:0:0:
328,19,210535,2,0,P|282:20|230:26,1,95.9999970703126,2|0,1:0|3:0,0:0:0:0:
307,174,210851,2,0,P|352:180|404:183,1,95.9999970703126,2|8,1:0|0:0,0:0:0:0:
476,42,211167,6,0,B|471:124|471:124|486:141|486:141|480:230,1,191.999994140625,6|2,3:2|1:0,0:0:0:0:
508,376,211641,2,0,P|460:341|361:334,1,143.999995605469,10|0,0:0|0:0,0:0:0:0:
352,348,211956,1,2,3:0:0:0:
226,305,212114,1,2,1:0:0:0:
383,241,212272,1,10,0:0:0:0:
269,374,212430,1,2,1:0:0:0:
288,209,212588,5,10,0:0:0:0:
286,189,212667,1,8,0:0:0:0:
284,169,212746,1,0,3:0:0:0:
282,149,212825,1,0,3:0:0:0:
280,129,212904,1,10,0:0:0:0:
251,22,213062,2,0,L|240:168,1,143.999995605469,2|0,3:0|0:0,0:0:0:0:
209,266,213378,2,0,L|198:120,1,143.999995605469,2|0,3:0|0:0,0:0:0:0:
71,35,213693,6,0,B|108:59|108:59|271:18,1,191.999994140625,6|0,3:2|3:2,0:0:0:0:
392,66,214167,2,0,P|410:112|412:172,1,95.9999970703126,8|0,0:0|3:2,0:0:0:0:
268,188,214483,2,0,P|250:234|248:294,1,95.9999970703126,10|0,0:0|3:2,0:0:0:0:
264,310,214719,1,0,3:2:0:0:
264,310,214798,1,10,0:0:0:0:
460,240,214956,5,0,3:2:0:0:
460,240,215035,1,0,3:2:0:0:
460,240,215114,2,0,P|410:242|359:248,1,95.9999970703126,10|0,0:0|3:2,0:0:0:0:
345,254,215351,1,0,3:2:0:0:
345,254,215430,1,10,0:0:0:0:
207,376,215588,2,0,P|257:378|308:384,1,95.9999970703126,2|8,3:2|0:0,0:0:0:0:
248,204,215904,2,0,P|198:206|147:212,1,95.9999970703126,2|8,3:2|0:0,0:0:0:0:
125,201,216140,1,0,0:0:0:0:
125,201,216219,6,0,B|100:158|100:158|117:63,1,143.999995605469,6|0,3:2|3:2,0:0:0:0:
138,41,216535,1,2,3:2:0:0:
40,0,216693,1,10,0:0:0:0:
237,32,216851,1,2,0:0:0:0:
76,131,217009,6,0,P|36:166|16:234,1,95.9999970703126,10|0,3:2|0:0,0:0:0:0:
0,226,217246,2,0,P|11:278|60:329,1,95.9999970703126,10|0,3:2|0:0,0:0:0:0:
68,322,217482,1,10,3:2:0:0:
202,234,217641,6,0,P|252:216|321:233,1,95.9999970703126,10|0,3:2|0:0,0:0:0:0:
322,215,217878,2,0,P|361:250|381:318,1,95.9999970703126,10|0,3:2|0:0,0:0:0:0:
371,322,218114,2,0,L|272:328,1,95.9999970703126,10|0,3:2|0:0,0:0:0:0:
171,211,218430,5,10,0:0:0:0:
177,173,218509,1,8,0:0:0:0:
183,135,218588,1,10,0:0:0:0:
189,97,218667,1,8,0:0:0:0:
195,59,218746,1,6,3:2:0:0:
195,59,220956,5,2,3:0:0:0:
297,8,221114,1,10,0:0:0:0:
168,84,221272,2,0,L|64:90,1,95.9999970703126,14|0,0:0|0:0,0:0:0:0:
297,110,221588,5,2,3:0:0:0:
195,59,221746,1,10,0:0:0:0:
324,135,221904,2,0,L|428:141,1,95.9999970703126,14|0,0:0|0:0,0:0:0:0:
222,186,222220,5,2,3:0:0:0:
324,135,222378,1,10,0:0:0:0:
195,211,222536,2,0,L|91:217,1,95.9999970703126,14|0,0:0|0:0,0:0:0:0:
324,237,222851,5,2,3:0:0:0:
222,186,223009,1,10,0:0:0:0:
351,262,223167,1,10,0:0:0:0:
324,135,223325,1,2,3:0:0:0:
249,294,223483,5,10,0:0:0:0:
230,98,223641,1,10,0:0:0:0:
404,190,223799,1,14,0:0:0:0:
