osu file format v14

[General]
AudioFilename: audio.mp3
AudioLeadIn: 0
PreviewTime: 110043
Countdown: 0
SampleSet: Soft
StackLeniency: 0.3
Mode: 0
LetterboxInBreaks: 0
EpilepsyWarning: 1
WidescreenStoryboard: 1

[Editor]
Bookmarks: 47601,65752,88945,100038,139370,142396
DistanceSpacing: 1.2
BeatDivisor: 4
GridSize: 4
TimelineZoom: 1

[Metadata]
Title:What Child Is This? (Speed Up Ver.)
TitleUnicode:What Child Is This? (Speed Up Ver.)
Artist:Jewel
ArtistUnicode:Jewel
Creator:Jonawaga
Version:Marianna's Blessing
Source:
Tags:Marianna Greensleeves cover trust fund baby countdown to happy everyone Kilcher Let It Snow: A Holiday Collection jesus christmas hymm KoyomicNC Mary carol
BeatmapID:1147329
BeatmapSetID:534016

[Difficulty]
HPDrainRate:4
CircleSize:3.5
OverallDifficulty:5
ApproachRate:6
SliderMultiplier:1.3
SliderTickRate:1

[Events]
//Background and Video events
0,0,"Konachan.com%20-%20191506%20sample copy.png",0,0
//Break Periods
2,92170,98838
2,139565,141341
//Storyboard Layer 0 (Background)
//Storyboard Layer 1 (Fail)
//Storyboard Layer 2 (Pass)
//Storyboard Layer 3 (Foreground)
//Storyboard Sound Samples

[TimingPoints]
7265,336.134453781513,3,2,1,40,1,0
7265,-142.857142857143,3,2,1,40,0,0
35500,-142.857142857143,3,2,1,60,0,0
56676,-117.647058823529,3,2,1,60,0,0
57685,-100,3,2,1,70,0,1
65584,-100,3,2,1,70,0,0
65752,-100,3,2,1,70,0,1
73819,-100,3,2,1,70,0,0
81886,-100,3,2,1,60,0,0
85920,-100,3,2,1,40,0,0
106088,-100,3,2,1,60,0,0
110122,-100,3,2,1,70,0,1
118021,-100,3,2,1,70,0,0
118189,-100,3,2,1,70,0,1
122222,-100,3,2,1,75,0,1
124071,-100,3,2,1,75,0,0
124239,-100,3,2,1,80,0,1
132138,-100,3,2,1,80,0,0
132307,-100,3,2,1,80,0,1
137349,-100,3,2,1,40,0,1
139365,-100,3,2,1,40,0,0
147432,400,3,2,1,40,1,0
148632,422.535211267606,3,2,1,40,1,0
149899,454.545454545455,3,2,1,40,1,0
154444,-100,3,2,1,5,0,0

[Colours]
Combo1 : 140,169,241
Combo2 : 44,123,189
Combo3 : 240,210,80

[HitObjects]
72,96,7265,6,0,P|116:108|164:104,1,90.9999972229005,2|0,0:0|0:0,0:0:0:0:
256,52,7937,2,0,P|300:40|348:44,1,90.9999972229005,0|0,0:0|0:0,0:0:0:0:
444,92,8609,1,0,0:0:0:0:
384,300,9281,6,0,P|336:292|300:260,1,90.9999972229005,0|0,0:0|0:0,0:0:0:0:
224,192,9954,2,0,P|176:200|140:232,1,90.9999972229005,0|0,0:0|0:0,0:0:0:0:
76,312,10626,1,0,0:0:0:0:
32,212,10962,1,0,0:0:0:0:
212,272,11298,6,0,P|264:260|292:144,1,181.999994445801,2|0,0:0|0:0,0:0:0:0:
212,76,12307,2,0,P|272:100|384:64,1,181.999994445801,2|0,0:0|0:0,0:0:0:0:
472,12,13315,6,0,P|420:80|416:180,1,181.999994445801,2|0,0:0|0:0,0:0:0:0:
456,276,14323,2,0,P|456:320|432:368,1,90.9999972229005,0|0,0:0|0:0,0:0:0:0:
220,324,15332,6,0,P|204:272|264:160,1,181.999994445801,2|0,0:0|0:0,0:0:0:0:
364,136,16340,2,0,P|296:128|236:76,1,136.499995834351,0|0,0:0|0:0,0:0:0:0:
212,44,17012,1,0,0:0:0:0:
108,76,17349,6,0,L|124:260,1,181.999994445801,2|0,0:0|0:0,0:0:0:0:
200,336,18357,2,0,P|236:308|288:300,2,90.9999972229005,0|0|0,0:0|0:0|0:0,0:0:0:0:
336,352,19365,6,0,P|356:296|272:220,1,181.999994445801,2|0,0:0|0:0,0:0:0:0:
168,240,20374,2,0,L|76:256,2,90.9999972229005,0|0|0,0:0|0:0|0:0,0:0:0:0:
277,219,21382,6,0,P|305:143|249:51,1,181.999994445801,2|0,0:0|0:0,0:0:0:0:
151,79,22391,2,0,P|123:155|179:247,1,181.999994445801,0|0,0:0|0:0,0:0:0:0:
260,300,23399,6,0,B|368:320|340:268|440:292,1,181.999994445801,2|0,0:0|0:0,0:0:0:0:
508,208,24407,2,0,P|512:144|476:72,1,136.499995834351,0|0,0:0|0:0,0:0:0:0:
432,56,25080,1,0,0:0:0:0:
308,116,25416,6,0,P|220:136|136:96,1,181.999994445801,2|0,0:0|0:0,0:0:0:0:
44,44,26424,2,0,P|32:88|40:136,2,90.9999972229005,0|0|0,0:0|0:0|0:0,0:0:0:0:
140,100,27433,6,0,P|152:144|144:192,1,90.9999972229005,2|0,0:0|0:0,0:0:0:0:
48,240,28105,1,0,0:0:0:0:
76,52,28441,2,0,P|124:24|164:24,1,90.9999972229005,0|0,0:0|0:0,0:0:0:0:
256,76,29113,1,0,0:0:0:0:
240,243,29449,6,0,P|136:239|141:98,2,272.999991668701,2|0|2,0:0|0:0|0:0,0:0:0:0:
336,192,31802,6,0,P|380:180|424:192,1,90.9999972229005,0|0,0:0|0:0,0:0:0:0:
464,292,32475,2,0,L|432:108,1,181.999994445801,0|0,0:0|0:0,0:0:0:0:
368,24,33483,6,0,P|328:44|300:84,1,90.9999972229005,2|0,0:0|0:0,0:0:0:0:
256,180,34155,1,0,0:0:0:0:
210,80,34491,2,0,P|184:44|144:24,1,90.9999972229005,2|0,0:0|0:0,0:0:0:0:
79,112,35164,1,0,0:0:0:0:
172,268,35500,6,0,P|256:300|340:268,1,181.999994445801,2|0,0:0|0:0,0:0:0:0:
340,160,36508,2,0,P|256:129|200:144,1,136.499995834351,2|0,0:0|0:0,0:0:0:0:
164,168,37180,1,0,0:0:0:0:
108,264,37517,6,0,L|148:80,1,181.999994445801,2|0,0:0|0:0,0:0:0:0:
244,40,38525,2,0,P|288:48|344:36,2,90.9999972229005,2|0|0,0:0|0:0|0:0,0:0:0:0:
146,86,39533,6,0,B|162:130|138:174|138:174|114:214|134:266,1,181.999994445801,2|0,0:0|0:0,0:0:0:0:
200,347,40542,2,0,P|244:339|288:349,1,90.9999972229005,2|0,0:0|0:0,0:0:0:0:
373,280,41214,1,0,0:0:0:0:
439,366,41550,6,0,P|402:285|439:205,1,181.999994445801,2|0,0:0|0:0,0:0:0:0:
289,113,42559,2,0,P|325:190|280:280,1,181.999994445801,2|0,0:0|0:0,0:0:0:0:
216,192,43567,6,0,L|124:200,1,90.9999972229005,2|0,0:0|0:0,0:0:0:0:
32,144,44239,1,0,0:0:0:0:
120,40,44575,2,0,L|260:44,1,136.499995834351,2|0,0:0|0:0,0:0:0:0:
308,64,45248,1,0,0:0:0:0:
236,148,45584,6,0,P|224:192|232:236,1,90.9999972229005,2|0,0:0|0:0,0:0:0:0:
304,316,46256,1,0,0:0:0:0:
168,332,46592,2,0,L|76:320,2,90.9999972229005,2|0|0,0:0|0:0|0:0,0:0:0:0:
304,316,47601,6,0,L|488:332,1,181.999994445801,2|0,0:0|0:0,0:0:0:0:
448,204,48609,2,0,P|412:204|360:232,1,90.9999972229005,2|0,0:0|0:0,0:0:0:0:
304,316,49281,1,0,0:0:0:0:
220,176,49617,6,0,L|232:76,2,90.9999972229005,2|0|0,0:0|0:0|0:0,0:0:0:0:
160,268,50626,1,2,0:0:0:0:
108,172,50962,1,0,0:0:0:0:
220,176,51298,1,0,0:0:0:0:
148,292,51634,6,0,L|52:280,2,90.9999972229005,2|0|0,0:0|0:0|0:0,0:0:0:0:
256,268,52643,2,0,L|356:280,1,90.9999972229005,2|0,0:0|0:0,0:0:0:0:
448,240,53315,1,0,0:0:0:0:
368,128,53651,6,0,P|360:84|372:40,2,90.9999972229005,2|0|0,0:0|0:0|0:0,0:0:0:0:
472,88,54659,1,2,0:0:0:0:
448,196,54996,2,0,L|456:292,1,90.9999972229005,0|0,0:0|0:0,0:0:0:0:
328,336,55668,6,0,L|336:240,1,90.9999972229005,2|0,0:0|0:0,0:0:0:0:
288,148,56340,1,0,0:0:0:0:
188,244,56676,2,0,P|152:248|128:244,1,55.2500010538101,2|0,0:0|0:0,0:0:0:0:
92,228,57012,2,0,P|75:195|71:171,1,55.2500010538101,0|0,0:0|0:0,0:0:0:0:
68,132,57349,2,0,P|76:96|88:75,1,55.2500010538101,0|0,0:0|0:0,0:0:0:0:
136,36,57685,6,0,L|276:40,2,130,6|0|0,0:0|0:0|0:0,0:0:0:0:
192,181,58693,2,0,P|238:224|301:220,1,130
344,152,59197,1,0,0:0:0:0:
264,149,59365,1,0,0:0:0:0:
368,261,59701,6,0,P|373:324|329:371,1,130
298,299,60205,1,0,0:0:0:0:
301,219,60373,1,0,0:0:0:0:
444,152,60710,2,0,L|436:88,1,65,2|0,0:0|0:0,0:0:0:0:
444,8,61046,2,0,P|400:16|380:32,1,65,0|0,0:0|0:0,0:0:0:0:
356,100,61382,1,0,0:0:0:0:
204,60,61718,6,0,L|128:52,1,65,2|0,0:0|0:0,0:0:0:0:
62,63,62054,2,0,B|62:99|94:119|94:119|70:195,1,130
148,320,62727,1,2,0:0:0:0:
212,276,62895,1,0,0:0:0:0:
280,312,63063,2,0,L|420:300,1,130,0|0,0:0|0:0,0:0:0:0:
356,156,63735,6,0,P|344:128|344:92,1,65,2|0,0:0|0:0,0:0:0:0:
420,112,64071,1,0,0:0:0:0:
308,220,64407,1,0,0:0:0:0:
200,108,64743,2,0,L|136:104,1,65,2|0,0:0|0:0,0:0:0:0:
72,60,65080,2,0,P|60:112|104:176,1,130,0|0,0:0|0:0,0:0:0:0:
308,220,65752,6,0,L|376:216,1,65,2|0,0:0|0:0,0:0:0:0:
424,156,66088,2,0,P|408:216|432:280,1,130,0|0,0:0|0:0,0:0:0:0:
284,336,66760,2,0,L|216:320,1,65,2|0,0:0|0:0,0:0:0:0:
172,260,67096,2,0,L|104:244,1,65,0|0,0:0|0:0,0:0:0:0:
52,192,67433,1,0,0:0:0:0:
184,108,67769,6,0,P|220:104|248:88,1,65,2|0,0:0|0:0,0:0:0:0:
308,44,68105,2,0,L|276:176,1,130,0|0,0:0|0:0,0:0:0:0:
344,312,68777,2,0,L|416:308,1,65,2|0,0:0|0:0,0:0:0:0:
424,232,69113,2,0,L|359:235,1,65,0|0,0:0|0:0,0:0:0:0:
284,260,69449,1,0,0:0:0:0:
144,192,69786,6,0,P|140:160|148:128,1,65,2|0,0:0|0:0,0:0:0:0:
132,52,70122,2,0,B|188:44|216:92|216:92|256:92,1,130,0|0,0:0|0:0,0:0:0:0:
368,192,70794,2,0,L|300:192,1,65,2|0,0:0|0:0,0:0:0:0:
229,219,71130,2,0,L|163:201,1,65
147,128,71466,1,0,0:0:0:0:
292,72,71802,6,0,P|328:76|356:92,1,65,2|0,0:0|0:0,0:0:0:0:
412,144,72138,2,0,P|448:140|476:124,1,65,0|0,0:0|0:0,0:0:0:0:
508,204,72475,2,0,L|500:272,1,65,0|0,0:0|0:0,0:0:0:0:
492,348,72811,5,6,0:0:0:0:
492,348,73819,6,0,P|462:337|430:338,1,65,2|0,0:0|0:0,0:0:0:0:
376,280,74155,2,0,P|312:290|250:273,1,130
280,201,74659,1,0,0:0:0:0:
203,210,74828,2,0,P|169:218|139:211,1,65,2|0,0:0|0:0,0:0:0:0:
171,140,75164,2,0,P|158:80|201:24,1,130
239,96,75668,1,0,0:0:0:0:
312,120,75836,6,0,P|344:124|376:120,1,65,2|0,0:0|0:0,0:0:0:0:
432,64,76172,2,0,P|452:132|424:180,1,130,0|0,0:0|0:0,0:0:0:0:
372,236,76676,1,0,0:0:0:0:
372,236,76844,2,0,P|440:216|488:244,1,130,2|0,0:0|0:0,0:0:0:0:
428,296,77349,1,0,0:0:0:0:
368,344,77517,2,0,L|296:352,1,65,0|0,0:0|0:0,0:0:0:0:
184,248,77853,6,0,L|256:256,1,65,2|0,0:0|0:0,0:0:0:0:
300,196,78189,2,0,P|284:140|316:76,1,130,0|0,0:0|0:0,0:0:0:0:
376,32,78693,1,0,0:0:0:0:
376,32,78861,2,0,L|240:36,1,130,2|0,0:0|0:0,0:0:0:0:
92,44,79533,1,0,0:0:0:0:
200,156,79870,6,0,P|204:192|200:224,1,65,0|0,0:0|0:0,0:0:0:0:
132,256,80206,2,0,P|180:296|244:288,1,130,0|0,0:0|0:0,0:0:0:0:
390,235,80878,2,0,L|458:239,1,65,2|0,0:0|0:0,0:0:0:0:
484,164,81214,2,0,L|419:160,1,65,0|0,0:0|0:0,0:0:0:0:
368,100,81550,1,0,0:0:0:0:
220,144,81886,6,0,P|192:108|208:24,1,130,2|0,0:0|0:0,0:0:0:0:
264,80,82391,1,0,0:0:0:0:
316,20,82559,2,0,L|384:24,1,65,0|0,0:0|0:0,0:0:0:0:
452,116,82895,2,0,L|384:120,1,65,2|0,0:0|0:0,0:0:0:0:
408,196,83231,2,0,L|340:200,1,65,0|0,0:0|0:0,0:0:0:0:
356,276,83567,2,0,L|288:280,1,65,0|0,0:0|0:0,0:0:0:0:
180,316,83903,6,0,P|180:280|168:252,1,65,2|0,0:0|0:0,0:0:0:0:
104,212,84239,2,0,P|104:176|116:148,1,65,0|0,0:0|0:0,0:0:0:0:
180,107,84575,2,0,P|216:107|244:95,1,65
316,144,84912,2,0,L|448:136,1,130,2|0,0:0|0:0,0:0:0:0:
496,284,85584,2,0,P|456:276|432:280,1,65,0|0,0:0|0:0,0:0:0:0:
364,316,85920,6,0,L|300:304,1,65,2|0,0:0|0:0,0:0:0:0:
232,344,86256,2,0,P|220:300|268:232,1,130,0|0,0:0|0:0,0:0:0:0:
360,108,86928,2,0,L|352:40,2,65,2|0|0,0:0|0:0|0:0,0:0:0:0:
388,260,87601,1,0,0:0:0:0:
276,152,87937,6,0,L|208:156,1,65,2|0,0:0|0:0,0:0:0:0:
152,104,88273,2,0,P|132:160|172:224,1,130,0|0,0:0|0:0,0:0:0:0:
256,344,88945,5,6,0:0:0:0:
256,192,89113,12,0,91970,0:0:0:0:
164,172,100038,6,0,L|100:164,2,65,2|0|0,0:0|0:0|0:0,0:0:0:0:
240,184,100542,1,0,0:0:0:0:
192,244,100710,2,0,P|176:280|176:308,1,65,0|0,0:0|0:0,0:0:0:0:
256,296,101046,6,0,L|328:292,1,65,2|0,0:0|0:0,0:0:0:0:
380,344,101382,2,0,P|364:284|400:216,1,130,0|0,0:0|0:0,0:0:0:0:
448,80,102054,6,0,L|444:16,2,65,2|0|0,0:0|0:0|0:0,0:0:0:0:
456,160,102559,1,0,0:0:0:0:
384,128,102727,2,0,L|316:132,1,65,0|0,0:0|0:0,0:0:0:0:
268,72,103063,6,0,P|240:128|272:192,2,130,2|0|0,0:0|0:0|0:0,0:0:0:0:
324,240,104071,6,0,L|192:228,1,130,2|0,0:0|0:0,0:0:0:0:
120,256,104575,1,0,0:0:0:0:
80,188,104743,2,0,L|96:116,1,65,0|0,0:0|0:0,0:0:0:0:
44,64,105080,6,0,P|104:48|164:92,1,130,2|0,0:0|0:0,0:0:0:0:
256,204,105752,1,0,0:0:0:0:
353,82,106088,6,0,P|406:48|468:63,1,130,2|0,0:0|0:0,0:0:0:0:
420,128,106592,1,0,0:0:0:0:
468,192,106760,2,0,L|460:256,1,65,0|0,0:0|0:0,0:0:0:0:
452,332,107096,6,0,P|428:288|356:248,1,130,2|0,0:0|0:0,0:0:0:0:
208,292,107769,1,0,0:0:0:0:
144,248,107937,1,0,0:0:0:0:
84,200,108105,6,0,L|104:68,1,130,2|0,0:0|0:0,0:0:0:0:
172,36,108609,1,0,0:0:0:0:
248,52,108777,2,0,P|280:56|316:52,1,65
388,68,109113,6,0,P|420:64|456:68,1,65,2|0,0:0|0:0,0:0:0:0:
456,144,109449,2,0,P|424:148|388:144,1,65,0|0,0:0|0:0,0:0:0:0:
324,188,109786,1,0,0:0:0:0:
360,260,109954,1,0,0:0:0:0:
296,316,110122,6,0,P|232:328|164:312,1,130,6|0,0:0|0:0,0:0:0:0:
104,272,110626,1,0,0:0:0:0:
144,204,110794,2,0,L|140:128,1,65,0|0,0:0|0:0,0:0:0:0:
80,92,111130,2,0,P|116:68|196:88,1,130,2|0,0:0|0:0,0:0:0:0:
256,136,111634,1,0,0:0:0:0:
316,88,111802,2,0,L|384:92,1,65
432,32,112138,6,8,P|456:84|428:152,1,130,2|0,0:0|0:0,0:0:0:0:
377,205,112643,1,0,0:0:0:0:
322,260,112811,1,0,0:0:0:0:
176,204,113147,2,0,L|44:208,2,130,2|0|0,0:0|0:0|0:0,0:0:0:0:
300,112,114155,6,0,P|332:108|368:116,1,65,2|0,0:0|0:0,0:0:0:0:
416,172,114491,2,0,P|440:128|416:56,1,130,0|0,0:0|0:0,0:0:0:0:
328,188,115164,2,0,P|304:232|328:304,1,130,2|0,0:0|0:0,0:0:0:0:
380,248,115668,1,0,0:0:0:0:
428,308,115836,2,0,P|459:292|491:288,1,65
496,212,116172,6,0,L|488:148,1,65,2|0,0:0|0:0,0:0:0:0:
488,68,116508,2,0,B|440:68|416:112|416:112|376:112,1,130,0|0,0:0|0:0,0:0:0:0:
228,160,117180,2,0,L|96:160,1,130,2|0,0:0|0:0,0:0:0:0:
32,120,117685,1,0,0:0:0:0:
32,196,117853,2,0,B|32:228|32:228|56:256,1,65,0|0,0:0|0:0,0:0:0:0:
16,320,118189,6,0,B|80:348|80:296|144:320,1,130,2|0,0:0|0:0,0:0:0:0:
212,286,118693,1,0,0:0:0:0:
284,252,118861,2,0,B|348:224|348:276|412:252,1,130,0|2,0:0|0:0,0:0:0:0:
476,112,119533,2,0,P|480:80|468:48,1,65
400,88,119870,1,0,0:0:0:0:
256,24,120206,6,0,L|116:32,1,130,2|0,0:0|0:0,0:0:0:0:
20,144,120878,2,0,P|16:168|24:208,1,65,0|0,0:0|0:0,0:0:0:0:
100,228,121214,2,0,P|104:204|96:164,1,65,2|0,0:0|0:0,0:0:0:0:
156,112,121550,2,0,L|224:120,1,65,0|0,0:0|0:0,0:0:0:0:
296,132,121886,2,0,L|364:140,1,65,0|0,0:0|0:0,0:0:0:0:
428,100,122222,6,0,P|436:156|392:212,1,130,2|0,0:0|0:0,0:0:0:0:
328,252,122727,1,0,0:0:0:0:
396,288,122895,1,0,0:0:0:0:
296,132,123231,2,0,L|164:144,1,130,2|0,0:0|0:0,0:0:0:0:
96,112,123735,1,0,0:0:0:0:
104,188,123903,1,0,0:0:0:0:
188,56,124239,6,0,L|324:44,1,130,6|0,0:0|0:0,0:0:0:0:
392,72,124743,1,0,0:0:0:0:
456,116,124912,2,0,P|460:148|452:184,1,65,0|0,0:0|0:0,0:0:0:0:
384,216,125248,2,0,P|428:252|500:240,2,130,2|0|0,0:0|0:0|0:0,0:0:0:0:
256,124,126256,6,0,L|180:132,1,65,2|0,0:0|0:0,0:0:0:0:
120,104,126592,2,0,P|120:160|188:208,1,130,0|0,0:0|0:0,0:0:0:0:
324,248,127265,2,0,B|356:244|356:244|384:228,1,65,2|0,0:0|0:0,0:0:0:0:
436,172,127601,2,0,L|412:308,1,130,0|0,0:0|0:0,0:0:0:0:
380,120,128273,6,0,P|428:96|496:124,2,130,2|0|0,0:0|0:0|0:0,0:0:0:0:
240,192,129281,2,0,L|248:60,2,130,2|0|0,0:0|0:0|0:0,0:0:0:0:
340,312,130290,6,0,P|372:320|408:312,1,65,2|0,0:0|0:0,0:0:0:0:
468,272,130626,2,0,L|464:136,1,130,0|0,0:0|0:0,0:0:0:0:
340,48,131298,2,0,P|304:44|272:48,1,65,2|0,0:0|0:0,0:0:0:0:
220,100,131634,2,0,P|152:104|84:88,1,130,0|0,0:0|0:0,0:0:0:0:
20,228,132307,6,0,L|92:224,1,65,2|0,0:0|0:0,0:0:0:0:
160,248,132643,2,0,L|296:240,1,130,0|0,0:0|0:0,0:0:0:0:
416,148,133315,2,0,P|424:116|416:80,1,65,2|0,0:0|0:0,0:0:0:0:
344,112,133651,2,0,L|280:88,1,65,0|0,0:0|0:0,0:0:0:0:
248,20,133987,2,0,P|221:39|204:72,1,65,0|0,0:0|0:0,0:0:0:0:
220,144,134323,6,0,P|184:144|156:132,1,65,2|0,0:0|0:0,0:0:0:0:
100,80,134659,2,0,L|132:212,1,130,0|0,0:0|0:0,0:0:0:0:
256,300,135332,2,0,L|320:292,1,65,2|0,0:0|0:0,0:0:0:0:
388,336,135668,2,0,P|396:272|356:224,1,130,0|0,0:0|0:0,0:0:0:0:
284,192,136172,1,0,0:0:0:0:
348,144,136340,6,0,L|344:8,2,130,2|0|0,0:0|0:0|0:0,0:0:0:0:
284,192,137180,1,0,0:0:0:0:
240,128,137349,2,0,P|176:112|108:136,1,130,2|0,0:0|0:0,0:0:0:0:
52,172,137853,1,0,0:0:0:0:
52,92,138021,2,0,L|44:20,1,65,0|0,0:0|0:0,0:0:0:0:
124,16,138357,6,0,P|160:28|200:32,1,65
260,52,138693,2,0,P|296:40|336:36,1,65,0|0,0:0|0:0,0:0:0:0:
396,68,139029,1,0,0:0:0:0:
468,100,139197,1,0,0:0:0:0:
396,160,139365,5,6,0:0:0:0:
396,120,142391,6,0,L|404:184,2,65,0|0|0,0:0|0:0|0:0,0:0:0:0:
376,44,142895,1,0,0:0:0:0:
312,88,143063,2,0,P|280:92|244:84,1,65,0|0,0:0|0:0,0:0:0:0:
184,40,143399,2,0,P|152:36|116:44,1,65,2|0,0:0|0:0,0:0:0:0:
56,88,143735,2,0,B|32:196|100:160|72:292,1,195,0|0,0:0|0:0,0:0:0:0:
140,316,144407,6,0,L|208:304,1,65,2|0,0:0|0:0,0:0:0:0:
256,248,144743,2,0,L|324:236,1,65,0|0,0:0|0:0,0:0:0:0:
396,252,145080,2,0,P|392:216|376:184,1,65,2|0,0:0|0:0,0:0:0:0:
316,144,145416,2,0,P|320:108|336:76,1,65,2|0,0:0|0:0,0:0:0:0:
388,28,145752,2,0,L|260:48,1,130,0|0,0:0|0:0,0:0:0:0:
108,80,146424,6,0,P|148:84|184:104,1,65,0|0,0:0|0:0,0:0:0:0:
212,160,146760,2,0,L|200:296,1,130,0|0,0:0|0:0,0:0:0:0:
256,344,147265,1,0,0:0:0:0:
324,308,147432,6,0,L|400:316,1,65,0|0,0:0|0:0,0:0:0:0:
456,276,147832,2,0,B|472:204|440:220|456:140,1,130,0|0,0:0|0:0,0:0:0:0:
348,40,148632,6,0,L|276:48,1,65,2|0,0:0|0:0,0:0:0:0:
228,100,149054,2,0,L|152:92,1,65,0|0,0:0|0:0,0:0:0:0:
92,60,149477,1,0,0:0:0:0:
32,184,149899,6,0,P|68:192|96:208,1,65
140,264,150353,2,0,P|176:256|204:240,1,65,2|0,0:0|0:0,0:0:0:0:
376,88,151262,5,2,0:0:0:0:
256,192,151489,12,0,154444,0:0:0:0:
