osu file format v14

[General]
AudioFilename: audio.mp3
AudioLeadIn: 0
PreviewTime: 110043
Countdown: 0
SampleSet: Soft
StackLeniency: 0.7
Mode: 0
LetterboxInBreaks: 0
EpilepsyWarning: 1
WidescreenStoryboard: 1

[Editor]
Bookmarks: 47601,65752,88945,100038,139370,142396
DistanceSpacing: 1
BeatDivisor: 4
GridSize: 4
TimelineZoom: 1

[Metadata]
Title:What Child Is This? (Speed Up Ver.)
TitleUnicode:What Child Is This? (Speed Up Ver.)
Artist:Jewel
ArtistUnicode:Jewel
Creator:Jonawaga
Version:Normal
Source:
Tags:Marianna Greensleeves cover trust fund baby countdown to happy everyone Kilcher Let It Snow: A Holiday Collection jesus christmas hymm KoyomicNC Mary carol
BeatmapID:1131246
BeatmapSetID:534016

[Difficulty]
HPDrainRate:4
CircleSize:3.5
OverallDifficulty:4
ApproachRate:4
SliderMultiplier:1
SliderTickRate:1

[Events]
//Background and Video events
0,0,"Konachan.com%20-%20191506%20sample copy.png",0,0
//Break Periods
2,91970,98718
2,139565,141071
//Storyboard Layer 0 (Background)
//Storyboard Layer 1 (Fail)
//Storyboard Layer 2 (Pass)
//Storyboard Layer 3 (Foreground)
//Storyboard Sound Samples

[TimingPoints]
7265,336.134453781513,3,2,1,40,1,0
35500,-100,3,2,1,60,0,0
57685,-100,3,2,1,70,0,1
65584,-100,3,2,1,70,0,0
65752,-100,3,2,1,70,0,1
73819,-100,3,2,1,70,0,0
81886,-100,3,2,1,60,0,0
85920,-100,3,2,1,40,0,0
106088,-100,3,2,1,60,0,0
110122,-100,3,2,1,70,0,1
118021,-100,3,2,1,70,0,0
118189,-100,3,2,1,70,0,1
122222,-100,3,2,1,75,0,1
124071,-100,3,2,1,75,0,0
124239,-100,3,2,1,80,0,1
132138,-100,3,2,1,80,0,0
132307,-100,3,2,1,80,0,1
137349,-100,3,2,1,40,0,1
139365,-100,3,2,1,40,0,0
147432,400,3,2,1,40,1,0
148632,422.535211267606,3,2,1,40,1,0
149899,454.545454545455,3,2,1,40,1,0
154444,-100,3,2,1,5,0,0

[Colours]
Combo1 : 140,169,241
Combo2 : 44,123,189
Combo3 : 240,210,80

[HitObjects]
256,132,7265,6,0,P|240:88|252:30,2,100,2|0|0,0:0|0:0|0:0,0:0:0:0:
340,78,8273,2,0,L|386:38,2,50
256,260,9281,2,0,P|272:304|260:362,2,100
172,314,10290,2,0,L|126:354,2,50
168,212,10962,1,0,0:0:0:0:
118,123,11298,6,0,P|191:114|252:156,1,150,2|0,0:0|0:0,0:0:0:0:
288,192,11970,1,0,0:0:0:0:
375,239,12307,2,0,P|387:192|375:143,1,100,2|0,0:0|0:0,0:0:0:0:
267,311,13315,2,0,B|219:335|171:311|171:311|123:287|75:311,1,200,2|0,0:0|0:0,0:0:0:0:
6,231,14323,2,0,P|53:216|87:180,1,100
92,84,14996,1,0,0:0:0:0:
180,41,15332,6,0,P|190:89|175:136,1,100,2|0,0:0|0:0,0:0:0:0:
256,192,16004,1,0,0:0:0:0:
336,136,16340,2,0,P|321:89|331:41,2,100
420,84,17349,2,0,P|436:144|328:236,1,200,2|0,0:0|0:0,0:0:0:0:
256,272,18357,2,0,L|256:376,2,100
162,235,19365,6,0,P|84:179|92:84,1,200,2|0,0:0|0:0,0:0:0:0:
175,136,20374,1,0,0:0:0:0:
256,76,20710,2,0,P|276:140|264:188,1,100
236,263,21382,2,0,P|285:267|331:249,2,100,2|0|0,0:0|0:0|0:0,0:0:0:0:
154,327,22391,2,0,P|136:281|140:232,1,100
175,136,23063,1,0,0:0:0:0:
76,152,23399,6,0,P|89:83|205:39,1,200,2|0,0:0|0:0,0:0:0:0:
256,120,24407,2,0,L|256:224,2,100
312,37,25416,2,0,P|405:61|436:152,1,200,2|0,0:0|0:0,0:0:0:0:
366,227,26424,2,0,P|340:185|335:136,2,100
440,296,27433,6,0,L|335:323,1,100,2|0,0:0|0:0,0:0:0:0:
256,368,28105,1,0,0:0:0:0:
168,321,28441,2,0,L|72:296,2,100
206,229,29449,2,0,B|62:192|62:192|46:144,1,200,2|0,0:0|0:0,0:0:0:0:
140,108,30458,1,0,0:0:0:0:
208,32,30794,1,0,0:0:0:0:
308,32,31130,1,0,0:0:0:0:
372,108,31466,5,2,0:0:0:0:
466,144,31802,2,0,B|450:192|450:192|306:229,1,200
207,229,32811,1,0,0:0:0:0:
256,316,33147,1,0,0:0:0:0:
156,316,33483,2,0,P|108:248|168:136,1,200,2|0,0:0|0:0,0:0:0:0:
196,59,34491,2,0,P|246:141|207:229,1,200
256,316,35500,6,0,L|356:316,1,100,2|0,0:0|0:0,0:0:0:0:
448,360,36172,1,0,0:0:0:0:
440,259,36508,2,0,P|461:213|456:164,2,100,2|0|0,0:0|0:0|0:0,0:0:0:0:
364,196,37517,2,0,P|314:199|269:178,2,100,2|0|0,0:0|0:0|0:0,0:0:0:0:
332,100,38525,2,0,P|328:50|349:5,1,100,2|0,0:0|0:0,0:0:0:0:
428,68,39197,1,0,0:0:0:0:
456,164,39533,6,0,P|439:259|351:296,1,200,2|0,0:0|0:0,0:0:0:0:
256,264,40542,2,0,L|256:160,2,100,2|0|0,0:0|0:0|0:0,0:0:0:0:
160,296,41550,2,0,P|72:259|55:164,1,200,2|0,0:0|0:0,0:0:0:0:
132,101,42559,2,0,P|154:146|152:196,2,100,2|0|0,0:0|0:0|0:0,0:0:0:0:
38,67,43567,6,0,P|109:4|202:29,1,200,2|0,0:0|0:0,0:0:0:0:
256,116,44575,2,0,L|256:216,2,100,2|0|0,0:0|0:0|0:0,0:0:0:0:
309,29,45584,2,0,P|402:4|473:67,1,200,2|0,0:0|0:0,0:0:0:0:
379,101,46592,2,0,P|357:146|360:196,1,100,2|0,0:0|0:0,0:0:0:0:
456,168,47265,1,0,0:0:0:0:
432,264,47601,6,0,P|453:308|451:358,2,100,2|0|0,0:0|0:0|0:0,0:0:0:0:
356,329,48609,2,0,P|334:284|336:234,1,100,2|0,0:0|0:0,0:0:0:0:
256,176,49281,1,0,0:0:0:0:
175,234,49617,2,0,P|177:284|156:329,2,100,2|0|0,0:0|0:0|0:0,0:0:0:0:
80,264,50626,2,0,P|58:308|60:358,2,100,2|0|0,0:0|0:0|0:0,0:0:0:0:
12,192,51634,5,2,0:0:0:0:
80,120,51970,2,0,P|58:75|60:25,1,100
156,56,52643,2,0,P|200:34|250:36,2,100,2|0|0,0:0|0:0|0:0,0:0:0:0:
220,132,53651,2,0,P|297:126|350:24,1,200,2|0,0:0|0:0,0:0:0:0:
448,32,54659,6,0,L|478:136,1,100,2|0,0:0|0:0,0:0:0:0:
400,192,55332,1,0,0:0:0:0:
475,256,55668,2,0,L|447:352,2,100,2|0|0,0:0|0:0|0:0,0:0:0:0:
400,192,56676,2,0,L|344:177,1,50
304,191,57012,2,0,P|256:202|207:191,1,100
256,104,57685,6,0,P|181:95|116:152,1,150,6|0,0:0|0:0,0:0:0:0:
104,184,58357,1,0,0:0:0:0:
19,237,58693,2,0,P|54:271|106:284,1,100,2|0,0:0|0:0,0:0:0:0:
204,308,59365,1,0,0:0:0:0:
308,308,59701,2,8,L|468:288,1,150,2|0,0:0|0:0,0:0:0:0:
476,244,60374,1,0,0:0:0:0:
476,140,60710,2,0,P|426:133|387:104,1,100,2|0,0:0|0:0,0:0:0:0:
465,40,61382,1,0,0:0:0:0:
372,8,61718,6,0,P|316:36|292:120,1,150,2|0,0:0|0:0,0:0:0:0:
296,168,62391,1,0,0:0:0:0:
309,266,62727,2,0,P|259:261|220:232,1,100,2|0,0:0|0:0,0:0:0:0:
160,152,63399,1,0,0:0:0:0:
208,64,63735,2,0,P|136:55|72:104,1,150,2|0,0:0|0:0,0:0:0:0:
52,144,64407,1,0,0:0:0:0:
52,244,64743,2,0,L|24:344,2,100,2|0|0,0:0|0:0|0:0,0:0:0:0:
139,287,65752,6,0,B|164:244|136:192|136:192|172:152,1,150,2|0,0:0|0:0,0:0:0:0:
206,119,66424,1,0,0:0:0:0:
261,36,66760,2,0,P|295:71|306:120,1,100,2|0,0:0|0:0,0:0:0:0:
376,192,67433,1,0,0:0:0:0:
454,253,67769,2,0,P|473:182|439:117,1,150,2|0,0:0|0:0,0:0:0:0:
397,89,68441,1,0,0:0:0:0:
306,119,68777,2,0,L|206:119,2,100,2|0|0,0:0|0:0|0:0,0:0:0:0:
375,192,69786,6,0,P|329:217|282:216,1,100,2|0,0:0|0:0,0:0:0:0:
188,240,70458,1,0,0:0:0:0:
160,336,70794,2,0,P|113:360|66:360,1,100,2|0,0:0|0:0,0:0:0:0:
90,265,71466,1,0,0:0:0:0:
22,196,71802,2,0,P|68:171|115:171,2,100,2|0|0,0:0|0:0|0:0,0:0:0:0:
90,265,72811,1,6,0:0:0:0:
356,44,73819,6,0,P|400:100|384:196,1,150,2|0,0:0|0:0,0:0:0:0:
362,212,74491,1,0,0:0:0:0:
304,132,74828,2,0,P|256:144|208:132,1,100,2|0,0:0|0:0,0:0:0:0:
256,44,75500,1,0,0:0:0:0:
156,44,75836,2,0,P|112:100|128:196,1,150,2|0,0:0|0:0,0:0:0:0:
154,207,76508,1,0,0:0:0:0:
95,289,76844,1,2,0:0:0:0:
193,303,77180,2,0,P|235:276|256:232,1,100
256,182,77685,1,0,0:0:0:0:
256,132,77853,6,0,P|276:87|318:60,1,100,2|0,0:0|0:0,0:0:0:0:
350,154,78525,1,0,0:0:0:0:
385,251,78861,2,0,P|427:224|448:180,1,100,2|0,0:0|0:0,0:0:0:0:
422,83,79533,1,0,0:0:0:0:
350,154,79870,1,0,0:0:0:0:
256,192,80206,2,0,L|229:292,1,100
144,239,80878,2,0,P|132:288|144:335,2,100,2|0|0,0:0|0:0|0:0,0:0:0:0:
144,144,81886,6,0,L|117:43,2,100,2|0|0,0:0|0:0|0:0,0:0:0:0:
230,95,82895,2,0,L|256:192,2,100,2|0|0,0:0|0:0|0:0,0:0:0:0:
316,44,83903,2,0,P|365:40|410:62,2,100,2|0|0,0:0|0:0|0:0,0:0:0:0:
343,139,84912,2,0,P|387:160|436:156,2,100,2|0|0,0:0|0:0|0:0,0:0:0:0:
256,192,85920,6,0,B|230:288|230:288|181:316,1,150,2|0,0:0|0:0,0:0:0:0:
141,339,86592,1,0,0:0:0:0:
54,289,86928,2,0,B|79:192|79:192|123:167,1,150,2|0,0:0|0:0,0:0:0:0:
168,142,87601,1,0,0:0:0:0:
176,41,87937,2,0,P|224:54|255:91,1,100,2|0,0:0|0:0,0:0:0:0:
280,136,88441,2,0,P|311:173|359:186,1,100,2|0,0:0|0:0,0:0:0:0:
408,192,88945,5,6,0:0:0:0:
80,120,100038,6,0,P|59:76|61:26,2,100,2|0|0,0:0|0:0|0:0,0:0:0:0:
156,55,101046,2,0,P|178:100|176:150,1,100,2|0,0:0|0:0,0:0:0:0:
256,208,101718,1,0,0:0:0:0:
337,150,102054,2,0,P|335:100|356:55,2,100,2|0|0,0:0|0:0|0:0,0:0:0:0:
432,120,103063,2,0,P|454:76|452:26,2,100,2|0|0,0:0|0:0|0:0,0:0:0:0:
500,192,104071,5,2,0:0:0:0:
432,264,104407,2,0,P|454:309|452:359,1,100
356,328,105080,2,0,P|312:350|262:348,2,100,2|0|0,0:0|0:0|0:0,0:0:0:0:
292,252,106088,2,0,P|215:258|162:360,1,200,2|0,0:0|0:0,0:0:0:0:
64,352,107096,6,0,L|34:248,1,100,2|0,0:0|0:0,0:0:0:0:
112,192,107769,1,0,0:0:0:0:
37,128,108105,2,0,L|65:32,2,100,2|0|0,0:0|0:0|0:0,0:0:0:0:
112,192,109113,2,0,L|168:207,1,50
207,192,109449,2,0,P|255:181|304:192,1,100
256,280,110122,6,0,P|331:289|388:245,1,150,6|0,0:0|0:0,0:0:0:0:
408,200,110794,1,0,0:0:0:0:
493,147,111130,2,0,P|457:112|405:99,1,100,2|0,0:0|0:0,0:0:0:0:
308,76,111802,1,0,0:0:0:0:
204,76,112138,2,8,L|44:96,1,150,2|0,0:0|0:0,0:0:0:0:
36,140,112811,1,0,0:0:0:0:
36,244,113147,2,0,P|86:251|125:280,1,100,2|0,0:0|0:0,0:0:0:0:
47,344,113819,1,0,0:0:0:0:
140,376,114155,6,0,P|196:348|220:264,1,150,2|0,0:0|0:0,0:0:0:0:
216,216,114828,1,0,0:0:0:0:
202,117,115164,2,0,P|252:122|292:152,1,100,2|0,0:0|0:0,0:0:0:0:
352,232,115836,1,0,0:0:0:0:
304,320,116172,2,0,P|376:329|440:280,1,150,2|0,0:0|0:0,0:0:0:0:
460,240,116844,1,0,0:0:0:0:
460,140,117180,2,0,L|488:40,2,100,2|0|0,0:0|0:0|0:0,0:0:0:0:
373,97,118189,6,0,B|348:140|376:192|376:192|340:232,1,150,2|0,0:0|0:0,0:0:0:0:
306,265,118861,1,0,0:0:0:0:
251,348,119197,2,0,P|217:313|206:264,1,100,2|0,0:0|0:0,0:0:0:0:
136,192,119870,1,0,0:0:0:0:
58,131,120206,2,0,P|39:202|73:267,1,150,2|0,0:0|0:0,0:0:0:0:
109,289,120878,1,0,0:0:0:0:
206,265,121214,2,0,L|306:265,2,100,2|0|0,0:0|0:0|0:0,0:0:0:0:
137,192,122222,6,0,P|183:167|230:168,1,100,2|0,0:0|0:0,0:0:0:0:
324,144,122895,1,0,0:0:0:0:
347,46,123231,2,0,P|392:20|443:19,1,100,2|0,0:0|0:0,0:0:0:0:
420,116,123903,1,0,0:0:0:0:
488,188,124239,6,0,P|442:213|340:176,1,150,6|0,0:0|0:0,0:0:0:0:
324,144,124912,1,0,0:0:0:0:
256,72,125248,2,0,P|204:44|148:52,1,100,2|0,0:0|0:0,0:0:0:0:
188,144,125920,1,0,0:0:0:0:
116,216,126256,2,0,L|19:190,2,100,2|0|0,0:0|0:0|0:0,0:0:0:0:
160,308,127265,2,0,L|256:333,2,100,2|0|0,0:0|0:0|0:0,0:0:0:0:
216,224,128273,6,0,L|368:264,1,150,2|0,0:0|0:0,0:0:0:0:
408,276,128945,1,0,0:0:0:0:
459,192,129281,2,0,P|494:156|505:108,1,100,2|0,0:0|0:0,0:0:0:0:
408,108,129954,1,0,0:0:0:0:
328,172,130290,6,0,L|182:133,1,150,2|0,0:0|0:0,0:0:0:0:
136,120,130962,1,0,0:0:0:0:
64,192,131298,2,0,P|36:140|40:92,2,100,2|0|0,0:0|0:0|0:0,0:0:0:0:
44,289,132307,6,0,P|116:278|160:218,1,150,2|0,0:0|0:0,0:0:0:0:
200,192,132979,1,0,0:0:0:0:
256,107,133315,2,0,P|302:91|351:99,1,100,2|0,0:0|0:0,0:0:0:0:
312,192,133987,1,0,0:0:0:0:
255,275,134323,6,0,P|327:291|391:254,1,150,2|0,0:0|0:0,0:0:0:0:
420,212,134996,1,0,0:0:0:0:
440,116,135332,2,0,L|351:72,1,100,2|0,0:0|0:0,0:0:0:0:
256,36,136004,1,0,0:0:0:0:
161,72,136340,6,0,L|72:116,2,100,2|0|0,0:0|0:0|0:0,0:0:0:0:
256,36,137349,2,0,B|296:136|216:128|255:229,1,200
354,229,138357,2,0,B|314:129|394:137|354:35,1,200
256,36,139365,5,6,0:0:0:0:
256,252,142391,6,0,P|272:296|260:354,2,100
172,306,143399,2,0,L|126:346,2,50,2|0|0,0:0|0:0|0:0,0:0:0:0:
256,124,144407,2,0,P|240:80|252:22,2,100,2|0|2,0:0|0:0|0:0,0:0:0:0:
340,70,145416,2,0,L|386:30,2,50,2|0|0,0:0|0:0|0:0,0:0:0:0:
344,172,146088,1,0,0:0:0:0:
394,261,146424,6,0,P|321:270|260:228,1,150
224,192,147096,1,0,0:0:0:0:
136,240,147433,6,0,P|127:168|169:107,1,150
208,80,148232,1,0,0:0:0:0:
298,125,148632,6,0,B|346:149|394:125|394:125|442:101|490:125,1,200,2|0,0:0|0:0,0:0:0:0:
490,227,149899,6,0,P|466:224|443:214,2,50,0|0|2,0:0|0:0|0:0,0:0:0:0:
256,192,151262,12,0,154444,0:0:0:0:
