osu file format v14

[General]
AudioFilename: audio.mp3
AudioLeadIn: 0
PreviewTime: -1
Countdown: 0
SampleSet: Soft
StackLeniency: 0.7
Mode: 0
LetterboxInBreaks: 0
WidescreenStoryboard: 0

[Editor]
Bookmarks: 56995,65466,95819,111348,158289,179113,231348
DistanceSpacing: 1
BeatDivisor: 6
GridSize: 4
TimelineZoom: 1.799999

[Metadata]
Title:Always
TitleUnicode:Always
Artist:Jeto
ArtistUnicode:Jeto
Creator:E n d
Version:Forever
Source:
Tags:
BeatmapID:1282339
BeatmapSetID:607069

[Difficulty]
HPDrainRate:6
CircleSize:4
OverallDifficulty:7
ApproachRate:8
SliderMultiplier:1.4
SliderTickRate:1

[Events]
//Background and Video events
0,0,"BG1.jpg",0,0
//Break Periods
//Storyboard Layer 0 (Background)
//Storyboard Layer 1 (Fail)
//Storyboard Layer 2 (Pass)
//Storyboard Layer 3 (Foreground)
//Storyboard Layer 4 (Overlay)
//Storyboard Sound Samples

[TimingPoints]
525,705.882352941176,4,2,0,5,1,0
3348,-100,4,2,0,10,0,0
5466,-100,4,2,0,20,0,0
8995,-100,4,2,0,30,0,0
11113,-100,4,2,0,40,0,0
22407,-100,4,2,0,50,0,0
25936,-100,4,2,0,50,0,0
67583,-66.6666666666667,4,2,0,50,0,1
87348,-121.951219512195,4,2,0,50,0,1
89113,-66.6666666666667,4,2,0,50,0,1
89466,-66.6666666666667,4,2,0,50,0,0
180524,-66.6666666666667,4,2,0,50,0,1
203113,-66.6666666666667,4,2,0,50,0,0
225701,-66.6666666666667,4,2,0,25,0,0
245466,-66.6666666666667,4,2,0,20,0,0
246760,-66.6666666666667,4,2,0,10,0,0
246995,-66.6666666666667,4,2,0,5,0,0

[Colours]
Combo1 : 185,185,185
Combo2 : 128,255,255
Combo3 : 51,142,255
Combo4 : 234,234,234

[HitObjects]
83,164,525,6,0,P|128:114|171:107,1,93.3333333333333,0|0,2:0|2:0,2:0:0:0:
151,107,1113,1,0,0:0:0:0:
161,190,1583,2,0,L|178:254,1,46.6666666666667,0|0,2:0|2:0,2:0:0:0:
172,235,1936,1,0,2:0:0:0:
112,296,2642,6,0,L|179:330,1,70,0|0,2:0|2:0,2:0:0:0:
241,269,3348,2,0,L|298:303,1,46.6666666666667,0|0,2:0|2:0,2:0:0:0:
370,320,3701,2,0,L|375:280,2,23.3333333333333
358,212,4054,2,0,L|316:193,1,46.6666666666667,0|0,2:0|2:0,2:0:0:0:
316,193,4407,1,0,2:0:0:0:
237,131,4760,1,0,2:0:0:0:
163,63,5466,6,0,P|137:126|160:190,1,140,0|0,2:0|2:0,2:0:0:0:
230,331,6877,1,0,2:0:0:0:
267,339,7583,1,0,2:0:0:0:
309,312,8289,1,0,2:0:0:0:
327,273,8995,1,0,2:0:0:0:
330,230,9701,1,0,2:0:0:0:
386,183,10407,1,0,2:0:0:0:
315,46,11113,6,0,P|256:29|188:72,1,140,0|0,2:0|2:0,2:0:0:0:
262,111,12172,2,0,L|210:148,1,46.6666666666667,0|0,2:0|2:0,2:0:0:0:
115,151,12877,1,0,2:0:0:0:
88,209,13229,1,0,2:0:0:0:
95,272,13582,1,0,2:0:0:0:
135,322,13935,1,0,2:0:0:0:
402,267,14642,6,0,P|364:237|329:232,1,70,0|0,2:0|2:0,2:0:0:0:
337,316,15230,2,0,P|277:306|245:270,1,93.3333333333333,0|0,2:0|2:0,2:0:0:0:
254,285,16054,1,0,2:0:0:0:
247,183,16407,1,0,2:0:0:0:
176,104,16760,2,0,P|138:88|93:95,1,70,0|0,2:0|2:0,2:0:0:0:
126,170,17466,6,0,P|146:248|198:286,1,140,0|0,2:0|2:0,2:0:0:0:
255,228,18877,1,0,2:0:0:0:
296,231,19583,1,0,2:0:0:0:
326,259,20289,1,0,2:0:0:0:
367,251,20995,1,0,2:0:0:0:
393,218,21701,1,0,2:0:0:0:
440,105,22407,6,0,P|380:69|333:78,1,116.666666666667,0|0,2:0|2:0,2:0:0:0:
372,152,23113,2,0,L|321:179,1,46.6666666666667,0|0,2:0|2:0,2:0:0:0:
249,171,23466,2,0,L|233:231,1,35,0|0,2:0|2:0,2:0:0:0:
239,204,23701,1,0,2:0:0:0:
320,278,24172,1,0,2:0:0:0:
330,173,24524,1,0,2:0:0:0:
194,206,25230,1,0,2:0:0:0:
194,67,25936,6,0,L|234:90,1,46.6666666666667,0|0,2:0|2:0,2:0:0:0:
96,154,26289,2,0,L|77:167,2,23.3333333333333
194,206,26642,2,0,L|233:251,1,35,0|0,2:0|2:0,2:0:0:0:
216,231,26995,1,0,2:0:0:0:
334,190,27348,1,0,2:0:0:0:
303,114,28054,6,0,P|389:131|417:188,1,140,0|0,2:0|2:0,2:0:0:0:
398,249,29465,1,0,2:0:0:0:
371,281,30171,1,0,2:0:0:0:
348,316,30877,1,0,2:0:0:0:
304,327,31583,1,0,2:0:0:0:
235,249,31936,6,0,L|189:244,2,35,0|0|0,2:0|2:0|2:0,2:0:0:0:
352,183,32642,1,0,2:0:0:0:
258,156,32995,1,0,2:0:0:0:
144,93,33701,6,0,P|186:55|243:53,1,116.666666666667,0|0,2:0|2:0,2:0:0:0:
217,132,34407,2,0,L|257:155,1,46.6666666666667,0|0,2:0|2:0,2:0:0:0:
327,121,34760,2,0,L|339:153,1,35,0|0,2:0|2:0,2:0:0:0:
340,154,34995,1,0,2:0:0:0:
235,249,35466,1,0,2:0:0:0:
344,320,35818,1,0,2:0:0:0:
342,160,36524,5,0,2:0:0:0:
167,86,37230,2,0,L|117:110,1,46.6666666666667,0|0,2:0|2:0,2:0:0:0:
125,107,37583,1,0,0:0:0:0:
178,203,37819,1,0,0:0:0:0:
196,217,37936,2,0,L|250:243,1,35,0|0,2:0|2:0,2:0:0:0:
283,314,38289,1,0,2:0:0:0:
307,197,38642,1,0,2:0:0:0:
312,98,39348,6,0,P|391:146|404:188,1,140,0|0,2:0|2:0,2:0:0:0:
394,231,40759,1,0,2:0:0:0:
379,270,41465,1,0,2:0:0:0:
356,305,42171,1,0,2:0:0:0:
319,325,42877,1,0,2:0:0:0:
281,318,43583,1,0,2:0:0:0:
242,303,44289,1,0,2:0:0:0:
271,136,44995,5,0,2:0:0:0:
168,174,45230,1,0,2:0:0:0:
168,174,45348,2,0,L|131:210,1,46.6666666666667,0|0,2:0|2:0,2:0:0:0:
111,232,45701,5,0,2:0:0:0:
204,306,45936,1,0,2:0:0:0:
204,306,46054,2,0,L|261:329,1,46.6666666666667,0|0,2:0|2:0,2:0:0:0:
279,336,46407,5,0,2:0:0:0:
349,249,46642,1,0,2:0:0:0:
349,249,46760,2,0,L|389:198,1,46.6666666666667,0|0,2:0|2:0,2:0:0:0:
399,185,47113,5,0,2:0:0:0:
298,145,47348,1,0,2:0:0:0:
298,145,47466,2,0,L|254:127,1,46.6666666666667,0|0,2:0|2:0,2:0:0:0:
222,112,47819,5,0,2:0:0:0:
155,203,48054,1,8,2:3:0:0:
155,203,48172,2,8,L|118:249,1,46.6666666666667,8|8,2:3|2:3,2:3:0:0:
112,271,48525,5,0,2:0:0:0:
227,264,48760,1,0,2:0:0:0:
227,264,48878,2,0,L|288:241,1,46.6666666666667,0|0,2:0|2:0,2:0:0:0:
303,235,49230,5,0,2:0:0:0:
330,131,49466,1,0,2:0:0:0:
330,131,49583,2,0,L|273:155,1,46.6666666666667,0|0,2:0|2:0,2:0:0:0:
256,166,49937,5,0,2:0:0:0:
223,277,50172,1,0,2:0:0:0:
223,277,50289,2,0,L|286:253,1,46.6666666666667,0|0,2:0|2:0,2:0:0:0:
380,260,50642,5,0,2:0:0:0:
380,260,50877,1,0,2:0:0:0:
380,260,50995,2,0,L|410:271,2,23.3333333333333,0|0|0,2:0|2:0|2:0,2:0:0:0:
439,176,51348,5,0,2:0:0:0:
439,176,51583,1,0,2:0:0:0:
439,176,51701,2,0,L|452:140,2,23.3333333333333,0|0|0,2:0|2:0|2:0,2:0:0:0:
399,58,52054,5,0,2:0:0:0:
399,58,52289,1,0,2:0:0:0:
399,58,52407,2,0,L|360:69,2,23.3333333333333,0|0|0,2:0|2:0|2:0,2:0:0:0:
295,197,52760,5,0,2:0:0:0:
295,197,52995,1,0,2:0:0:0:
295,197,53113,2,0,L|326:180,2,23.3333333333333,0|0|0,2:0|2:0|2:0,2:0:0:0:
174,120,53466,5,0,2:0:0:0:
174,120,53701,1,0,2:0:0:0:
174,120,53819,2,0,L|134:138,2,23.3333333333333,0|0|0,2:0|2:0|2:0,2:0:0:0:
79,232,54172,5,0,2:0:0:0:
79,232,54407,1,0,2:0:0:0:
79,232,54525,2,0,L|89:265,2,23.3333333333333,0|0|0,2:0|2:0|2:0,2:0:0:0:
238,224,54878,5,0,2:0:0:0:
238,224,55113,1,0,2:0:0:0:
238,224,55230,2,0,L|201:240,2,23.3333333333333,0|0|0,2:0|2:0|2:0,2:0:0:0:
154,323,55584,5,0,2:0:0:0:
162,330,55819,1,0,2:0:0:0:
162,330,55936,2,0,L|200:350,2,23.3333333333333,0|0|0,2:0|2:0|2:0,2:0:0:0:
284,341,56289,5,0,2:0:0:0:
385,288,56524,1,0,2:0:0:0:
385,288,56642,2,0,L|435:255,1,46.6666666666667,0|0,2:0|2:0,2:0:0:0:
448,237,56995,5,0,2:0:0:0:
365,115,57230,1,0,2:0:0:0:
365,115,57348,2,0,L|418:137,1,46.6666666666667,0|0,2:0|2:0,2:0:0:0:
438,150,57701,5,0,2:0:0:0:
299,199,57936,1,0,2:0:0:0:
299,199,58054,2,0,L|245:197,1,46.6666666666667,0|0,2:0|2:0,2:0:0:0:
217,203,58407,5,0,2:0:0:0:
139,299,58642,1,0,2:0:0:0:
139,299,58760,2,0,L|87:321,1,46.6666666666667,0|0,2:0|2:0,2:0:0:0:
65,335,59113,5,0,2:0:0:0:
59,179,59348,1,0,2:0:0:0:
59,179,59466,2,0,L|109:202,1,46.6666666666667,0|0,2:0|2:0,2:0:0:0:
132,215,59819,5,0,2:0:0:0:
221,88,60054,1,0,2:0:0:0:
221,88,60172,2,0,L|171:111,1,46.6666666666667,0|0,2:0|2:0,2:0:0:0:
148,125,60525,5,0,2:0:0:0:
217,203,60760,1,0,2:0:0:0:
217,203,60878,2,0,L|280:229,1,46.6666666666667,0|0,2:0|2:0,2:0:0:0:
290,237,61230,5,0,2:0:0:0:
375,328,61466,1,0,2:0:0:0:
375,328,61584,2,0,L|431:305,1,35,0|0,2:0|2:0,2:0:0:0:
471,232,61936,5,0,2:0:0:0:
471,232,62171,1,0,2:0:0:0:
471,232,62289,2,0,L|466:186,2,23.3333333333333,0|0|0,2:0|2:0|2:0,2:0:0:0:
352,165,62642,5,0,2:0:0:0:
352,165,62877,1,0,2:0:0:0:
352,165,62995,2,0,L|321:178,2,23.3333333333333,0|0|0,2:0|2:0|2:0,2:0:0:0:
259,265,63348,5,0,2:0:0:0:
259,265,63583,1,0,2:0:0:0:
259,265,63701,2,0,L|297:280,2,23.3333333333333,0|0|0,2:0|2:0|2:0,2:0:0:0:
231,145,64054,5,0,2:0:0:0:
231,145,64289,1,0,2:0:0:0:
231,145,64407,2,0,L|191:123,2,23.3333333333333,0|0|0,2:0|2:0|2:0,2:0:0:0:
206,58,64760,5,0,2:0:0:0:
183,54,64877,1,0,2:0:0:0:
160,57,64995,1,0,2:0:0:0:
139,68,65112,1,0,2:0:0:0:
124,85,65230,1,0,2:0:0:0:
114,107,65348,1,0,2:0:0:0:
112,130,65465,1,0,2:0:0:0:
120,152,65583,5,0,2:0:0:0:
135,170,65701,1,0,2:0:0:0:
151,186,65818,1,0,2:0:0:0:
165,205,65936,1,0,2:0:0:0:
166,227,66054,1,0,2:0:0:0:
164,266,66172,2,0,L|161:277,15,8.75,0|0|0|0|0|0|0|0|0|0|0|0|0|0|0|0,2:0|2:0|2:0|2:0|2:0|2:0|2:0|2:0|2:0|2:0|2:0|2:0|2:0|2:0|2:0|2:0,2:0:0:0:
164,266,66877,1,0,2:0:0:0:
259,265,67230,1,0,0:0:0:0:
274,126,67466,5,0,0:0:0:0:
274,126,67583,2,0,P|372:74|463:131,1,210.000008010865,0|0,2:0|2:0,2:0:0:0:
366,178,68524,2,0,L|328:232,1,35.0000013351441,0|0,2:0|2:0,2:0:0:0:
426,292,68877,1,0,2:0:0:0:
426,292,68995,2,0,P|319:322|244:255,1,210.000008010865,0|0,2:0|2:0,2:0:0:0:
283,178,69936,1,0,0:0:0:0:
283,178,70054,2,0,P|241:168|197:193,1,70.0000026702882,0|0,2:0|2:0,2:0:0:0:
149,235,70407,2,0,P|125:181|146:126,1,105.000004005432,0|0,2:0|2:0,2:0:0:0:
192,52,71113,1,0,0:0:0:0:
250,134,71466,2,0,L|339:155,1,70.0000026702882,0|0,2:0|2:0,2:0:0:0:
318,150,71819,1,0,2:0:0:0:
266,37,72172,5,0,2:0:0:0:
299,26,72289,1,0,2:0:0:0:
333,26,72407,1,0,2:0:0:0:
366,38,72524,1,0,2:0:0:0:
393,60,72642,1,0,2:0:0:0:
412,89,72760,1,0,2:0:0:0:
420,123,72877,1,0,2:0:0:0:
417,158,72995,1,0,2:0:0:0:
402,189,73113,1,0,2:0:0:0:
374,210,73230,6,0,P|306:240|351:344,2,210.000008010865,0|0|0,2:0|2:0|2:0,2:0:0:0:
200,151,74877,1,0,2:0:0:0:
200,151,74995,2,0,L|102:142,1,70.0000026702882,0|0,2:0|2:0,2:0:0:0:
91,61,75348,2,0,P|42:116|71:212,1,175.00000667572,0|0,2:0|2:0,2:0:0:0:
133,224,76054,6,0,P|115:298|215:369,1,210.000008010865,0|0,2:0|2:0,2:0:0:0:
338,274,77466,1,0,2:0:0:0:
371,263,77583,1,0,2:0:0:0:
399,243,77701,1,0,2:0:0:0:
422,216,77818,1,0,2:0:0:0:
435,184,77936,1,0,2:0:0:0:
439,149,78054,1,0,2:0:0:0:
426,117,78172,6,0,L|334:119,1,70.0000026702882,0|0,2:0|2:0,2:0:0:0:
335,90,78524,2,0,L|305:153,1,70.0000026702882,0|0,2:0|2:0,2:0:0:0:
304,153,78877,1,0,2:0:0:0:
250,246,79230,2,0,P|178:212|163:166,1,105.000004005432,0|0,2:0|2:0,2:0:0:0:
244,164,79819,2,0,L|215:112,1,35.0000013351441,0|0,2:0|2:0,2:0:0:0:
218,56,80054,2,0,L|155:63,1,35.0000013351441,0|0,2:0|2:0,2:0:0:0:
183,59,80289,1,0,2:0:0:0:
103,153,80642,2,0,L|90:251,1,70.0000026702882,0|0,2:0|2:0,2:0:0:0:
93,222,80995,5,0,2:0:0:0:
100,256,81112,1,0,2:0:0:0:
118,286,81230,1,0,2:0:0:0:
145,308,81347,1,0,2:0:0:0:
178,318,81465,1,0,2:0:0:0:
213,317,81583,1,0,2:0:0:0:
241,296,81701,6,0,P|221:244|333:165,1,210.000008010865,0|0,2:0|2:0,2:0:0:0:
303,243,82760,2,0,L|380:276,1,70.0000026702882,0|0,2:0|2:0,2:0:0:0:
367,270,83113,1,0,2:0:0:0:
338,357,83466,6,0,L|391:360,2,35.0000013351441
407,354,83818,1,0,2:0:0:0:
438,337,83936,1,0,2:0:0:0:
461,311,84054,1,0,2:0:0:0:
476,279,84171,1,0,2:0:0:0:
480,245,84289,1,0,2:0:0:0:
474,211,84407,1,0,2:0:0:0:
464,180,84524,6,0,P|403:117|316:159,1,175.00000667572,0|0,2:0|2:0,2:0:0:0:
384,198,85230,2,0,L|336:255,1,70.0000026702882
209,245,85819,1,0,0:0:0:0:
217,242,85936,1,0,0:0:0:0:
93,179,86172,1,0,2:0:0:0:
93,179,86289,2,0,L|88:266,1,70.0000026702882,0|0,2:0|2:0,2:0:0:0:
88,248,86642,1,0,2:0:0:0:
187,332,87348,6,0,P|270:304|306:177,1,210.000008010865,0|0,2:0|2:0,2:0:0:0:
301,179,88760,1,0,2:0:0:0:
288,164,88877,1,0,0:0:0:0:
276,148,88995,1,0,0:0:0:0:
252,121,89113,2,0,L|231:100,5,17.500000667572
239,108,89466,1,0,2:0:0:0:
237,247,90172,6,0,P|316:182|308:93,1,175.00000667572,0|0,2:0|2:0,2:0:0:0:
317,115,90877,1,0,2:0:0:0:
220,146,91113,1,0,2:0:0:0:
220,146,91230,2,0,L|149:93,1,70.0000026702882,0|0,2:0|2:0,2:0:0:0:
81,67,91583,1,0,2:0:0:0:
52,160,91819,1,0,2:0:0:0:
52,160,91936,2,0,L|33:256,1,70.0000026702882,0|0,2:0|2:0,2:0:0:0:
136,190,92289,1,0,2:0:0:0:
221,215,92524,1,0,2:0:0:0:
221,215,92642,2,0,L|211:306,1,70.0000026702882,0|0,2:0|2:0,2:0:0:0:
130,331,92995,6,0,P|211:365|293:332,1,175.00000667572,0|0,2:0|2:0,2:0:0:0:
343,283,93701,1,0,2:0:0:0:
371,262,93818,1,0,2:0:0:0:
385,231,93936,1,0,2:0:0:0:
382,196,94053,1,0,2:0:0:0:
362,168,94171,1,0,2:0:0:0:
331,153,94289,1,0,2:0:0:0:
296,156,94406,5,0,2:0:0:0:
296,156,94524,1,0,2:0:0:0:
268,175,94641,1,0,2:0:0:0:
233,171,94759,1,0,2:0:0:0:
210,147,94876,1,0,2:0:0:0:
207,112,94994,1,0,2:0:0:0:
207,112,95113,5,0,2:0:0:0:
226,83,95230,1,0,2:0:0:0:
255,63,95348,1,0,2:0:0:0:
288,55,95465,1,0,2:0:0:0:
323,59,95583,1,0,2:0:0:0:
353,77,95701,1,0,2:0:0:0:
379,101,95819,6,0,P|407:166|365:280,1,175.00000667572,0|0,2:0|2:0,2:0:0:0:
380,263,96524,1,0,2:0:0:0:
328,180,96760,1,0,2:0:0:0:
328,180,96877,2,0,L|237:173,1,70.0000026702882,0|0,2:0|2:0,2:0:0:0:
188,140,97230,1,0,2:0:0:0:
82,146,97466,1,0,2:0:0:0:
82,146,97583,2,0,L|78:235,1,70.0000026702882,0|0,2:0|2:0,2:0:0:0:
179,218,97936,1,0,2:0:0:0:
278,297,98172,1,0,2:0:0:0:
278,297,98289,2,0,L|197:303,1,70.0000026702882,0|0,2:0|2:0,2:0:0:0:
142,363,98642,6,0,P|122:283|198:212,1,175.00000667572,0|0,2:0|2:0,2:0:0:0:
179,218,99348,1,0,2:0:0:0:
230,181,100054,1,0,2:0:0:0:
286,152,100760,1,0,2:0:0:0:
347,65,101466,6,0,P|396:145|370:247,1,175.00000667572,0|0,2:0|2:0,2:0:0:0:
385,222,102172,1,0,2:0:0:0:
281,163,102407,1,0,2:0:0:0:
281,163,102524,2,0,L|250:251,1,70.0000026702882,0|0,2:0|2:0,2:0:0:0:
170,195,102877,1,0,2:0:0:0:
86,232,103113,1,0,2:0:0:0:
86,232,103230,2,0,L|55:320,1,70.0000026702882,0|0,2:0|2:0,2:0:0:0:
154,281,103583,1,0,2:0:0:0:
256,316,103819,1,0,2:0:0:0:
256,316,103936,2,0,L|339:316,1,70.0000026702882,0|0,2:0|2:0,2:0:0:0:
424,335,104289,6,0,P|415:268|329:216,1,175.00000667572,0|0,2:0|2:0,2:0:0:0:
328,215,104995,1,0,2:0:0:0:
297,231,105112,1,0,2:0:0:0:
263,227,105230,1,0,2:0:0:0:
236,206,105347,1,0,2:0:0:0:
224,173,105465,1,0,2:0:0:0:
231,140,105583,1,0,2:0:0:0:
231,140,105701,5,0,2:0:0:0:
223,106,105818,1,0,2:0:0:0:
199,81,105936,1,0,2:0:0:0:
166,70,106053,1,0,2:0:0:0:
132,77,106171,1,0,2:0:0:0:
106,99,106289,1,0,2:0:0:0:
106,99,106407,5,0,2:0:0:0:
102,133,106524,1,0,2:0:0:0:
108,168,106642,1,0,2:0:0:0:
122,199,106759,1,0,2:0:0:0:
145,226,106877,1,0,2:0:0:0:
173,246,106995,1,0,2:0:0:0:
208,252,107113,6,0,P|220:304|108:321,1,175.00000667572,0|0,2:0|2:0,2:0:0:0:
125,339,107819,1,0,2:0:0:0:
56,238,108054,1,0,2:0:0:0:
56,238,108172,2,0,L|76:146,1,70.0000026702882,0|0,2:0|2:0,2:0:0:0:
129,105,108524,1,0,2:0:0:0:
193,169,108760,1,0,2:0:0:0:
193,169,108877,2,0,L|204:251,1,70.0000026702882,0|0,2:0|2:0,2:0:0:0:
261,103,109230,1,0,2:0:0:0:
308,241,109466,1,0,2:0:0:0:
308,241,109583,2,0,L|332:157,1,70.0000026702882,0|0,2:0|2:0,2:0:0:0:
361,66,109936,5,0,2:0:0:0:
395,72,110053,1,0,2:0:0:0:
427,86,110171,1,0,2:0:0:0:
454,108,110288,1,0,2:0:0:0:
474,136,110406,1,0,2:0:0:0:
488,169,110524,1,0,2:0:0:0:
492,203,110641,1,0,2:0:0:0:
488,238,110759,1,0,2:0:0:0:
476,270,110877,1,0,2:0:0:0:
455,299,110994,1,0,2:0:0:0:
429,321,111112,1,0,2:0:0:0:
397,337,111230,1,0,2:0:0:0:
362,337,111348,6,0,L|342:340,15,13.125000500679,0|0|0|0|0|0|0|0|0|0|0|0|0|0|0|0,2:0|2:0|2:0|2:0|2:0|2:0|2:0|2:0|2:0|2:0|2:0|2:0|2:0|2:0|2:0|2:0,2:0:0:0:
362,337,112054,1,0,2:0:0:0:
215,362,112407,1,0,0:0:0:0:
179,258,112642,5,0,0:0:0:0:
179,258,112760,2,0,P|255:193|252:101,1,175.00000667572,0|0,2:0|2:0,2:0:0:0:
150,147,113465,1,0,2:0:0:0:
78,212,113701,1,0,2:0:0:0:
78,212,113818,2,0,L|7:159,1,70.0000026702882,0|0,2:0|2:0,2:0:0:0:
80,70,114171,1,0,2:0:0:0:
198,212,114407,1,0,2:0:0:0:
198,212,114524,2,0,L|179:308,1,70.0000026702882,0|0,2:0|2:0,2:0:0:0:
297,222,114877,1,0,2:0:0:0:
413,170,115112,1,0,2:0:0:0:
413,170,115230,2,0,L|403:261,1,70.0000026702882,0|0,2:0|2:0,2:0:0:0:
484,308,115583,6,0,P|403:342|324:304,1,175.00000667572,0|0,2:0|2:0,2:0:0:0:
405,239,116289,1,0,2:0:0:0:
433,218,116406,1,0,2:0:0:0:
447,187,116524,1,0,2:0:0:0:
444,152,116641,1,0,2:0:0:0:
424,124,116759,1,0,2:0:0:0:
393,109,116877,1,0,2:0:0:0:
358,112,116994,5,0,2:0:0:0:
358,112,117112,1,0,2:0:0:0:
330,131,117229,1,0,2:0:0:0:
295,127,117347,1,0,2:0:0:0:
272,103,117466,1,0,2:0:0:0:
269,68,117582,1,0,2:0:0:0:
269,68,117701,5,0,2:0:0:0:
288,39,117818,1,0,2:0:0:0:
317,19,117936,1,0,2:0:0:0:
350,11,118053,1,0,2:0:0:0:
385,15,118171,1,0,2:0:0:0:
415,33,118289,1,0,2:0:0:0:
441,57,118407,6,0,P|469:122|423:235,1,175.00000667572,0|0,2:0|2:0,2:0:0:0:
442,219,119112,1,0,2:0:0:0:
357,138,119348,1,0,2:0:0:0:
357,138,119465,2,0,L|266:131,1,70.0000026702882,0|0,2:0|2:0,2:0:0:0:
189,162,119818,1,0,2:0:0:0:
72,200,120054,1,0,2:0:0:0:
72,200,120171,2,0,L|68:289,1,70.0000026702882,0|0,2:0|2:0,2:0:0:0:
173,252,120524,1,0,2:0:0:0:
296,326,120760,1,0,2:0:0:0:
296,326,120877,2,0,L|215:332,1,70.0000026702882,0|0,2:0|2:0,2:0:0:0:
379,378,121230,6,0,P|391:303|319:229,1,175.00000667572,0|0,2:0|2:0,2:0:0:0:
329,232,121936,1,0,2:0:0:0:
338,109,122642,2,0,L|368:58,1,35.0000013351441
355,78,122995,1,0,2:0:0:0:
212,102,123348,2,0,L|191:150,1,35.0000013351441
197,134,123701,1,0,0:0:0:0:
138,39,124054,6,0,P|86:117|113:217,1,175.00000667572,0|0,2:0|2:0,2:0:0:0:
94,194,124760,1,0,2:0:0:0:
214,142,124995,1,0,2:0:0:0:
214,142,125112,2,0,L|245:230,1,70.0000026702882,0|0,2:0|2:0,2:0:0:0:
342,195,125465,1,0,2:0:0:0:
426,232,125701,1,0,2:0:0:0:
426,232,125818,2,0,L|457:320,1,70.0000026702882,0|0,2:0|2:0,2:0:0:0:
358,281,126171,1,0,2:0:0:0:
267,300,126407,1,0,2:0:0:0:
267,300,126524,2,0,L|193:332,1,70.0000026702882,0|0,2:0|2:0,2:0:0:0:
120,354,126877,6,0,P|124:274|202:224,1,175.00000667572,0|0,2:0|2:0,2:0:0:0:
197,224,127583,1,0,2:0:0:0:
228,240,127700,1,0,2:0:0:0:
262,236,127818,1,0,2:0:0:0:
289,215,127935,1,0,2:0:0:0:
301,182,128053,1,0,2:0:0:0:
294,149,128171,1,0,2:0:0:0:
294,149,128289,5,0,2:0:0:0:
302,115,128406,1,0,2:0:0:0:
326,90,128524,1,0,2:0:0:0:
359,79,128641,1,0,2:0:0:0:
393,86,128759,1,0,2:0:0:0:
419,108,128877,1,0,2:0:0:0:
420,108,128995,5,0,2:0:0:0:
423,142,129112,1,0,2:0:0:0:
417,177,129230,1,0,2:0:0:0:
403,208,129347,1,0,2:0:0:0:
380,235,129465,1,0,2:0:0:0:
352,255,129583,1,0,2:0:0:0:
318,261,129701,6,0,P|306:313|418:330,1,175.00000667572,0|0,2:0|2:0,2:0:0:0:
400,348,130407,1,0,2:0:0:0:
456,238,130642,1,0,2:0:0:0:
456,238,130760,2,0,L|436:146,1,70.0000026702882,0|0,2:0|2:0,2:0:0:0:
383,105,131112,1,0,2:0:0:0:
325,169,131348,1,0,2:0:0:0:
325,169,131465,2,0,L|314:251,1,70.0000026702882,0|0,2:0|2:0,2:0:0:0:
251,103,131818,1,0,2:0:0:0:
213,233,132054,1,0,2:0:0:0:
213,233,132171,2,0,L|189:149,1,70.0000026702882,0|0,2:0|2:0,2:0:0:0:
260,104,132524,6,0,P|164:82|105:151,1,175.00000667572,0|0,2:0|2:0,2:0:0:0:
112,128,133230,1,0,2:0:0:0:
38,314,133583,1,0,0:0:0:0:
131,217,133936,1,0,2:0:0:0:
143,353,134289,1,0,0:0:0:0:
236,206,134642,1,0,2:0:0:0:
291,103,135348,6,0,P|348:186|324:279,1,175.00000667572,0|0,2:0|2:0,2:0:0:0:
338,255,136054,1,0,2:0:0:0:
236,206,136289,1,0,2:0:0:0:
236,206,136407,1,0,2:0:0:0:
147,308,136642,1,0,2:0:0:0:
147,308,136760,1,0,2:0:0:0:
291,103,137466,1,0,2:0:0:0:
160,85,137701,1,0,2:0:0:0:
160,85,137819,2,0,L|75:128,1,70.0000026702882,0|0,2:0|2:0,2:0:0:0:
97,116,138172,1,0,2:0:0:0:
189,178,138877,6,0,L|182:211,1,17.500000667572
63,166,139466,1,0,0:0:0:0:
58,206,139583,2,0,L|56:261,1,35.0000013351441
81,275,139819,1,0,0:0:0:0:
113,303,139936,5,0,2:0:0:0:
142,321,140053,1,0,2:0:0:0:
176,330,140171,1,0,2:0:0:0:
211,329,140288,1,0,2:0:0:0:
244,318,140406,1,0,2:0:0:0:
272,298,140524,1,0,2:0:0:0:
294,271,140641,1,0,2:0:0:0:
307,239,140759,1,0,2:0:0:0:
309,204,140877,1,0,2:0:0:0:
291,174,140995,6,0,P|277:116|387:108,1,175.00000667572,0|0,2:0|2:0,2:0:0:0:
368,85,141701,1,0,2:0:0:0:
428,188,142407,1,0,2:0:0:0:
376,292,142642,1,0,2:0:0:0:
376,292,142760,1,0,2:0:0:0:
276,248,142995,1,0,2:0:0:0:
276,248,143113,1,0,2:0:0:0:
168,224,143348,1,0,2:0:0:0:
168,224,143466,2,0,L|156:304,1,70.0000026702882,0|0,2:0|2:0,2:0:0:0:
157,293,143819,1,0,2:0:0:0:
81,97,144524,6,0,L|82:125,1,17.500000667572
196,84,145230,5,0,2:0:0:0:
222,61,145347,1,0,2:0:0:0:
255,49,145465,1,0,2:0:0:0:
290,48,145582,1,0,2:0:0:0:
323,58,145700,1,0,2:0:0:0:
352,78,145818,1,0,2:0:0:0:
377,102,145936,2,0,L|385:200,1,70.0000026702882,0|0,2:0|2:0,2:0:0:0:
349,161,146289,2,0,L|305:230,1,70.0000026702882,0|0,2:0|2:0,2:0:0:0:
311,220,146642,1,0,2:0:0:0:
223,81,146995,5,0,2:0:0:0:
84,155,147348,1,0,2:0:0:0:
249,223,147583,1,0,2:0:0:0:
249,223,147701,1,0,2:0:0:0:
137,280,147936,1,0,2:0:0:0:
137,280,148054,1,0,2:0:0:0:
270,336,148407,1,0,2:0:0:0:
366,220,148760,1,0,2:0:0:0:
393,317,148995,1,0,2:0:0:0:
393,317,149113,2,0,L|471:299,1,70.0000026702882,0|0,2:0|2:0,2:0:0:0:
461,301,149466,1,0,2:0:0:0:
282,141,150172,6,0,L|297:131,1,17.500000667572
367,69,150524,1,0,0:0:0:0:
481,116,150760,1,0,0:0:0:0:
457,159,150877,2,0,L|414:194,1,35.0000013351441
398,201,151113,5,0,2:0:0:0:
366,220,151231,1,0,2:0:0:0:
337,238,151348,1,0,2:0:0:0:
303,247,151466,1,0,2:0:0:0:
268,246,151583,1,0,2:0:0:0:
235,235,151701,1,0,2:0:0:0:
207,215,151819,1,0,2:0:0:0:
185,188,151936,1,0,2:0:0:0:
172,156,152054,1,0,2:0:0:0:
170,121,152172,1,0,2:0:0:0:
188,91,152290,6,0,P|174:50|62:51,1,175.00000667572,0|0,2:0|2:0,2:0:0:0:
61,51,152995,2,0,L|48:148,1,70.0000026702882,0|0,2:0|2:0,2:0:0:0:
124,169,153524,1,0,2:0:0:0:
75,226,153702,1,0,2:0:0:0:
264,136,153937,1,0,2:0:0:0:
264,136,154055,1,0,2:0:0:0:
282,293,154290,1,0,2:0:0:0:
282,293,154408,1,0,2:0:0:0:
157,253,154643,1,0,2:0:0:0:
157,253,154761,2,0,L|145:333,1,70.0000026702882,0|0,2:0|2:0,2:0:0:0:
146,322,155114,5,0,2:0:0:0:
272,212,155466,1,0,0:0:0:0:
248,345,155701,1,0,0:0:0:0:
248,345,155819,1,0,2:0:0:0:
348,252,156172,1,0,0:0:0:0:
339,352,156407,5,0,0:0:0:0:
375,349,156525,1,0,2:0:0:0:
404,330,156642,1,0,2:0:0:0:
426,302,156760,1,0,2:0:0:0:
438,270,156877,1,0,2:0:0:0:
439,235,156995,1,0,2:0:0:0:
428,202,157113,1,0,2:0:0:0:
413,171,157231,2,0,L|322:133,1,70.0000026702882,0|0,2:0|2:0,2:0:0:0:
348,179,157584,2,0,L|277:230,1,70.0000026702882,0|0,2:0|2:0,2:0:0:0:
291,219,157936,1,0,2:0:0:0:
147,199,158289,5,0,0:0:0:0:
179,305,158524,1,0,2:0:0:0:
179,305,158642,1,0,2:0:0:0:
250,153,158995,5,0,0:0:0:0:
147,199,159230,1,0,0:0:0:0:
147,199,159348,1,0,2:0:0:0:
96,85,159583,1,0,0:0:0:0:
96,85,159701,1,0,0:0:0:0:
260,84,160054,6,0,L|246:181,1,70.0000026702882,0|0,2:0|2:0,2:0:0:0:
250,153,160407,1,0,2:0:0:0:
164,196,160642,1,0,2:0:0:0:
164,196,160760,5,0,2:0:0:0:
244,333,161113,1,0,0:0:0:0:
271,250,161348,1,0,0:0:0:0:
271,250,161466,5,0,2:0:0:0:
381,292,161819,1,0,0:0:0:0:
381,171,162054,1,0,0:0:0:0:
381,171,162172,5,0,2:0:0:0:
260,84,162407,1,0,2:0:0:0:
260,84,162524,1,0,0:0:0:0:
164,196,162760,1,0,2:0:0:0:
164,196,162877,5,0,2:0:0:0:
271,250,163230,5,0,0:0:0:0:
381,171,163583,1,0,2:0:0:0:
164,196,163936,1,0,0:0:0:0:
343,85,164172,1,0,2:0:0:0:
343,85,164289,5,0,2:0:0:0:
266,167,164642,1,0,0:0:0:0:
367,258,164877,1,0,0:0:0:0:
367,258,164995,1,0,2:0:0:0:
271,251,165230,1,0,0:0:0:0:
271,250,165348,1,0,0:0:0:0:
219,152,165583,5,0,0:0:0:0:
266,167,165701,2,0,L|293:73,1,70.0000026702882,0|0,2:0|2:0,2:0:0:0:
285,99,166054,1,0,2:0:0:0:
200,39,166289,1,0,2:0:0:0:
200,39,166407,5,0,2:0:0:0:
77,132,166760,1,0,0:0:0:0:
180,261,166995,1,0,2:0:0:0:
180,261,167113,5,0,2:0:0:0:
45,264,167466,1,0,0:0:0:0:
266,237,167701,1,0,0:0:0:0:
266,237,167819,5,0,2:0:0:0:
215,145,168172,1,0,0:0:0:0:
376,194,168407,1,0,0:0:0:0:
376,194,168524,2,0,L|463:215,1,70.0000026702882,0|0,2:0|2:0,2:0:0:0:
444,210,168877,1,0,2:0:0:0:
447,113,169112,1,0,2:0:0:0:
447,113,169230,5,0,2:0:0:0:
254,205,169583,1,0,0:0:0:0:
297,98,169819,1,0,2:0:0:0:
297,98,169936,5,0,2:0:0:0:
254,205,170289,1,0,0:0:0:0:
169,282,170524,1,0,0:0:0:0:
169,282,170642,5,0,2:0:0:0:
157,156,170877,1,0,0:0:0:0:
157,156,170995,1,0,0:0:0:0:
265,66,171348,6,0,L|251:163,1,70.0000026702882,0|0,2:0|2:0,2:0:0:0:
255,135,171701,1,0,2:0:0:0:
157,156,171936,1,0,2:0:0:0:
157,156,172054,5,0,2:0:0:0:
195,49,172407,1,0,0:0:0:0:
126,101,172642,1,0,0:0:0:0:
87,117,172760,5,0,2:0:0:0:
59,138,172877,1,0,2:0:0:0:
45,169,172995,1,0,2:0:0:0:
48,204,173112,1,0,2:0:0:0:
68,232,173230,1,0,2:0:0:0:
99,247,173348,1,0,2:0:0:0:
134,244,173466,5,0,2:0:0:0:
134,244,173583,5,0,2:0:0:0:
162,225,173700,1,0,2:0:0:0:
197,229,173818,1,0,2:0:0:0:
220,253,173935,1,0,2:0:0:0:
223,288,174053,1,0,2:0:0:0:
223,288,174172,1,0,2:0:0:0:
204,317,174289,5,0,2:0:0:0:
175,337,174407,1,0,2:0:0:0:
142,345,174524,1,0,2:0:0:0:
107,341,174642,1,0,2:0:0:0:
77,323,174760,1,0,2:0:0:0:
49,301,174877,6,0,P|48:230|78:206,1,105.000004005432,0|0,2:0|2:0,2:0:0:0:
69,210,175348,1,0,0:0:0:0:
69,210,175466,1,0,2:0:0:0:
69,210,175583,1,0,2:0:0:0:
91,82,175819,6,0,L|151:112,1,35.0000013351441
157,95,176054,1,0,0:0:0:0:
190,104,176172,1,0,0:0:0:0:
210,132,176289,2,0,L|298:167,1,70.0000026702882
302,180,176642,1,0,0:0:0:0:
317,211,176760,1,0,0:0:0:0:
321,245,176877,1,0,0:0:0:0:
287,256,176995,2,0,L|273:353,1,70.0000026702882,0|0,2:0|2:0,2:0:0:0:
247,344,177348,5,0,0:0:0:0:
149,276,177583,1,0,2:0:0:0:
149,276,177701,1,0,2:0:0:0:
113,278,177819,1,0,2:0:0:0:
80,267,177936,1,0,2:0:0:0:
52,247,178054,1,0,2:0:0:0:
31,219,178171,1,0,2:0:0:0:
21,185,178289,1,0,2:0:0:0:
21,150,178407,5,0,2:0:0:0:
33,117,178524,1,0,2:0:0:0:
54,90,178642,1,0,2:0:0:0:
82,70,178760,1,0,2:0:0:0:
116,60,178877,1,0,2:0:0:0:
151,61,178995,1,0,2:0:0:0:
183,74,179113,2,0,L|201:83,15,13.125000500679,0|0|0|0|0|0|0|0|0|0|0|0|0|0|0|0,2:0|2:0|2:0|2:0|2:0|2:0|2:0|2:0|2:0|2:0|2:0|2:0|2:0|2:0|2:0|2:0,2:0:0:0:
183,74,179819,1,0,2:0:0:0:
287,256,180172,1,0,0:0:0:0:
277,136,180524,6,0,P|368:79|457:143,1,210.000008010865,0|0,2:0|2:0,2:0:0:0:
366,178,181466,2,0,L|379:234,1,35.0000013351441,0|0,2:0|2:0,2:0:0:0:
373,212,181701,1,0,2:0:0:0:
373,212,181819,1,0,2:0:0:0:
469,245,181936,2,0,P|383:311|294:276,1,210.000008010865,0|0,2:0|2:0,2:0:0:0:
326,198,182877,1,0,0:0:0:0:
326,198,182995,2,0,P|280:189|233:216,1,70.0000026702882,0|0,2:0|2:0,2:0:0:0:
189,297,183348,6,0,P|152:260|142:195,1,105.000004005432,0|0,2:0|2:0,2:0:0:0:
159,78,184054,1,0,2:0:0:0:
250,134,184407,2,0,L|339:155,1,70.0000026702882,0|0,2:0|2:0,2:0:0:0:
318,150,184760,1,0,2:0:0:0:
266,37,185113,5,0,2:0:0:0:
299,26,185230,1,0,2:0:0:0:
333,26,185348,1,0,2:0:0:0:
366,38,185465,1,0,2:0:0:0:
393,60,185583,1,0,2:0:0:0:
412,89,185701,1,0,2:0:0:0:
420,123,185818,1,0,2:0:0:0:
417,158,185936,1,0,2:0:0:0:
402,189,186054,1,0,2:0:0:0:
371,205,186171,6,0,P|337:275|214:279,1,210.000008010865,0|0,2:0|2:0,2:0:0:0:
273,199,187583,1,0,2:0:0:0:
273,199,187818,1,0,2:0:0:0:
273,199,187936,2,0,L|175:190,1,70.0000026702882,0|0,2:0|2:0,2:0:0:0:
82,146,188289,1,0,2:0:0:0:
118,257,188466,2,0,L|40:249,1,52.5000020027161,0|0,2:0|2:0,2:0:0:0:
65,251,188877,1,0,2:0:0:0:
221,285,188995,6,0,P|276:334|352:251,1,210.000008010865,0|0,2:0|2:0,2:0:0:0:
353,253,190407,1,0,2:0:0:0:
386,242,190524,1,0,2:0:0:0:
414,222,190642,1,0,2:0:0:0:
437,195,190759,1,0,2:0:0:0:
450,163,190877,1,0,2:0:0:0:
454,128,190995,1,0,2:0:0:0:
441,96,191113,2,0,L|349:98,1,70.0000026702882,0|0,2:0|2:0,2:0:0:0:
350,69,191465,2,0,L|320:132,1,70.0000026702882,0|0,2:0|2:0,2:0:0:0:
319,132,191818,1,0,2:0:0:0:
248,248,192171,6,0,P|178:215|163:164,1,105.000004005432,0|0,2:0|2:0,2:0:0:0:
244,165,192760,2,0,L|215:113,1,35.0000013351441,0|0,2:0|2:0,2:0:0:0:
218,56,192995,2,0,L|155:63,1,35.0000013351441,0|0,2:0|2:0,2:0:0:0:
183,59,193230,1,0,2:0:0:0:
103,153,193583,2,0,L|90:251,1,70.0000026702882,0|0,2:0|2:0,2:0:0:0:
93,222,193936,1,0,2:0:0:0:
100,256,194053,1,0,2:0:0:0:
118,286,194171,1,0,2:0:0:0:
145,308,194288,1,0,2:0:0:0:
178,318,194406,1,0,2:0:0:0:
213,317,194524,1,0,2:0:0:0:
241,296,194642,6,0,P|226:217|330:166,1,210.000008010865,0|0,2:0|2:0,2:0:0:0:
304,244,195701,2,0,L|381:277,1,70.0000026702882,0|0,2:0|2:0,2:0:0:0:
368,271,196054,1,0,2:0:0:0:
307,344,196407,1,0,2:0:0:0:
338,357,196524,1,0,2:0:0:0:
373,361,196642,1,0,2:0:0:0:
407,354,196759,1,0,2:0:0:0:
438,337,196877,1,0,2:0:0:0:
461,311,196995,1,0,2:0:0:0:
476,279,197112,1,0,2:0:0:0:
480,245,197230,1,0,2:0:0:0:
474,211,197348,1,0,2:0:0:0:
466,194,197466,6,0,P|401:119|308:165,1,210.000008010865,0|0,2:0|2:0,2:0:0:0:
390,202,198877,1,0,2:0:0:0:
390,202,199113,1,0,2:0:0:0:
390,202,199230,2,0,L|385:289,1,70.0000026702882,0|0,2:0|2:0,2:0:0:0:
385,271,199583,1,0,2:0:0:0:
427,352,200289,6,0,P|340:349|306:230,1,210.000008010865,0|0,2:0|2:0,2:0:0:0:
299,245,201113,5,0,2:0:0:0:
314,214,201230,1,0,2:0:0:0:
319,179,201348,1,0,2:0:0:0:
311,145,201465,1,0,2:0:0:0:
292,116,201583,1,0,2:0:0:0:
264,95,201701,1,0,2:0:0:0:
230,86,201818,1,0,2:0:0:0:
196,88,201936,1,0,2:0:0:0:
162,99,202054,2,0,L|159:110,11,8.75,0|0|0|0|0|0|0|0|0|0|0|0,2:0|2:0|2:0|2:0|2:0|2:0|2:0|2:0|2:0|2:0|2:0|2:0,2:0:0:0:
159,107,202407,1,0,2:0:0:0:
110,232,202760,1,0,0:0:0:0:
240,248,203113,6,0,P|316:182|297:88,1,175.00000667572,0|0,2:0|2:0,2:0:0:0:
314,115,203818,1,0,2:0:0:0:
223,151,204054,1,0,2:0:0:0:
223,151,204171,2,0,L|152:98,1,70.0000026702882,0|0,2:0|2:0,2:0:0:0:
81,67,204524,1,0,2:0:0:0:
52,160,204760,1,0,2:0:0:0:
52,160,204877,2,0,L|33:256,1,70.0000026702882,0|0,2:0|2:0,2:0:0:0:
136,190,205230,1,0,2:0:0:0:
221,215,205465,1,0,2:0:0:0:
221,215,205583,2,0,L|211:306,1,70.0000026702882,0|0,2:0|2:0,2:0:0:0:
133,328,205936,6,0,P|214:374|290:331,1,175.00000667572,0|0,2:0|2:0,2:0:0:0:
343,283,206642,1,0,2:0:0:0:
371,262,206759,1,0,2:0:0:0:
385,231,206877,1,0,2:0:0:0:
382,196,206994,1,0,2:0:0:0:
362,168,207112,1,0,2:0:0:0:
331,153,207230,1,0,2:0:0:0:
296,156,207347,1,0,2:0:0:0:
296,156,207465,1,0,2:0:0:0:
268,175,207582,1,0,2:0:0:0:
233,171,207700,1,0,2:0:0:0:
210,147,207817,1,0,2:0:0:0:
207,112,207935,1,0,2:0:0:0:
207,112,208054,1,0,2:0:0:0:
226,83,208171,1,0,2:0:0:0:
255,63,208289,1,0,2:0:0:0:
288,55,208406,1,0,2:0:0:0:
323,59,208524,1,0,2:0:0:0:
353,77,208642,1,0,2:0:0:0:
379,101,208760,6,0,P|412:160|347:265,1,175.00000667572,0|0,2:0|2:0,2:0:0:0:
372,252,209465,1,0,2:0:0:0:
314,175,209701,1,0,2:0:0:0:
314,175,209818,2,0,L|223:168,1,70.0000026702882,0|0,2:0|2:0,2:0:0:0:
172,110,210171,1,0,2:0:0:0:
82,146,210407,1,0,2:0:0:0:
82,146,210524,2,0,L|78:235,1,70.0000026702882,0|0,2:0|2:0,2:0:0:0:
179,218,210877,1,0,2:0:0:0:
278,297,211113,1,0,2:0:0:0:
278,297,211230,2,0,L|197:303,1,70.0000026702882,0|0,2:0|2:0,2:0:0:0:
142,362,211583,6,0,P|122:283|200:213,1,175.00000667572,0|0,2:0|2:0,2:0:0:0:
179,217,212289,1,0,2:0:0:0:
230,181,212995,1,0,2:0:0:0:
286,152,213701,1,0,2:0:0:0:
347,65,214407,6,0,P|398:139|352:231,1,175.00000667572,0|0,2:0|2:0,2:0:0:0:
373,213,215113,1,0,2:0:0:0:
300,151,215348,1,0,2:0:0:0:
300,151,215465,2,0,L|269:239,1,70.0000026702882,0|0,2:0|2:0,2:0:0:0:
170,195,215818,1,0,2:0:0:0:
86,232,216054,1,0,2:0:0:0:
86,232,216171,2,0,L|55:320,1,70.0000026702882,0|0,2:0|2:0,2:0:0:0:
154,281,216524,1,0,2:0:0:0:
245,300,216760,1,0,2:0:0:0:
245,300,216877,2,0,L|328:301,1,70.0000026702882,0|0,2:0|2:0,2:0:0:0:
396,342,217230,6,0,P|398:267|322:213,1,175.00000667572,0|0,2:0|2:0,2:0:0:0:
322,213,217936,1,0,2:0:0:0:
291,229,218053,1,0,2:0:0:0:
257,225,218171,1,0,2:0:0:0:
230,204,218288,1,0,2:0:0:0:
218,171,218406,1,0,2:0:0:0:
225,138,218524,1,0,2:0:0:0:
225,138,218642,5,0,2:0:0:0:
217,104,218759,1,0,2:0:0:0:
193,79,218877,1,0,2:0:0:0:
160,68,218994,1,0,2:0:0:0:
126,75,219112,1,0,2:0:0:0:
100,97,219230,1,0,2:0:0:0:
100,97,219348,5,0,2:0:0:0:
96,131,219465,1,0,2:0:0:0:
102,166,219583,1,0,2:0:0:0:
116,197,219700,1,0,2:0:0:0:
139,224,219818,1,0,2:0:0:0:
167,244,219936,1,0,2:0:0:0:
202,250,220054,6,0,P|214:302|102:319,1,175.00000667572,0|0,2:0|2:0,2:0:0:0:
119,337,220760,1,0,2:0:0:0:
56,238,220995,1,0,2:0:0:0:
56,238,221113,2,0,L|76:146,1,70.0000026702882,0|0,2:0|2:0,2:0:0:0:
129,105,221465,1,0,2:0:0:0:
193,169,221701,1,0,2:0:0:0:
193,169,221818,2,0,L|204:251,1,70.0000026702882,0|0,2:0|2:0,2:0:0:0:
261,103,222171,1,0,2:0:0:0:
308,241,222407,1,0,2:0:0:0:
308,241,222524,2,0,L|332:157,1,70.0000026702882,0|0,2:0|2:0,2:0:0:0:
361,66,222877,5,0,2:0:0:0:
395,72,222994,1,0,2:0:0:0:
427,86,223112,1,0,2:0:0:0:
454,108,223229,1,0,2:0:0:0:
474,136,223347,1,0,2:0:0:0:
488,169,223465,1,0,2:0:0:0:
492,203,223582,5,0,2:0:0:0:
488,238,223700,1,0,2:0:0:0:
476,270,223818,1,0,2:0:0:0:
455,299,223935,1,0,2:0:0:0:
429,321,224053,1,0,2:0:0:0:
397,337,224171,1,0,2:0:0:0:
362,337,224289,2,0,L|342:340,15,13.125000500679,0|0|0|0|0|0|0|0|0|0|0|0|0|0|0|0,2:0|2:0|2:0|2:0|2:0|2:0|2:0|2:0|2:0|2:0|2:0|2:0|2:0|2:0|2:0|2:0,2:0:0:0:
362,337,224995,1,0,2:0:0:0:
327,173,225701,6,0,P|241:151|164:246,1,210.000008010865,0|0,2:0|2:0,2:0:0:0:
266,251,226642,1,0,2:0:0:0:
266,251,226760,1,0,2:0:0:0:
180,324,226995,1,0,2:0:0:0:
180,324,227113,1,0,2:0:0:0:
77,266,227819,1,0,2:0:0:0:
110,123,228054,1,0,2:0:0:0:
110,123,228172,2,0,L|195:79,1,70.0000026702882,0|0,2:0|2:0,2:0:0:0:
172,91,228525,1,0,2:0:0:0:
177,218,229642,5,0,2:0:0:0:
177,218,229877,1,0,2:0:0:0:
221,334,230289,1,0,2:0:0:0:
190,350,230406,1,0,2:0:0:0:
156,346,230524,1,0,2:0:0:0:
131,323,230641,1,0,2:0:0:0:
131,323,230760,1,0,2:0:0:0:
156,299,230877,1,0,2:0:0:0:
168,267,230995,1,0,2:0:0:0:
163,233,231112,1,0,2:0:0:0:
143,204,231230,1,0,2:0:0:0:
115,183,231348,6,0,P|116:102|323:73,1,315.000012016297,0|0,2:0|2:0,2:0:0:0:
223,134,232760,1,0,2:0:0:0:
257,227,232995,1,0,2:0:0:0:
257,227,233113,1,0,2:0:0:0:
321,146,233333,1,0,2:0:0:0:
321,146,233466,1,0,2:0:0:0:
398,224,233701,1,0,2:0:0:0:
398,224,233819,2,0,L|489:197,1,70.0000026702882,0|0,2:0|2:0,2:0:0:0:
465,204,234172,1,0,2:0:0:0:
338,270,235583,5,0,2:0:0:0:
312,293,235700,1,0,2:0:0:0:
279,305,235818,1,0,2:0:0:0:
244,306,235935,1,0,2:0:0:0:
211,296,236053,1,0,2:0:0:0:
182,276,236171,1,0,2:0:0:0:
157,252,236289,2,0,L|149:154,1,70.0000026702882,0|0,2:0|2:0,2:0:0:0:
185,193,236642,2,0,L|229:124,1,70.0000026702882,0|0,2:0|2:0,2:0:0:0:
223,134,236995,1,0,2:0:0:0:
232,31,237348,5,0,2:0:0:0:
85,104,237701,1,0,2:0:0:0:
265,221,237936,1,0,2:0:0:0:
265,221,238054,1,0,2:0:0:0:
141,266,238289,1,0,2:0:0:0:
270,338,238760,1,0,2:0:0:0:
366,222,239113,1,0,2:0:0:0:
393,319,239348,1,0,2:0:0:0:
393,319,239466,2,0,L|471:301,1,70.0000026702882,0|0,2:0|2:0,2:0:0:0:
461,303,239819,1,0,2:0:0:0:
389,202,240922,5,0,2:0:0:0:
393,319,241186,1,0,2:0:0:0:
389,202,241583,1,0,2:0:0:0:
360,220,241701,1,0,2:0:0:0:
326,229,241819,1,0,2:0:0:0:
291,228,241936,1,0,2:0:0:0:
258,217,242054,1,0,2:0:0:0:
230,197,242172,1,0,2:0:0:0:
208,170,242289,1,0,2:0:0:0:
195,138,242407,1,0,2:0:0:0:
193,103,242525,1,0,2:0:0:0:
211,73,242643,6,0,P|175:57|84:147,1,175.00000667572,0|0,2:0|2:0,2:0:0:0:
83,133,243348,1,0,0:0:0:0:
104,230,243569,1,0,0:0:0:0:
216,315,243877,1,0,0:0:0:0:
216,315,244010,1,0,0:0:0:0:
278,222,244274,1,0,0:0:0:0:
278,222,244407,1,0,0:0:0:0:
158,199,244627,1,0,0:0:0:0:
158,199,244760,1,0,2:0:0:0:
251,140,244995,1,0,2:0:0:0:
251,140,245113,2,0,L|336:96,1,70.0000026702882,0|0,2:0|2:0,2:0:0:0:
256,192,245466,12,0,246760,0:0:0:0:
256,192,246877,5,0,0:0:0:0:
256,192,246995,12,0,248289,0:0:0:0:
