osu file format v14

[General]
AudioFilename: audio.mp3
AudioLeadIn: 0
PreviewTime: 137489
Countdown: 0
SampleSet: None
StackLeniency: 0.7
Mode: 1
LetterboxInBreaks: 0
WidescreenStoryboard: 0

[Editor]
DistanceSpacing: 0.8
BeatDivisor: 4
GridSize: 32
TimelineZoom: 3.299999

[Metadata]
Title:Positi-bu vs Negati-bu
TitleUnicode:ポジティ部vsネガティ部
Artist:Jesus-P
ArtistUnicode:じーざす
Creator:Diva Days
Version:Positi-Oni
Source:
Tags:vocaloid 鏡音リン kagamine rin 鏡音レン kagamine len グライダー Glider ワンダフル☆オポチュニティ! WONDERFUL★OPPORTUNITY!
BeatmapID:1634165
BeatmapSetID:777977

[Difficulty]
HPDrainRate:6
CircleSize:2
OverallDifficulty:6.5
ApproachRate:0
SliderMultiplier:1.4
SliderTickRate:1

[Events]
//Background and Video events
0,0,"bg.jpg",0,0
//Break Periods
//Storyboard Layer 0 (Background)
//Storyboard Layer 1 (Fail)
//Storyboard Layer 2 (Pass)
//Storyboard Layer 3 (Foreground)
//Storyboard Sound Samples

[TimingPoints]
1490,363.636363636364,4,1,0,70,1,0
29853,363.636363636364,4,1,0,55,1,0
61853,-100,4,1,0,70,0,0
66216,-100,4,1,0,80,0,1
74943,-100,4,1,0,55,0,0
77853,-100,4,1,0,70,0,1
88398,-100,4,1,0,80,0,0
101125,-100,4,1,0,55,0,0
133125,-100,4,1,0,70,0,0
137489,-100,4,1,0,80,0,1
146216,-100,4,1,0,55,0,0
149125,-100,4,1,0,70,0,1
160762,410.958904109589,4,1,0,45,1,0
177200,363.636363636364,4,1,0,70,1,0
188472,-90.9090909090909,4,1,0,70,0,0
188563,-83.3333333333333,4,1,0,70,0,0
188654,-76.9230769230769,4,1,0,70,0,0
188745,-71.4285714285714,4,1,0,70,0,0
188836,-86.9565217391304,4,1,0,80,0,1
200472,-80,4,1,0,80,0,1
209200,-100,4,1,0,55,0,0
212836,363.636363636364,4,1,0,80,1,0

[HitObjects]
256,192,1490,5,0,0:0:0:0:
256,192,1762,1,0,0:0:0:0:
256,192,2035,1,0,0:0:0:0:
256,192,2217,1,8,0:0:0:0:
256,192,2490,1,8,0:0:0:0:
256,192,2762,1,8,0:0:0:0:
256,192,2944,1,4,0:0:0:0:
256,192,4399,1,12,0:0:0:0:
256,192,5126,1,0,0:0:0:0:
256,192,5853,1,4,0:0:0:0:
256,192,6217,1,8,0:0:0:0:
256,192,6308,1,0,0:0:0:0:
256,192,6399,1,0,0:0:0:0:
256,192,6580,1,0,0:0:0:0:
256,192,6671,1,8,0:0:0:0:
256,192,6762,1,0,0:0:0:0:
256,192,6853,1,0,0:0:0:0:
256,192,6944,1,8,0:0:0:0:
256,192,7126,1,8,0:0:0:0:
256,192,7308,1,0,0:0:0:0:
256,192,7490,1,8,0:0:0:0:
256,192,7580,1,8,0:0:0:0:
256,192,7671,1,0,0:0:0:0:
256,192,7853,1,8,0:0:0:0:
256,192,8035,1,0,0:0:0:0:
256,192,8126,1,8,0:0:0:0:
256,192,8217,1,0,0:0:0:0:
256,192,8308,1,0,0:0:0:0:
256,192,8399,1,8,0:0:0:0:
256,192,8580,1,8,0:0:0:0:
256,192,8762,1,0,0:0:0:0:
256,192,8853,1,0,0:0:0:0:
256,192,8944,1,8,0:0:0:0:
256,192,9126,1,8,0:0:0:0:
256,192,9308,1,0,0:0:0:0:
256,192,9399,1,8,0:0:0:0:
256,192,9490,1,0,0:0:0:0:
256,192,9671,1,8,0:0:0:0:
256,192,9762,1,8,0:0:0:0:
256,192,9853,1,0,0:0:0:0:
256,192,10035,1,8,0:0:0:0:
256,192,10217,1,0,0:0:0:0:
256,192,10308,1,0,0:0:0:0:
256,192,10399,1,8,0:0:0:0:
256,192,10490,1,8,0:0:0:0:
256,192,10580,1,0,0:0:0:0:
256,192,10762,1,8,0:0:0:0:
256,192,10944,1,0,0:0:0:0:
256,192,11035,1,8,0:0:0:0:
256,192,11126,1,0,0:0:0:0:
256,192,11308,1,8,0:0:0:0:
256,192,11399,1,0,0:0:0:0:
256,192,11490,1,8,0:0:0:0:
256,192,11580,1,0,0:0:0:0:
256,192,11671,1,4,0:0:0:0:
256,192,12035,1,8,0:0:0:0:
256,192,12126,1,0,0:0:0:0:
256,192,12217,1,0,0:0:0:0:
256,192,12399,1,0,0:0:0:0:
256,192,12490,1,8,0:0:0:0:
256,192,12580,1,0,0:0:0:0:
256,192,12671,1,0,0:0:0:0:
256,192,12762,1,8,0:0:0:0:
256,192,12944,1,8,0:0:0:0:
256,192,13126,1,0,0:0:0:0:
256,192,13217,1,8,0:0:0:0:
256,192,13308,1,0,0:0:0:0:
256,192,13490,1,8,0:0:0:0:
256,192,13671,1,0,0:0:0:0:
256,192,13762,1,0,0:0:0:0:
256,192,13853,1,8,0:0:0:0:
256,192,14035,1,8,0:0:0:0:
256,192,14217,1,0,0:0:0:0:
256,192,14308,1,0,0:0:0:0:
256,192,14399,1,8,0:0:0:0:
256,192,14490,1,8,0:0:0:0:
256,192,14580,1,0,0:0:0:0:
256,192,14762,1,8,0:0:0:0:
256,192,14944,1,0,0:0:0:0:
256,192,15035,1,8,0:0:0:0:
256,192,15126,1,0,0:0:0:0:
256,192,15217,1,0,0:0:0:0:
256,192,15308,1,8,0:0:0:0:
256,192,15490,1,8,0:0:0:0:
256,192,15671,1,0,0:0:0:0:
256,192,15762,1,0,0:0:0:0:
256,192,15853,1,8,0:0:0:0:
256,192,16035,1,0,0:0:0:0:
256,192,16126,1,8,0:0:0:0:
256,192,16217,1,0,0:0:0:0:
256,192,16308,1,8,0:0:0:0:
256,192,16399,1,0,0:0:0:0:
256,192,16580,1,8,0:0:0:0:
256,192,16671,1,8,0:0:0:0:
256,192,16762,1,0,0:0:0:0:
256,192,16853,1,0,0:0:0:0:
256,192,16944,1,8,0:0:0:0:
256,192,17126,1,0,0:0:0:0:
256,192,17217,1,0,0:0:0:0:
256,192,17308,1,8,0:0:0:0:
256,192,17399,1,8,0:0:0:0:
256,192,17671,1,0,0:0:0:0:
256,192,17762,1,0,0:0:0:0:
256,192,17853,1,12,0:0:0:0:
256,192,18217,1,0,0:0:0:0:
256,192,18308,1,8,0:0:0:0:
256,192,18399,1,0,0:0:0:0:
256,192,18490,1,0,0:0:0:0:
256,192,18580,1,8,0:0:0:0:
256,192,18762,1,8,0:0:0:0:
256,192,18944,1,0,0:0:0:0:
256,192,19126,1,8,0:0:0:0:
256,192,19217,1,8,0:0:0:0:
256,192,19308,1,0,0:0:0:0:
256,192,19490,1,8,0:0:0:0:
256,192,19671,1,0,0:0:0:0:
256,192,19762,1,8,0:0:0:0:
256,192,19853,1,0,0:0:0:0:
256,192,19944,1,0,0:0:0:0:
256,192,20035,1,8,0:0:0:0:
256,192,20217,1,8,0:0:0:0:
256,192,20399,1,0,0:0:0:0:
256,192,20490,1,8,0:0:0:0:
256,192,20580,1,0,0:0:0:0:
256,192,20762,1,8,0:0:0:0:
256,192,20944,1,8,0:0:0:0:
256,192,21035,1,0,0:0:0:0:
256,192,21126,1,0,0:0:0:0:
256,192,21217,1,8,0:0:0:0:
256,192,21308,1,0,0:0:0:0:
256,192,21490,1,8,0:0:0:0:
256,192,21671,1,8,0:0:0:0:
256,192,21762,1,0,0:0:0:0:
256,192,21853,1,0,0:0:0:0:
256,192,22035,1,8,0:0:0:0:
256,192,22217,1,0,0:0:0:0:
256,192,22308,1,8,0:0:0:0:
256,192,22399,1,0,0:0:0:0:
256,192,22580,1,0,0:0:0:0:
256,192,22671,1,0,0:0:0:0:
256,192,22762,1,8,0:0:0:0:
256,192,22944,1,8,0:0:0:0:
256,192,23035,1,0,0:0:0:0:
256,192,23126,1,8,0:0:0:0:
256,192,23217,1,0,0:0:0:0:
256,192,23308,1,4,0:0:0:0:
256,192,23490,1,8,0:0:0:0:
256,192,23671,1,0,0:0:0:0:
256,192,23762,1,0,0:0:0:0:
256,192,23853,1,8,0:0:0:0:
256,192,23944,1,8,0:0:0:0:
256,192,24035,1,0,0:0:0:0:
256,192,24126,1,0,0:0:0:0:
256,192,24217,1,8,0:0:0:0:
256,192,24399,1,8,0:0:0:0:
256,192,24580,1,0,0:0:0:0:
256,192,24671,1,8,0:0:0:0:
256,192,24762,1,0,0:0:0:0:
256,192,24944,1,0,0:0:0:0:
256,192,25126,1,8,0:0:0:0:
256,192,25217,1,0,0:0:0:0:
256,192,25308,1,8,0:0:0:0:
256,192,25490,1,0,0:0:0:0:
256,192,25580,1,0,0:0:0:0:
256,192,25671,1,8,0:0:0:0:
256,192,25762,1,0,0:0:0:0:
256,192,25853,1,8,0:0:0:0:
256,192,26035,1,8,0:0:0:0:
256,192,26217,1,0,0:0:0:0:
256,192,26308,1,8,0:0:0:0:
256,192,26399,1,0,0:0:0:0:
256,192,26580,1,8,0:0:0:0:
256,192,26671,1,0,0:0:0:0:
256,192,26762,1,8,0:0:0:0:
256,192,26853,1,0,0:0:0:0:
256,192,26944,1,0,0:0:0:0:
256,192,27035,1,0,0:0:0:0:
256,192,27126,1,8,0:0:0:0:
256,192,27308,1,0,0:0:0:0:
256,192,27490,1,12,0:0:0:0:
256,192,27853,1,0,0:0:0:0:
256,192,27944,1,0,0:0:0:0:
256,192,28035,1,8,0:0:0:0:
256,192,28217,1,0,0:0:0:0:
256,192,28399,1,8,0:0:0:0:
256,192,28490,1,0,0:0:0:0:
256,192,28671,1,8,0:0:0:0:
256,192,28762,1,0,0:0:0:0:
256,192,29853,1,0,0:0:0:0:
256,192,30216,1,8,0:0:0:0:
256,192,30580,1,0,0:0:0:0:
256,192,30762,1,8,0:0:0:0:
256,192,30943,1,0,0:0:0:0:
256,192,31125,1,8,0:0:0:0:
256,192,31307,1,0,0:0:0:0:
256,192,31671,1,8,0:0:0:0:
256,192,32034,1,8,0:0:0:0:
256,192,32216,1,0,0:0:0:0:
256,192,32398,1,8,0:0:0:0:
256,192,32762,1,0,0:0:0:0:
256,192,33125,1,8,0:0:0:0:
256,192,33489,1,0,0:0:0:0:
256,192,33671,1,8,0:0:0:0:
256,192,33853,1,0,0:0:0:0:
256,192,34034,1,8,0:0:0:0:
256,192,34398,1,0,0:0:0:0:
256,192,34580,1,8,0:0:0:0:
256,192,34762,1,0,0:0:0:0:
256,192,34943,1,0,0:0:0:0:
256,192,35125,1,0,0:0:0:0:
256,192,35216,1,0,0:0:0:0:
256,192,35307,1,8,0:0:0:0:
256,192,35489,1,8,0:0:0:0:
256,192,35580,1,0,0:0:0:0:
256,192,35671,1,0,0:0:0:0:
256,192,36034,1,8,0:0:0:0:
256,192,36398,1,0,0:0:0:0:
256,192,36580,1,8,0:0:0:0:
256,192,36762,1,0,0:0:0:0:
256,192,36943,1,8,0:0:0:0:
256,192,37125,1,0,0:0:0:0:
256,192,37489,1,0,0:0:0:0:
256,192,37853,1,8,0:0:0:0:
256,192,38034,1,0,0:0:0:0:
256,192,38398,1,8,0:0:0:0:
256,192,38489,1,8,0:0:0:0:
256,192,38580,1,0,0:0:0:0:
256,192,38943,1,8,0:0:0:0:
256,192,39307,1,0,0:0:0:0:
256,192,39489,1,8,0:0:0:0:
256,192,39671,1,0,0:0:0:0:
256,192,39853,1,8,0:0:0:0:
256,192,40398,1,8,0:0:0:0:
256,192,40762,1,0,0:0:0:0:
256,192,40943,1,0,0:0:0:0:
256,192,41125,1,0,0:0:0:0:
256,192,41216,1,0,0:0:0:0:
256,192,41307,1,8,0:0:0:0:
256,192,41398,1,8,0:0:0:0:
256,192,41489,1,4,0:0:0:0:
256,192,41853,1,8,0:0:0:0:
256,192,42216,1,0,0:0:0:0:
256,192,42307,1,0,0:0:0:0:
256,192,42398,1,8,0:0:0:0:
256,192,42580,1,0,0:0:0:0:
256,192,42762,1,8,0:0:0:0:
256,192,42943,1,0,0:0:0:0:
256,192,43307,1,8,0:0:0:0:
256,192,43671,1,8,0:0:0:0:
256,192,43762,1,0,0:0:0:0:
256,192,43853,1,0,0:0:0:0:
256,192,44034,1,0,0:0:0:0:
256,192,44216,1,8,0:0:0:0:
256,192,44307,1,8,0:0:0:0:
256,192,44398,1,0,0:0:0:0:
256,192,44489,1,0,0:0:0:0:
256,192,44580,1,0,0:0:0:0:
256,192,44762,1,8,0:0:0:0:
256,192,45125,1,0,0:0:0:0:
256,192,45216,1,0,0:0:0:0:
256,192,45307,1,8,0:0:0:0:
256,192,45489,1,0,0:0:0:0:
256,192,45671,1,8,0:0:0:0:
256,192,45762,1,8,0:0:0:0:
256,192,45853,1,0,0:0:0:0:
256,192,46034,1,8,0:0:0:0:
256,192,46216,1,0,0:0:0:0:
256,192,46307,1,0,0:0:0:0:
256,192,46398,1,8,0:0:0:0:
256,192,46580,1,0,0:0:0:0:
256,192,46762,1,0,0:0:0:0:
256,192,46943,1,12,0:0:0:0:
256,192,47307,1,0,0:0:0:0:
256,192,47489,1,0,0:0:0:0:
256,192,47671,1,8,0:0:0:0:
256,192,47762,1,0,0:0:0:0:
256,192,47853,1,8,0:0:0:0:
256,192,48034,1,0,0:0:0:0:
256,192,48125,1,8,0:0:0:0:
256,192,48216,1,0,0:0:0:0:
256,192,48307,1,0,0:0:0:0:
256,192,48398,1,8,0:0:0:0:
256,192,48580,1,8,0:0:0:0:
256,192,48762,1,0,0:0:0:0:
256,192,48853,1,0,0:0:0:0:
256,192,48943,1,8,0:0:0:0:
256,192,49125,1,0,0:0:0:0:
256,192,49307,1,8,0:0:0:0:
256,192,49398,1,8,0:0:0:0:
256,192,49489,1,0,0:0:0:0:
256,192,49580,1,8,0:0:0:0:
256,192,49671,1,0,0:0:0:0:
256,192,49853,1,0,0:0:0:0:
256,192,50216,1,0,0:0:0:0:
256,192,50307,1,0,0:0:0:0:
256,192,50398,1,8,0:0:0:0:
256,192,50580,1,0,0:0:0:0:
256,192,50762,1,8,0:0:0:0:
256,192,50853,1,8,0:0:0:0:
256,192,50943,1,0,0:0:0:0:
256,192,51034,1,0,0:0:0:0:
256,192,51125,1,8,0:0:0:0:
256,192,51307,1,0,0:0:0:0:
256,192,51489,1,8,0:0:0:0:
256,192,51671,1,0,0:0:0:0:
256,192,51762,1,8,0:0:0:0:
256,192,51943,1,8,0:0:0:0:
256,192,52034,1,4,0:0:0:0:
256,192,52398,1,4,0:0:0:0:
256,192,52762,1,4,0:0:0:0:
256,192,53125,1,8,0:0:0:0:
256,192,53307,1,8,0:0:0:0:
256,192,53671,1,0,0:0:0:0:
256,192,53853,1,8,0:0:0:0:
256,192,53943,1,0,0:0:0:0:
256,192,54034,1,8,0:0:0:0:
256,192,54398,1,0,0:0:0:0:
256,192,54489,1,0,0:0:0:0:
256,192,54580,1,8,0:0:0:0:
256,192,54762,1,8,0:0:0:0:
256,192,55125,1,0,0:0:0:0:
256,192,55307,1,8,0:0:0:0:
256,192,55398,1,8,0:0:0:0:
256,192,55489,1,0,0:0:0:0:
256,192,55671,1,8,0:0:0:0:
256,192,55853,1,8,0:0:0:0:
256,192,56034,1,0,0:0:0:0:
256,192,56216,1,0,0:0:0:0:
256,192,56580,1,8,0:0:0:0:
256,192,56762,1,0,0:0:0:0:
256,192,56853,1,8,0:0:0:0:
256,192,56943,1,0,0:0:0:0:
256,192,57307,1,8,0:0:0:0:
256,192,57398,1,0,0:0:0:0:
256,192,57489,1,0,0:0:0:0:
256,192,57671,1,0,0:0:0:0:
256,192,58034,1,8,0:0:0:0:
256,192,58216,1,0,0:0:0:0:
256,192,58307,1,0,0:0:0:0:
256,192,58398,1,8,0:0:0:0:
256,192,58580,1,0,0:0:0:0:
256,192,58762,1,8,0:0:0:0:
256,192,58853,1,0,0:0:0:0:
256,192,58943,1,8,0:0:0:0:
256,192,59125,1,8,0:0:0:0:
256,192,59489,1,0,0:0:0:0:
256,192,59671,1,8,0:0:0:0:
256,192,59762,1,0,0:0:0:0:
256,192,59853,1,8,0:0:0:0:
256,192,60216,1,0,0:0:0:0:
256,192,60307,1,0,0:0:0:0:
256,192,60398,1,8,0:0:0:0:
256,192,60580,1,8,0:0:0:0:
256,192,60671,1,8,0:0:0:0:
256,192,60762,1,0,0:0:0:0:
256,192,60943,1,8,0:0:0:0:
256,192,61125,1,0,0:0:0:0:
256,192,61216,1,0,0:0:0:0:
256,192,61307,1,8,0:0:0:0:
256,192,61398,1,0,0:0:0:0:
256,192,61489,1,8,0:0:0:0:
256,192,61671,1,8,0:0:0:0:
256,192,61853,1,4,0:0:0:0:
256,192,62216,1,12,0:0:0:0:
256,192,62580,1,4,0:0:0:0:
256,192,62943,1,4,0:0:0:0:
256,192,63307,1,12,0:0:0:0:
256,192,63580,1,12,0:0:0:0:
256,192,63853,1,12,0:0:0:0:
256,192,64034,1,4,0:0:0:0:
256,192,64216,1,8,0:0:0:0:
256,192,64307,1,8,0:0:0:0:
256,192,64398,1,0,0:0:0:0:
256,192,64489,1,0,0:0:0:0:
256,192,64580,1,8,0:0:0:0:
256,192,64671,1,8,0:0:0:0:
256,192,66216,1,4,0:0:0:0:
256,192,66398,1,8,0:0:0:0:
256,192,66580,1,0,0:0:0:0:
256,192,66671,1,8,0:0:0:0:
256,192,66853,1,8,0:0:0:0:
256,192,66943,1,0,0:0:0:0:
256,192,67034,1,8,0:0:0:0:
256,192,67125,1,0,0:0:0:0:
256,192,67216,1,8,0:0:0:0:
256,192,67307,1,0,0:0:0:0:
256,192,67489,1,0,0:0:0:0:
256,192,67671,1,8,0:0:0:0:
256,192,67853,1,0,0:0:0:0:
256,192,67943,1,8,0:0:0:0:
256,192,68125,1,8,0:0:0:0:
256,192,68216,1,0,0:0:0:0:
256,192,68398,1,4,0:0:0:0:
256,192,68671,1,4,0:0:0:0:
256,192,68943,1,4,0:0:0:0:
256,192,69216,1,8,0:0:0:0:
256,192,69307,1,0,0:0:0:0:
256,192,69489,1,0,0:0:0:0:
256,192,69671,1,0,0:0:0:0:
256,192,69762,1,8,0:0:0:0:
256,192,69853,1,4,0:0:0:0:
256,192,70125,1,4,0:0:0:0:
256,192,70398,1,8,0:0:0:0:
256,192,70580,1,0,0:0:0:0:
256,192,70671,1,0,0:0:0:0:
256,192,70762,1,8,0:0:0:0:
256,192,70943,1,0,0:0:0:0:
256,192,71125,1,8,0:0:0:0:
256,192,71216,1,8,0:0:0:0:
256,192,71307,1,0,0:0:0:0:
256,192,71489,1,8,0:0:0:0:
256,192,71671,1,0,0:0:0:0:
256,192,72034,1,4,0:0:0:0:
256,192,72216,1,8,0:0:0:0:
256,192,72398,1,0,0:0:0:0:
256,192,72489,1,8,0:0:0:0:
256,192,72671,1,8,0:0:0:0:
256,192,72762,1,0,0:0:0:0:
256,192,72853,1,0,0:0:0:0:
256,192,72943,1,8,0:0:0:0:
256,192,73034,1,8,0:0:0:0:
256,192,73125,1,0,0:0:0:0:
256,192,73307,1,0,0:0:0:0:
256,192,73489,1,8,0:0:0:0:
256,192,73671,1,0,0:0:0:0:
256,192,73762,1,8,0:0:0:0:
256,192,73943,1,8,0:0:0:0:
256,192,74034,1,0,0:0:0:0:
256,192,74216,1,4,0:0:0:0:
256,192,74580,1,12,0:0:0:0:
256,192,74943,1,0,0:0:0:0:
256,192,75065,1,0,0:0:0:0:
256,192,75186,1,0,0:0:0:0:
256,192,75307,1,8,0:0:0:0:
256,192,75549,1,8,0:0:0:0:
256,192,75671,1,0,0:0:0:0:
256,192,75792,1,0,0:0:0:0:
256,192,75913,1,0,0:0:0:0:
256,192,76034,1,8,0:0:0:0:
256,192,76398,1,8,0:0:0:0:
256,192,76519,1,0,0:0:0:0:
256,192,76640,1,0,0:0:0:0:
256,192,76762,1,0,0:0:0:0:
256,192,77004,1,8,0:0:0:0:
256,192,77125,1,0,0:0:0:0:
256,192,77246,1,0,0:0:0:0:
256,192,77368,1,0,0:0:0:0:
256,192,77489,1,8,0:0:0:0:
256,192,77853,1,4,0:0:0:0:
256,192,78125,1,8,0:0:0:0:
256,192,78216,1,0,0:0:0:0:
256,192,78307,1,8,0:0:0:0:
256,192,78398,1,8,0:0:0:0:
256,192,78489,1,0,0:0:0:0:
256,192,78580,1,0,0:0:0:0:
256,192,78762,1,0,0:0:0:0:
256,192,78853,1,0,0:0:0:0:
256,192,78943,1,8,0:0:0:0:
256,192,79307,1,0,0:0:0:0:
256,192,79398,1,0,0:0:0:0:
256,192,79489,1,8,0:0:0:0:
256,192,79580,1,0,0:0:0:0:
256,192,79671,1,8,0:0:0:0:
256,192,79853,1,0,0:0:0:0:
256,192,80034,1,8,0:0:0:0:
256,192,80125,1,8,0:0:0:0:
256,192,80307,1,0,0:0:0:0:
256,192,80398,1,8,0:0:0:0:
256,192,80489,1,8,0:0:0:0:
256,192,80580,1,0,0:0:0:0:
256,192,80671,1,0,0:0:0:0:
256,192,80762,1,8,0:0:0:0:
256,192,80853,1,0,0:0:0:0:
256,192,81125,1,8,0:0:0:0:
256,192,81216,1,0,0:0:0:0:
256,192,81307,1,0,0:0:0:0:
256,192,81398,1,0,0:0:0:0:
256,192,81489,1,8,0:0:0:0:
256,192,81671,1,0,0:0:0:0:
256,192,81853,1,8,0:0:0:0:
256,192,81943,1,8,0:0:0:0:
256,192,82034,1,0,0:0:0:0:
256,192,82125,1,0,0:0:0:0:
256,192,82216,1,8,0:0:0:0:
256,192,82580,1,0,0:0:0:0:
256,192,82943,1,12,0:0:0:0:
256,192,83216,1,12,0:0:0:0:
256,192,83489,1,12,0:0:0:0:
256,192,83671,1,4,0:0:0:0:
256,192,83943,1,8,0:0:0:0:
256,192,84034,1,0,0:0:0:0:
256,192,84125,1,8,0:0:0:0:
256,192,84216,1,0,0:0:0:0:
256,192,84307,1,8,0:0:0:0:
256,192,84398,1,8,0:0:0:0:
256,192,84580,1,0,0:0:0:0:
256,192,84671,1,0,0:0:0:0:
256,192,84762,1,8,0:0:0:0:
256,192,85125,1,0,0:0:0:0:
256,192,85216,1,0,0:0:0:0:
256,192,85307,1,8,0:0:0:0:
256,192,85398,1,8,0:0:0:0:
256,192,85489,1,0,0:0:0:0:
256,192,85671,1,8,0:0:0:0:
256,192,85853,1,0,0:0:0:0:
256,192,85943,1,0,0:0:0:0:
256,192,86125,1,8,0:0:0:0:
256,192,86216,1,0,0:0:0:0:
256,192,86307,1,0,0:0:0:0:
256,192,86398,1,8,0:0:0:0:
256,192,86489,1,8,0:0:0:0:
256,192,86580,1,0,0:0:0:0:
256,192,86671,1,0,0:0:0:0:
256,192,86943,1,0,0:0:0:0:
256,192,87034,1,0,0:0:0:0:
256,192,87125,1,8,0:0:0:0:
256,192,87216,1,8,0:0:0:0:
256,192,87307,1,0,0:0:0:0:
256,192,87489,1,0,0:0:0:0:
256,192,87671,1,0,0:0:0:0:
256,192,87762,1,0,0:0:0:0:
256,192,87853,1,8,0:0:0:0:
256,192,87943,1,8,0:0:0:0:
256,192,88034,1,8,0:0:0:0:
256,192,88125,1,0,0:0:0:0:
256,192,88398,1,12,0:0:0:0:
256,192,89489,1,8,0:0:0:0:
256,192,89671,1,0,0:0:0:0:
256,192,89762,1,0,0:0:0:0:
256,192,89853,1,12,0:0:0:0:
