osu file format v14

[General]
AudioFilename: theKHUE - Symmetry - 08 Bang Bang (Instrumental).mp3
AudioLeadIn: 0
PreviewTime: 131379
Countdown: 0
SampleSet: Soft
StackLeniency: 0.3
Mode: 0
LetterboxInBreaks: 0
WidescreenStoryboard: 0

[Editor]
DistanceSpacing: 1.1
BeatDivisor: 4
GridSize: 4
TimelineZoom: 1.7

[Metadata]
Title:Bang Bang (theKHUE Remix)
TitleUnicode:Bang Bang (theKHUE Remix)
Artist:Jessie J, Ariana Grande, Nicki Minaj
ArtistUnicode:Jessie J, Ariana Grande, Nicki Minaj
Creator:Zarthbenn
Version:Hard
Source:
Tags:theKHUE dnb bang Ariana Grande Niki Minaj Jessie
BeatmapID:690261
BeatmapSetID:304740

[Difficulty]
HPDrainRate:6.5
CircleSize:4
OverallDifficulty:6
ApproachRate:7
SliderMultiplier:1.5
SliderTickRate:1

[Events]
//Background and Video events
0,0,"bg_00000.jpg",0,0
//Break Periods
2,27108,27420
2,50755,54949
2,118519,123420
2,127343,129067
//Storyboard Layer 0 (Background)
//Storyboard Layer 1 (Fail)
//Storyboard Layer 2 (Pass)
//Storyboard Layer 3 (Foreground)
//Storyboard Sound Samples

[TimingPoints]
5732,352.941176470588,4,2,0,40,1,0
28320,-100,4,1,0,40,0,1
50908,-100,4,2,0,40,0,0
96084,-100,4,2,0,40,0,1
118673,-100,4,2,0,40,0,0
131379,-100,4,1,0,40,0,1
153967,-100,4,1,0,40,0,0
178673,-100,4,2,0,5,0,0

[Colours]
Combo1 : 187,0,187
Combo2 : 0,183,0
Combo3 : 255,255,0
Combo4 : 255,128,0
Combo5 : 236,0,0

[HitObjects]
188,292,5732,6,0,P|256:320|324:292,1,150
72,132,7673,5,0,0:0:0:0:
204,40,8026,2,0,P|264:76|272:108,1,75
196,120,8379,1,0,0:0:0:0:
144,184,8555,2,0,P|216:200|276:136,1,150
400,180,9967,6,0,P|324:208|288:284,1,150
300,100,10673,2,0,P|226:96|171:47,1,150
160,216,11379,2,0,P|219:259|237:331,1,150
408,244,13320,5,0,0:0:0:0:
252,292,13673,2,0,P|236:332|204:348,1,75
168,280,14026,1,0,0:0:0:0:
212,208,14202,2,0,P|140:200|84:280,1,150
336,108,15614,6,0,P|296:46|224:34,1,150
80,88,16320,2,0,P|132:156|208:156,1,150
312,160,17026,6,0,P|368:172|400:208,1,75,0|8,0:0|0:0,0:0:0:0:
324,240,17379,1,0,0:0:0:0:
400,276,17555,2,0,P|368:312|320:316,1,75,0|8,0:0|0:0,0:0:0:0:
260,308,17908,1,0,0:0:0:0:
180,292,18084,2,0,P|132:296|104:316,1,75,0|8,0:0|0:0,0:0:0:0:
44,264,18437,6,0,P|36:164|56:116,1,150,0|8,0:0|0:0,0:0:0:0:
112,188,18967,2,0,P|160:112|220:80,1,150,0|8,0:0|0:0,0:0:0:0:
224,168,19496,2,0,P|280:140|312:140,1,75,0|8,0:0|0:0,0:0:0:0:
284,224,19849,6,0,P|248:256|236:312,1,75,0|8,0:0|0:0,0:0:0:0:
320,296,20202,1,0,0:0:0:0:
372,232,20378,2,0,P|406:219|428:189,1,75,0|8,0:0|0:0,0:0:0:0:
352,156,20731,1,0,0:0:0:0:
368,76,20907,2,0,P|320:80|292:100,1,75,0|8,0:0|0:0,0:0:0:0:
232,44,21261,6,0,P|210:115|222:188,1,150,0|8,0:0|0:0,0:0:0:0:
288,244,21790,2,0,P|332:172|408:172,1,150,0|8,0:0|0:0,0:0:0:0:
372,244,22319,2,0,P|377:280|399:310,1,75,0|8,0:0|0:0,0:0:0:0:
324,348,22673,6,0,P|286:344|254:325,1,75,0|8,0:0|0:0,0:0:0:0:
192,272,23026,1,0,0:0:0:0:
132,216,23202,2,0,P|96:192|52:192,1,75,0|8,0:0|0:0,0:0:0:0:
68,272,23555,1,0,0:0:0:0:
48,352,23731,2,0,P|96:348|124:328,1,75,0|8,0:0|0:0,0:0:0:0:
188,380,24084,6,0,P|180:288|140:248,1,150,0|8,0:0|0:0,0:0:0:0:
60,252,24614,2,0,P|108:180|184:184,1,150,0|8,0:0|0:0,0:0:0:0:
224,116,25143,2,0,P|252:180|244:212,1,75,0|8,0:0|0:0,0:0:0:0:
200,248,25496,5,0,0:0:0:0:
364,248,25849,1,0,0:0:0:0:
276,108,26202,1,0,0:0:0:0:
276,272,26555,1,0,0:0:0:0:
132,192,26908,5,0,0:0:0:0:
256,56,28320,6,0,P|224:84|208:120,1,75,4|0,0:0|0:0,0:0:0:0:
256,328,28849,2,0,P|288:300|304:264,1,75
120,192,29379,2,0,P|148:224|184:240,1,75,8|4,0:0|0:0,0:0:0:0:
392,192,29908,2,0,P|364:160|328:144,1,75,4|8,0:0|0:0,0:0:0:0:
256,292,30437,5,0,0:0:0:0:
256,208,30614,1,4,0:0:0:0:
256,124,30790,1,8,0:0:0:0:
256,40,30967,1,0,0:0:0:0:
184,80,31143,6,0,P|152:108|152:148,1,75,4|0,0:0|0:0,0:0:0:0:
328,80,31673,2,0,P|360:108|360:148,1,75
183,303,32202,2,0,P|154:281|148:245,1,75,8|4,0:0|0:0,0:0:0:0:
328,303,32731,2,0,P|357:281|363:245,1,75,0|8,0:0|0:0,0:0:0:0:
208,184,33260,5,0,0:0:0:0:
256,116,33437,1,4,0:0:0:0:
304,184,33614,1,8,0:0:0:0:
256,252,33790,1,0,0:0:0:0:
208,184,33967,6,0,L|140:240,1,75,4|0,0:0|0:0,0:0:0:0:
304,184,34496,2,0,L|372:128,1,75
256,252,35026,2,0,L|312:320,1,75,8|4,0:0|0:0,0:0:0:0:
256,116,35555,2,0,L|200:48,1,75,4|8,0:0|0:0,0:0:0:0:
44,72,36084,5,0,0:0:0:0:
100,136,36261,1,4,0:0:0:0:
44,200,36437,1,8,0:0:0:0:
100,264,36614,1,0,0:0:0:0:
160,200,36790,6,0,P|177:167|206:143,1,75,4|0,0:0|0:0,0:0:0:0:
312,272,37320,2,0,P|294:304|265:328,1,75
340,180,37849,2,0,P|372:197|396:226,1,75,8|4,0:0|0:0,0:0:0:0:
264,328,38379,2,0,P|231:310|207:281,1,75,0|8,0:0|0:0,0:0:0:0:
184,112,38907,5,0,0:0:0:0:
220,36,39084,1,0,0:0:0:0:
304,44,39261,1,0,0:0:0:0:
328,124,39437,1,0,0:0:0:0:
256,168,39614,5,4,0:0:0:0:
324,212,39790,1,0,0:0:0:0:
180,292,40143,1,0,0:0:0:0:
112,336,40320,1,0,0:0:0:0:
112,172,40673,5,8,0:0:0:0:
56,112,40849,1,4,0:0:0:0:
208,176,41202,1,4,0:0:0:0:
268,120,41379,1,8,0:0:0:0:
420,60,41731,6,0,P|448:96|448:136,1,75,0|4,0:0|0:0,0:0:0:0:
368,124,42084,2,0,P|368:164|404:200,1,75,8|0,0:0|0:0,0:0:0:0:
464,204,42437,5,4,0:0:0:0:
464,288,42614,1,0,0:0:0:0:
300,288,42967,1,0,0:0:0:0:
300,204,43144,1,0,0:0:0:0:
136,204,43496,5,8,0:0:0:0:
136,288,43673,1,4,0:0:0:0:
220,148,44026,1,0,0:0:0:0:
220,64,44202,1,8,0:0:0:0:
380,104,44555,6,0,L|336:192,1,75,0|4,0:0|0:0,0:0:0:0:
428,188,44908,2,0,L|464:280,1,75,8|0,0:0|0:0,0:0:0:0:
372,260,45261,5,4,0:0:0:0:
288,260,45437,1,0,0:0:0:0:
208,116,45790,1,0,0:0:0:0:
292,116,45966,1,0,0:0:0:0:
164,188,46320,5,8,0:0:0:0:
248,188,46496,1,4,0:0:0:0:
120,260,46849,1,4,0:0:0:0:
204,260,47025,1,8,0:0:0:0:
368,260,47379,5,0,0:0:0:0:
452,260,47555,1,4,0:0:0:0:
412,188,47731,1,8,0:0:0:0:
328,188,47908,1,0,0:0:0:0:
364,116,48084,6,0,P|328:68|296:56,1,75,4|0,0:0|0:0,0:0:0:0:
224,200,48614,2,0,P|260:248|292:260,1,75
408,252,49143,2,0,P|438:230|456:197,1,75
456,64,49673,2,0,L|372:64,1,75
244,64,50202,2,0,L|160:64,1,75
168,148,50555,1,12,0:0:0:0:
72,188,55849,5,8,0:0:0:0:
130,129,56026,1,4,0:0:0:0:
188,187,56202,1,8,0:0:0:0:
246,128,56379,1,4,0:0:0:0:
288,60,56555,6,0,P|324:104|324:148,1,75,4|0,0:0|0:0,0:0:0:0:
328,204,56908,1,8,0:0:0:0:
328,288,57084,2,0,P|339:323|367:348,1,75
448,348,57437,1,4,0:0:0:0:
484,276,57614,2,0,P|468:232|420:200,1,75,8|4,0:0|0:0,0:0:0:0:
284,208,58143,5,4,0:0:0:0:
284,292,58320,1,8,0:0:0:0:
120,292,58673,2,0,L|192:248,1,75,0|4,0:0|0:0,0:0:0:0:
112,208,59026,2,0,L|184:164,1,75,8|0,0:0|0:0,0:0:0:0:
248,128,59379,5,4,0:0:0:0:
248,44,59555,1,0,0:0:0:0:
412,44,59908,1,0,0:0:0:0:
412,128,60084,1,0,0:0:0:0:
324,268,60437,6,0,P|292:300|240:308,1,75,8|0,0:0|0:0,0:0:0:0:
252,228,60790,1,4,0:0:0:0:
180,188,60967,2,0,P|136:172|92:184,1,75
132,256,61320,1,0,0:0:0:0:
56,292,61496,2,0,P|88:328|132:344,2,75,0|0|8,0:0|0:0|0:0,0:0:0:0:
32,208,62026,1,0,0:0:0:0:
32,124,62202,6,0,P|92:88|120:88,1,75,4|0,0:0|0:0,0:0:0:0:
260,88,62731,2,0,P|295:99|323:124,1,75,4|8,0:0|0:0,0:0:0:0:
324,288,63261,2,0,P|351:312|387:324,1,75,4|0,0:0|0:0,0:0:0:0:
228,288,63790,2,0,P|200:312|164:324,1,75,4|0,0:0|0:0,0:0:0:0:
64,192,64320,5,8,0:0:0:0:
120,132,64496,1,0,0:0:0:0:
192,96,64673,1,0,0:0:0:0:
272,88,64849,1,0,0:0:0:0:
236,164,65026,6,0,L|192:232,1,75,4|0,0:0|0:0,0:0:0:0:
348,164,65555,2,0,L|392:232,1,75,4|8,0:0|0:0,0:0:0:0:
348,360,66084,2,0,L|388:297,1,75,4|0,0:0|0:0,0:0:0:0:
236,360,66613,2,0,L|195:297,1,75
236,132,67143,5,8,0:0:0:0:
234,56,67320,1,4,0:0:0:0:
163,32,67496,1,8,0:0:0:0:
117,94,67673,1,4,0:0:0:0:
160,156,67849,6,0,P|140:232|196:280,1,150,4|8,0:0|0:0,0:0:0:0:
228,204,68379,2,0,P|272:268|224:344,1,150,0|4,0:0|0:0,0:0:0:0:
336,332,68908,2,0,P|344:232|320:184,1,150,8|0,0:0|0:0,0:0:0:0:
412,200,69437,2,0,P|424:240|420:300,2,75,4|8|0,0:0|0:0|0:0,0:0:0:0:
368,128,69967,5,0,0:0:0:0:
300,88,70143,1,4,0:0:0:0:
220,76,70320,1,8,0:0:0:0:
140,96,70496,1,0,0:0:0:0:
196,156,70673,6,0,P|248:216|328:232,1,150,4|0,0:0|0:0,0:0:0:0:
316,316,71202,2,0,P|384:268|380:184,1,150
380,124,71731,2,0,P|332:64|248:68,1,150
296,136,72261,2,0,P|260:140|212:124,2,75,4|8|0,0:0|0:0|0:0,0:0:0:0:
260,220,72790,5,8,0:0:0:0:
180,200,72967,1,0,0:0:0:0:
132,132,73143,1,8,0:0:0:0:
256,28,73496,5,4,0:0:0:0:
256,192,73849,1,12,0:0:0:0:
256,356,74202,1,0,0:0:0:0:
116,272,74555,1,8,0:0:0:0:
256,192,74908,5,4,0:0:0:0:
340,192,75084,1,0,0:0:0:0:
424,192,75261,1,12,0:0:0:0:
340,48,75614,5,0,0:0:0:0:
176,48,75967,1,8,0:0:0:0:
256,192,76320,1,4,0:0:0:0:
92,192,76673,1,12,0:0:0:0:
176,336,77026,5,0,0:0:0:0:
260,336,77202,1,0,0:0:0:0:
344,336,77379,1,8,0:0:0:0:
256,192,77731,5,4,0:0:0:0:
92,192,78084,1,12,0:0:0:0:
256,192,78437,1,0,0:0:0:0:
420,192,78790,1,8,0:0:0:0:
340,48,79143,5,4,0:0:0:0:
340,132,79320,1,0,0:0:0:0:
340,216,79496,1,12,0:0:0:0:
196,132,79849,1,0,0:0:0:0:
196,296,80202,1,8,0:0:0:0:
52,216,80555,5,4,0:0:0:0:
52,300,80731,1,0,0:0:0:0:
52,384,80908,1,12,0:0:0:0:
196,296,81261,1,0,0:0:0:0:
360,296,81614,1,8,0:0:0:0:
280,152,81967,5,4,0:0:0:0:
280,68,82143,1,4,0:0:0:0:
352,108,82320,1,4,0:0:0:0:
352,192,82496,1,4,0:0:0:0:
424,152,82673,1,4,0:0:0:0:
424,68,82849,1,4,0:0:0:0:
352,28,83026,1,4,0:0:0:0:
352,108,83202,1,4,0:0:0:0:
352,192,83379,5,8,0:0:0:0:
64,324,84790,6,0,B|96:244|96:244|176:288|176:288|96:136|344:80|344:256,1,525,4|0,0:0|0:0,0:0:0:0:
252,240,86202,6,0,B|308:336|308:336|416:348|528:148|304:48,1,525,4|0,0:0|0:0,0:0:0:0:
222,55,87614,6,0,B|130:59|130:119|130:119|206:151|206:151|90:175|90:175|170:199|190:207|170:335|110:263,1,525,4|0,0:0|0:0,0:0:0:0:
32,256,89026,6,0,B|36:364|140:408|244:364|248:256|248:256|340:256|340:256|340:156,1,525,4|0,0:0|0:0,0:0:0:0:
270,128,90437,6,0,B|210:72|210:72|266:8|266:8|338:72|338:72|410:8|410:8|466:72|466:72|406:128,1,525,4|0,0:0|0:0,0:0:0:0:
416,204,91849,6,0,B|372:268|372:268|376:344|376:344|296:280|296:280|288:408|196:216|60:364,1,525,4|0,0:0|0:0,0:0:0:0:
44,272,93261,6,0,B|128:216|232:228|232:228|204:152|32:172|32:172|76:88|212:84,1,600,4|0,0:0|0:0,0:0:0:0:
364,64,95379,5,0,0:0:0:0:
424,120,95555,1,0,0:0:0:0:
364,176,95731,1,0,0:0:0:0:
424,232,95908,1,0,0:0:0:0:
364,288,96084,6,0,P|336:324|300:336,1,75,4|0,0:0|0:0,0:0:0:0:
284,256,96437,1,8,0:0:0:0:
224,312,96614,2,0,P|200:256|212:216,1,75
248,176,96967,2,0,P|232:120|192:96,2,75,4|8|4,0:0|0:0|0:0,0:0:0:0:
404,120,97673,6,0,P|364:56|288:48,1,150,4|0,0:0|0:0,0:0:0:0:
316,128,98202,2,0,P|340:184|372:208,1,75,0|4,0:0|0:0,0:0:0:0:
432,204,98555,2,0,P|424:252|396:284,1,75,8|0,0:0|0:0,0:0:0:0:
328,296,98908,5,4,0:0:0:0:
272,236,99084,1,0,0:0:0:0:
108,236,99437,1,0,0:0:0:0:
52,296,99614,1,0,0:0:0:0:
52,130,99967,1,8,0:0:0:0:
110,71,100143,1,4,0:0:0:0:
192,212,100496,6,0,P|228:224|264:212,1,75
340,52,101026,2,0,P|309:31|272:25,1,75,0|4,0:0|0:0,0:0:0:0:
188,24,101379,2,0,P|151:29|120:50,1,75,8|0,0:0|0:0,0:0:0:0:
180,108,101731,6,0,P|213:124|234:154,1,75,4|0,0:0|0:0,0:0:0:0:
154,186,102084,1,8,0:0:0:0:
94,130,102261,2,0,P|70:186|82:226,1,75
118,266,102614,2,0,P|102:322|62:346,2,75,4|8|4,0:0|0:0|0:0,0:0:0:0:
280,288,103320,6,0,P|320:352|396:360,1,150,4|0,0:0|0:0,0:0:0:0:
368,280,103849,2,0,P|344:224|312:200,1,75,0|4,0:0|0:0,0:0:0:0:
252,204,104202,2,0,P|260:156|288:124,1,75,8|0,0:0|0:0,0:0:0:0:
300,56,104555,5,4,0:0:0:0:
356,116,104731,1,0,0:0:0:0:
200,56,105084,1,0,0:0:0:0:
144,116,105261,1,0,0:0:0:0:
144,280,105614,1,8,0:0:0:0:
200,340,105791,1,4,0:0:0:0:
364,336,106143,6,0,P|420:320|444:292,1,75,0|8,0:0|0:0,0:0:0:0:
432,144,106673,2,0,P|401:123|364:117,1,75,8|0,0:0|0:0,0:0:0:0:
280,116,107026,2,0,P|243:121|212:142,1,75,8|0,0:0|0:0,0:0:0:0:
212,224,107379,5,4,0:0:0:0:
212,308,107555,1,0,0:0:0:0:
304,172,107908,1,0,0:0:0:0:
304,256,108084,1,0,0:0:0:0:
400,120,108437,5,8,0:0:0:0:
400,204,108613,1,4,0:0:0:0:
492,68,108967,1,4,0:0:0:0:
492,152,109143,1,8,0:0:0:0:
400,16,109496,6,0,P|368:24|336:52,1,75,0|8,0:0|0:0,0:0:0:0:
292,120,109849,2,0,P|232:156|196:148,1,75,4|0,0:0|0:0,0:0:0:0:
172,212,110202,6,0,L|112:168,1,75,4|0,0:0|0:0,0:0:0:0:
244,284,110731,2,0,L|320:340,1,75
172,284,111261,2,0,L|100:344,1,75,8|4,0:0|0:0,0:0:0:0:
244,212,111790,2,0,L|304:160,1,75,0|4,0:0|0:0,0:0:0:0:
396,296,112320,6,0,L|332:224,1,75,0|4,0:0|0:0,0:0:0:0:
424,216,112673,2,0,L|476:152,1,75,8|0,0:0|0:0,0:0:0:0:
392,136,113026,5,4,0:0:0:0:
392,52,113202,1,0,0:0:0:0:
300,188,113555,1,0,0:0:0:0:
300,104,113731,1,0,0:0:0:0:
204,240,114084,5,8,0:0:0:0:
204,156,114260,1,4,0:0:0:0:
112,292,114614,1,4,0:0:0:0:
112,208,114790,1,8,0:0:0:0:
112,44,115143,6,0,P|144:68|204:68,1,75,0|4,0:0|0:0,0:0:0:0:
260,72,115496,2,0,P|296:78|325:101,1,75,8|0,0:0|0:0,0:0:0:0:
260,152,115849,2,0,L|260:240,1,75,4|0,0:0|0:0,0:0:0:0:
420,188,116379,6,0,L|500:188,1,75
308,188,116908,2,0,L|228:188,1,75
364,132,117437,2,0,L|364:52,1,75
364,240,117967,2,0,L|364:320,2,75
256,192,124320,12,4,127143,0:0:0:0:
256,40,129967,6,0,P|228:80|228:112,1,75,8|4,0:0|0:0,0:0:0:0:
308,104,130320,2,0,P|296:148|256:176,1,75,8|4,0:0|0:0,0:0:0:0:
196,184,130673,2,0,P|224:232|252:244,2,75
80,68,131379,6,0,P|60:120|80:160,1,75,4|0,0:0|0:0,0:0:0:0:
124,196,131731,1,8,0:0:0:0:
188,248,131908,2,0,P|208:300|188:340,1,75
124,300,132261,1,4,0:0:0:0:
60,248,132437,6,0,P|56:204|24:168,1,75,8|4,0:0|0:0,0:0:0:0:
84,340,132967,2,0,P|132:368|156:408,1,75,4|8,0:0|0:0,0:0:0:0:
152,272,133496,2,0,P|192:256|212:220,2,75,0|4|8,0:0|0:0|0:0,0:0:0:0:
132,192,134026,1,0,0:0:0:0:
184,128,134202,6,0,P|219:113|257:115,1,75,4|0,0:0|0:0,0:0:0:0:
336,132,134555,1,8,0:0:0:0:
412,164,134731,2,0,P|432:200|424:256,1,75
352,220,135084,1,4,0:0:0:0:
328,300,135261,6,0,P|288:319|266:362,1,75,8|4,0:0|0:0,0:0:0:0:
428,272,135790,2,0,P|476:300|500:340,1,75,0|8,0:0|0:0,0:0:0:0:
356,200,136320,2,0,P|320:180|304:140,2,75,0|4|8,0:0|0:0|0:0,0:0:0:0:
384,120,136849,1,0,0:0:0:0:
452,72,137026,6,0,P|384:40|312:80,1,150,4|8,0:0|0:0,0:0:0:0:
305,150,137555,2,0,P|239:181|173:152,1,150,0|4,0:0|0:0,0:0:0:0:
237,106,138084,2,0,P|189:78|97:130,1,150,8|0,0:0|0:0,0:0:0:0:
105,194,138614,5,4,0:0:0:0:
177,238,138790,1,8,0:0:0:0:
105,278,138967,1,0,0:0:0:0:
177,318,139143,2,0,P|233:326|281:310,1,75,0|4,0:0|0:0,0:0:0:0:
329,302,139496,2,0,P|377:274|425:278,1,75,8|0,0:0|0:0,0:0:0:0:
441,342,139849,6,0,P|473:274|433:202,1,150,4|8,0:0|0:0,0:0:0:0:
369,178,140379,2,0,P|297:174|241:222,1,150,0|4,0:0|0:0,0:0:0:0:
321,246,140908,2,0,P|277:294|181:270,1,150,8|4,0:0|0:0,0:0:0:0:
129,330,141437,5,0,0:0:0:0:
57,286,141613,1,8,0:0:0:0:
129,246,141790,1,0,0:0:0:0:
61,202,141966,2,0,P|93:170|129:170,1,75
197,202,142319,2,0,P|233:214|270:206,1,75,8|0,0:0|0:0,0:0:0:0:
337,158,142673,6,0,P|353:206|337:250,1,75
293,286,143025,1,8,0:0:0:0:
273,366,143202,2,0,P|309:368|341:350,1,75
401,290,143555,1,4,0:0:0:0:
461,234,143731,6,0,P|457:190|425:154,1,75,8|4,0:0|0:0,0:0:0:0:
284,108,144261,2,0,P|264:72|232:52,1,75,4|8,0:0|0:0,0:0:0:0:
176,220,144790,2,0,P|144:188|96:180,2,75,0|4|8,0:0|0:0|0:0,0:0:0:0:
100,256,145320,1,0,0:0:0:0:
20,272,145496,6,0,P|17:235|35:203,1,75,4|0,0:0|0:0,0:0:0:0:
64,124,145848,1,8,0:0:0:0:
136,72,146025,2,0,P|188:52|228:72,1,75
284,76,146378,1,4,0:0:0:0:
360,104,146554,6,0,P|379:135|380:172,1,75,8|4,0:0|0:0,0:0:0:0:
216,144,147084,2,0,P|264:172|288:212,1,75,0|8,0:0|0:0,0:0:0:0:
140,248,147614,2,0,P|178:254|216:280,2,75,0|4|8,0:0|0:0|0:0,0:0:0:0:
152,328,148143,1,4,0:0:0:0:
226,364,148320,6,0,P|282:340|298:252,1,150,0|8,0:0|0:0,0:0:0:0:
244,204,148849,2,0,P|316:184|376:240,1,150,0|4,0:0|0:0,0:0:0:0:
424,288,149378,2,0,P|448:219|412:156,1,150,8|0,0:0|0:0,0:0:0:0:
348,112,149908,5,4,0:0:0:0:
264,108,150084,1,8,0:0:0:0:
188,144,150261,1,0,0:0:0:0:
188,60,150437,2,0,P|152:68|124:92,1,75,0|4,0:0|0:0,0:0:0:0:
108,176,150790,2,0,P|64:172|36:184,1,75,8|0,0:0|0:0,0:0:0:0:
80,252,151143,6,0,P|140:308|216:292,1,150,4|0,0:0|0:0,0:0:0:0:
160,234,151673,2,0,P|232:228|284:296,1,150
356,248,152202,2,0,P|366:176|428:120,1,150,0|4,0:0|0:0,0:0:0:0:
360,68,152731,2,0,P|304:100|216:80,1,150,0|8,0:0|0:0,0:0:0:0:
148,52,153261,2,0,P|72:40|16:84,1,150,0|8,0:0|0:0,0:0:0:0:
92,116,153790,1,4,0:0:0:0:
64,196,153967,6,0,P|96:232|128:240,1,75,4|0,0:0|0:0,0:0:0:0:
200,216,154320,1,8,0:0:0:0:
272,176,154496,2,0,P|316:176|352:196,1,75
216,292,155026,6,0,P|248:328|280:336,1,75,8|4,0:0|0:0,0:0:0:0:
284,252,155379,1,0,0:0:0:0:
348,304,155555,2,0,P|364:256|352:216,1,75,4|8,0:0|0:0,0:0:0:0:
256,108,156084,5,0,0:0:0:0:
316,168,156261,1,4,0:0:0:0:
372,108,156437,1,8,0:0:0:0:
428,168,156614,1,0,0:0:0:0:
372,228,156790,6,0,P|352:264|308:288,1,75,4|0,0:0|0:0,0:0:0:0:
160,284,157320,2,0,P|129:262|112:229,1,75
112,64,157849,2,0,P|129:31|159:9,1,75,8|4,0:0|0:0,0:0:0:0:
324,11,158379,2,0,P|354:32|371:65,2,75,0|8|0,0:0|0:0|0:0,0:0:0:0:
284,84,158908,1,0,0:0:0:0:
220,132,159084,2,0,P|264:168|296:168,1,75,4|8,0:0|0:0,0:0:0:0:
360,148,159437,1,0,0:0:0:0:
424,200,159614,6,0,P|410:234|380:256,1,75,4|0,0:0|0:0,0:0:0:0:
296,256,159967,1,8,0:0:0:0:
216,236,160143,2,0,P|181:221|144:223,1,75
80,72,160673,6,0,P|116:80|144:116,1,75,8|4,0:0|0:0,0:0:0:0:
224,108,161026,1,0,0:0:0:0:
308,108,161202,2,0,P|332:80|368:72,1,75,4|8,0:0|0:0,0:0:0:0:
484,192,161731,5,0,0:0:0:0:
424,248,161908,1,4,0:0:0:0:
364,192,162084,1,8,0:0:0:0:
304,248,162261,1,0,0:0:0:0:
240,192,162437,6,0,P|200:212|176:252,1,75,4|8,0:0|0:0,0:0:0:0:
240,84,162967,2,0,P|200:64|176:24,1,75
340,84,163496,2,0,P|374:68|397:40,1,75,8|4,0:0|0:0,0:0:0:0:
340,192,164026,2,0,P|374:207|397:235,1,75,0|4,0:0|0:0,0:0:0:0:
512,140,164555,1,8,0:0:0:0:
458,81,164731,2,0,P|426:53|378:33,1,75,0|8,0:0|0:0,0:0:0:0:
232,36,165261,5,4,0:0:0:0:
232,118,165437,1,0,0:0:0:0:
76,152,165790,1,0,0:0:0:0:
76,234,165967,1,0,0:0:0:0:
320,188,166320,5,4,0:0:0:0:
392,224,166496,1,8,0:0:0:0:
240,292,166849,1,4,0:0:0:0:
164,256,167026,1,8,0:0:0:0:
256,120,167379,5,0,0:0:0:0:
324,76,167555,1,4,0:0:0:0:
328,160,167731,1,8,0:0:0:0:
396,112,167908,1,0,0:0:0:0:
404,192,168084,6,0,P|400:240|368:268,1,75,4|0,0:0|0:0,0:0:0:0:
220,260,168614,2,0,P|199:229|199:192,1,75
200,72,169143,2,0,P|199:35|220:4,1,75,8|4,0:0|0:0,0:0:0:0:
384,6,169673,2,0,P|404:36|404:73,2,75,0|8|0,0:0|0:0|0:0,0:0:0:0:
324,64,170202,1,0,0:0:0:0:
356,140,170379,2,0,P|328:184|328:236,1,75,4|8,0:0|0:0,0:0:0:0:
408,204,170731,1,0,0:0:0:0:
368,276,170908,5,4,0:0:0:0:
284,276,171084,1,0,0:0:0:0:
144,192,171437,1,0,0:0:0:0:
144,274,171614,1,0,0:0:0:0:
392,192,171967,5,8,0:0:0:0:
324,144,172143,1,4,0:0:0:0:
160,144,172496,1,4,0:0:0:0:
92,192,172672,1,8,0:0:0:0:
256,220,173026,5,0,0:0:0:0:
324,264,173202,1,4,0:0:0:0:
328,180,173379,1,8,0:0:0:0:
396,228,173555,1,0,0:0:0:0:
404,148,173731,6,0,L|352:84,1,75,4|0,0:0|0:0,0:0:0:0:
192,88,174261,2,0,L|144:146,1,75,4|8,0:0|0:0,0:0:0:0:
144,312,174790,2,0,L|191:370,1,75,4|0,0:0|0:0,0:0:0:0:
356,368,175320,2,0,L|403:309,2,75,4|8|0,0:0|0:0|0:0,0:0:0:0:
274,344,175849,1,8,0:0:0:0:
274,261,176026,2,0,L|274:185,1,75,4|8,0:0|0:0,0:0:0:0:
256,192,176379,12,2,178673,0:0:0:0:
