osu file format v14

[General]
AudioFilename: audio.mp3
AudioLeadIn: 0
PreviewTime: 17113
Countdown: 0
SampleSet: None
StackLeniency: 0.7
Mode: 3
LetterboxInBreaks: 0
SpecialStyle: 0
WidescreenStoryboard: 0

[Editor]
Bookmarks: 1630,9371,17113,22532,23306,28725,29500,34145,35693
DistanceSpacing: 1
BeatDivisor: 4
GridSize: 16
TimelineZoom: 1.2

[Metadata]
Title:U.N. Owen Was Yee?
TitleUnicode:U.N. Owen Was Yee?
Artist:JerryTerry
ArtistUnicode:JerryTerry
Creator:Kawawa
Version:7K Hard
Source:Dinosaur Adventure
Tags:Minky Touhou YouTube
BeatmapID:1115972
BeatmapSetID:525834

[Difficulty]
HPDrainRate:7.5
CircleSize:7
OverallDifficulty:7.5
ApproachRate:5
SliderMultiplier:1.4
SliderTickRate:1

[Events]
//Background and Video events
0,0,"r.jpg",0,0
//Break Periods
//Storyboard Layer 0 (Background)
//Storyboard Layer 1 (Fail)
//Storyboard Layer 2 (Pass)
//Storyboard Layer 3 (Foreground)
//Storyboard Sound Samples

[TimingPoints]
1630,387.096774193548,5,1,0,100,1,0
1630,-100,5,1,0,100,0,1
2791,-100,5,1,0,100,0,0
3565,-100,5,1,0,100,0,1
4726,-100,5,1,0,100,0,0
5500,-100,5,1,0,100,0,1
6662,-100,5,1,0,100,0,0
7436,-100,5,1,0,100,0,1
8597,-100,5,1,0,100,0,0
9371,-100,5,1,0,100,0,1
10533,-100,5,1,0,100,0,0
11307,-100,5,1,0,100,0,1
12468,-100,5,1,0,100,0,0
13242,-100,5,1,0,100,0,1
14404,-100,5,1,0,100,0,0
15178,-100,5,1,0,100,0,1
16339,-100,5,1,0,100,0,0
17113,387.096774193548,4,1,0,100,1,0
22532,-100,4,1,0,100,0,1
23306,-100,4,1,0,100,0,0
28725,-100,4,1,0,100,0,1
29500,-100,4,1,0,100,0,0
34145,-100,4,1,0,100,0,1
35693,-100,4,1,0,100,0,0

[HitObjects]
36,192,1630,5,0,0:0:0:0:
109,192,1726,1,0,0:0:0:0:
182,192,1823,1,0,0:0:0:0:
475,192,1920,1,0,0:0:0:0:
402,192,2017,1,0,0:0:0:0:
329,192,2113,1,0,0:0:0:0:
36,192,2210,1,0,0:0:0:0:
109,192,2307,1,0,0:0:0:0:
182,192,2404,1,0,0:0:0:0:
475,192,2500,1,0,0:0:0:0:
402,192,2597,1,0,0:0:0:0:
329,192,2694,1,0,0:0:0:0:
36,192,2791,128,0,2920:0:0:0:0:
109,192,2791,128,0,2920:0:0:0:0:
256,192,2791,128,0,2920:0:0:0:0:
109,192,3049,128,0,3178:0:0:0:0:
182,192,3049,128,0,3178:0:0:0:0:
329,192,3049,128,0,3178:0:0:0:0:
182,192,3307,128,0,3436:0:0:0:0:
256,192,3307,128,0,3436:0:0:0:0:
402,192,3307,128,0,3436:0:0:0:0:
475,192,3565,1,0,0:0:0:0:
329,192,3662,1,0,0:0:0:0:
182,192,3759,1,0,0:0:0:0:
36,192,3855,1,0,0:0:0:0:
109,192,3952,1,0,0:0:0:0:
182,192,4049,1,0,0:0:0:0:
475,192,4146,1,0,0:0:0:0:
329,192,4242,1,0,0:0:0:0:
182,192,4339,1,0,0:0:0:0:
36,192,4436,1,0,0:0:0:0:
109,192,4533,1,0,0:0:0:0:
182,192,4629,1,0,0:0:0:0:
402,192,4726,128,0,4855:0:0:0:0:
475,192,4726,128,0,4855:0:0:0:0:
256,192,4726,128,0,4855:0:0:0:0:
329,192,4984,128,0,5113:0:0:0:0:
402,192,4984,128,0,5113:0:0:0:0:
182,192,4984,128,0,5113:0:0:0:0:
256,192,5242,128,0,5371:0:0:0:0:
329,192,5242,128,0,5371:0:0:0:0:
109,192,5242,128,0,5371:0:0:0:0:
36,192,5500,1,0,0:0:0:0:
182,192,5597,1,0,0:0:0:0:
36,192,5694,1,0,0:0:0:0:
475,192,5791,1,0,0:0:0:0:
329,192,5888,1,0,0:0:0:0:
475,192,5984,1,0,0:0:0:0:
36,192,6081,1,0,0:0:0:0:
182,192,6178,1,0,0:0:0:0:
36,192,6275,1,0,0:0:0:0:
475,192,6371,1,0,0:0:0:0:
329,192,6468,1,0,0:0:0:0:
475,192,6565,1,0,0:0:0:0:
256,192,6662,128,0,6791:0:0:0:0:
109,192,6662,128,0,6791:0:0:0:0:
36,192,6662,128,0,6791:0:0:0:0:
329,192,6920,128,0,7049:0:0:0:0:
182,192,6920,128,0,7049:0:0:0:0:
109,192,6920,128,0,7049:0:0:0:0:
402,192,7178,128,0,7307:0:0:0:0:
256,192,7178,128,0,7307:0:0:0:0:
182,192,7178,128,0,7307:0:0:0:0:
475,192,7436,1,0,0:0:0:0:
329,192,7533,1,0,0:0:0:0:
402,192,7629,1,0,0:0:0:0:
36,192,7726,1,0,0:0:0:0:
109,192,7823,1,0,0:0:0:0:
182,192,7920,1,0,0:0:0:0:
475,192,8017,1,0,0:0:0:0:
329,192,8113,1,0,0:0:0:0:
402,192,8210,1,0,0:0:0:0:
36,192,8307,1,0,0:0:0:0:
109,192,8404,1,0,0:0:0:0:
182,192,8500,1,0,0:0:0:0:
256,192,8597,128,0,8726:0:0:0:0:
402,192,8597,128,0,8726:0:0:0:0:
475,192,8597,128,0,8726:0:0:0:0:
182,192,8855,128,0,8984:0:0:0:0:
329,192,8855,128,0,8984:0:0:0:0:
402,192,8855,128,0,8984:0:0:0:0:
109,192,9113,128,0,9242:0:0:0:0:
256,192,9113,128,0,9242:0:0:0:0:
329,192,9113,128,0,9242:0:0:0:0:
36,192,9371,1,0,0:0:0:0:
182,192,9468,1,0,0:0:0:0:
329,192,9565,1,0,0:0:0:0:
475,192,9662,1,0,0:0:0:0:
402,192,9759,1,0,0:0:0:0:
329,192,9855,1,0,0:0:0:0:
36,192,9952,1,0,0:0:0:0:
182,192,10049,1,0,0:0:0:0:
329,192,10146,1,0,0:0:0:0:
475,192,10242,1,0,0:0:0:0:
402,192,10339,1,0,0:0:0:0:
329,192,10436,1,0,0:0:0:0:
256,192,10533,128,0,10662:0:0:0:0:
109,192,10533,128,0,10662:0:0:0:0:
36,192,10533,128,0,10662:0:0:0:0:
329,192,10791,128,0,10920:0:0:0:0:
182,192,10791,128,0,10920:0:0:0:0:
109,192,10791,128,0,10920:0:0:0:0:
402,192,11049,128,0,11178:0:0:0:0:
256,192,11049,128,0,11178:0:0:0:0:
182,192,11049,128,0,11178:0:0:0:0:
475,192,11307,1,0,0:0:0:0:
402,192,11404,1,0,0:0:0:0:
329,192,11500,1,0,0:0:0:0:
36,192,11597,1,0,0:0:0:0:
109,192,11694,1,0,0:0:0:0:
182,192,11791,1,0,0:0:0:0:
475,192,11888,1,0,0:0:0:0:
402,192,11984,1,0,0:0:0:0:
329,192,12081,1,0,0:0:0:0:
36,192,12178,1,0,0:0:0:0:
109,192,12275,1,0,0:0:0:0:
182,192,12371,1,0,0:0:0:0:
402,192,12468,128,0,12597:0:0:0:0:
475,192,12468,128,0,12597:0:0:0:0:
256,192,12468,128,0,12597:0:0:0:0:
329,192,12726,128,0,12855:0:0:0:0:
402,192,12726,128,0,12855:0:0:0:0:
182,192,12726,128,0,12855:0:0:0:0:
329,192,12984,128,0,13113:0:0:0:0:
256,192,12984,128,0,13113:0:0:0:0:
109,192,12984,128,0,13113:0:0:0:0:
36,192,13242,1,0,0:0:0:0:
182,192,13339,1,0,0:0:0:0:
109,192,13436,1,0,0:0:0:0:
475,192,13533,1,0,0:0:0:0:
329,192,13629,1,0,0:0:0:0:
475,192,13726,1,0,0:0:0:0:
36,192,13823,1,0,0:0:0:0:
182,192,13920,1,0,0:0:0:0:
109,192,14017,1,0,0:0:0:0:
475,192,14113,1,0,0:0:0:0:
329,192,14210,1,0,0:0:0:0:
475,192,14307,1,0,0:0:0:0:
109,192,14404,128,0,14533:0:0:0:0:
36,192,14404,128,0,14533:0:0:0:0:
256,192,14404,128,0,14533:0:0:0:0:
109,192,14662,128,0,14791:0:0:0:0:
182,192,14662,128,0,14791:0:0:0:0:
329,192,14662,128,0,14791:0:0:0:0:
182,192,14920,128,0,15049:0:0:0:0:
256,192,14920,128,0,15049:0:0:0:0:
402,192,14920,128,0,15049:0:0:0:0:
475,192,15178,1,0,0:0:0:0:
329,192,15275,1,0,0:0:0:0:
182,192,15371,1,0,0:0:0:0:
475,192,15468,1,0,0:0:0:0:
329,192,15565,1,0,0:0:0:0:
182,192,15662,1,0,0:0:0:0:
402,192,15759,1,0,0:0:0:0:
256,192,15855,1,0,0:0:0:0:
109,192,15952,1,0,0:0:0:0:
329,192,16049,1,0,0:0:0:0:
182,192,16146,1,0,0:0:0:0:
36,192,16242,1,0,0:0:0:0:
402,192,16339,128,0,16468:0:0:0:0:
475,192,16339,128,0,16468:0:0:0:0:
256,192,16339,128,0,16468:0:0:0:0:
256,192,16597,128,0,16726:0:0:0:0:
402,192,16597,128,0,16726:0:0:0:0:
475,192,16597,128,0,16726:0:0:0:0:
475,192,16855,128,0,16984:0:0:0:0:
402,192,16855,128,0,16984:0:0:0:0:
256,192,16855,128,0,16984:0:0:0:0:
329,192,17113,1,0,0:0:0:0:
182,192,17113,1,0,0:0:0:0:
36,192,17113,128,0,17306:0:0:0:0:
475,192,17500,1,0,0:0:0:0:
402,192,17500,1,0,0:0:0:0:
36,192,17887,128,0,18080:0:0:0:0:
329,192,17887,1,0,0:0:0:0:
182,192,17887,1,0,0:0:0:0:
475,192,18274,1,0,0:0:0:0:
402,192,18274,1,0,0:0:0:0:
36,192,18661,128,0,18854:0:0:0:0:
182,192,18661,1,0,0:0:0:0:
329,192,18661,1,0,0:0:0:0:
256,192,19048,1,0,0:0:0:0:
402,192,19048,1,0,0:0:0:0:
36,192,19435,128,0,19629:0:0:0:0:
329,192,19435,1,0,0:0:0:0:
475,192,19435,1,0,0:0:0:0:
402,192,19822,1,0,0:0:0:0:
256,192,19822,1,0,0:0:0:0:
182,192,20209,1,0,0:0:0:0:
329,192,20209,1,0,0:0:0:0:
475,192,20403,128,0,20596:0:0:0:0:
256,192,20596,1,0,0:0:0:0:
109,192,20596,1,0,0:0:0:0:
475,192,20790,128,0,20983:0:0:0:0:
182,192,20983,1,0,0:0:0:0:
36,192,20983,1,0,0:0:0:0:
329,192,21177,1,0,0:0:0:0:
475,192,21177,128,0,21371:0:0:0:0:
256,192,21274,1,0,0:0:0:0:
36,192,21371,1,0,0:0:0:0:
182,192,21371,1,0,0:0:0:0:
475,192,21564,128,0,21758:0:0:0:0:
256,192,21758,1,0,0:0:0:0:
109,192,21758,1,0,0:0:0:0:
36,192,21951,128,0,22145:0:0:0:0:
475,192,21951,1,0,0:0:0:0:
402,192,22048,1,0,0:0:0:0:
329,192,22145,1,0,0:0:0:0:
182,192,22145,1,0,0:0:0:0:
475,192,22242,1,0,0:0:0:0:
36,192,22338,128,0,22532:0:0:0:0:
329,192,22338,1,0,0:0:0:0:
402,192,22435,1,0,0:0:0:0:
182,192,22532,1,0,0:0:0:0:
475,192,22532,128,0,23306:0:0:0:0:
256,192,22629,1,0,0:0:0:0:
36,192,22725,128,0,22919:0:0:0:0:
329,192,22725,1,0,0:0:0:0:
182,192,22919,1,0,0:0:0:0:
329,192,23016,1,0,0:0:0:0:
36,192,23112,128,0,23306:0:0:0:0:
182,192,23112,1,0,0:0:0:0:
329,192,23209,1,0,0:0:0:0:
182,192,23306,1,0,0:0:0:0:
109,192,23306,1,0,0:0:0:0:
475,192,23500,128,0,23693:0:0:0:0:
329,192,23693,1,0,0:0:0:0:
256,192,23693,1,0,0:0:0:0:
475,192,23887,128,0,24080:0:0:0:0:
36,192,24080,1,0,0:0:0:0:
109,192,24080,1,0,0:0:0:0:
475,192,24274,128,0,24467:0:0:0:0:
256,192,24467,1,0,0:0:0:0:
182,192,24467,1,0,0:0:0:0:
475,192,24661,128,0,24854:0:0:0:0:
329,192,24854,1,0,0:0:0:0:
402,192,24854,1,0,0:0:0:0:
36,192,25048,128,0,25242:0:0:0:0:
182,192,25242,1,0,0:0:0:0:
256,192,25242,1,0,0:0:0:0:
36,192,25435,128,0,25629:0:0:0:0:
475,192,25629,1,0,0:0:0:0:
402,192,25629,1,0,0:0:0:0:
36,192,25822,128,0,26016:0:0:0:0:
329,192,26016,1,0,0:0:0:0:
256,192,26016,1,0,0:0:0:0:
36,192,26209,128,0,26403:0:0:0:0:
182,192,26403,1,0,0:0:0:0:
109,192,26403,1,0,0:0:0:0:
475,192,26596,128,0,26790:0:0:0:0:
109,192,26790,1,0,0:0:0:0:
182,192,26790,1,0,0:0:0:0:
475,192,26983,128,0,27177:0:0:0:0:
256,192,27177,1,0,0:0:0:0:
329,192,27177,1,0,0:0:0:0:
475,192,27371,128,0,27564:0:0:0:0:
109,192,27371,1,0,0:0:0:0:
182,192,27467,1,0,0:0:0:0:
256,192,27564,1,0,0:0:0:0:
329,192,27564,1,0,0:0:0:0:
475,192,27758,128,0,27951:0:0:0:0:
36,192,27951,1,0,0:0:0:0:
182,192,27951,1,0,0:0:0:0:
475,192,28145,128,0,28338:0:0:0:0:
329,192,28145,1,0,0:0:0:0:
256,192,28242,1,0,0:0:0:0:
182,192,28338,1,0,0:0:0:0:
36,192,28338,1,0,0:0:0:0:
329,192,28435,1,0,0:0:0:0:
182,192,28532,1,0,0:0:0:0:
475,192,28532,1,0,0:0:0:0:
329,192,28629,1,0,0:0:0:0:
182,192,28725,1,0,0:0:0:0:
475,192,28725,128,0,29500:0:0:0:0:
36,192,28725,128,0,29500:0:0:0:0:
256,192,28822,1,0,0:0:0:0:
329,192,28919,1,0,0:0:0:0:
109,192,29112,1,0,0:0:0:0:
402,192,29209,1,0,0:0:0:0:
109,192,29306,1,0,0:0:0:0:
402,192,29403,1,0,0:0:0:0:
256,192,29500,128,0,29693:0:0:0:0:
109,192,29500,128,0,29693:0:0:0:0:
475,192,29693,1,0,0:0:0:0:
329,192,29887,128,0,30080:0:0:0:0:
182,192,29887,128,0,30080:0:0:0:0:
475,192,30080,1,0,0:0:0:0:
109,192,30274,128,0,30467:0:0:0:0:
256,192,30274,128,0,30467:0:0:0:0:
475,192,30467,1,0,0:0:0:0:
182,192,30661,128,0,30854:0:0:0:0:
329,192,30661,128,0,30854:0:0:0:0:
475,192,30854,1,0,0:0:0:0:
109,192,31048,128,0,31242:0:0:0:0:
256,192,31048,128,0,31242:0:0:0:0:
475,192,31242,1,0,0:0:0:0:
36,192,31435,128,0,31629:0:0:0:0:
182,192,31435,128,0,31629:0:0:0:0:
475,192,31629,128,0,31822:0:0:0:0:
329,192,31629,128,0,31822:0:0:0:0:
36,192,31822,128,0,32016:0:0:0:0:
182,192,31822,128,0,32016:0:0:0:0:
475,192,32016,1,0,0:0:0:0:
182,192,32209,128,0,32403:0:0:0:0:
329,192,32209,128,0,32403:0:0:0:0:
36,192,32403,1,0,0:0:0:0:
329,192,32596,128,0,32790:0:0:0:0:
475,192,32596,128,0,32790:0:0:0:0:
36,192,32790,1,0,0:0:0:0:
182,192,32790,1,0,0:0:0:0:
256,192,32983,1,0,0:0:0:0:
109,192,32983,1,0,0:0:0:0:
182,192,33177,1,0,0:0:0:0:
329,192,33177,1,0,0:0:0:0:
256,192,33371,1,0,0:0:0:0:
402,192,33371,1,0,0:0:0:0:
475,192,33564,1,0,0:0:0:0:
329,192,33564,1,0,0:0:0:0:
256,192,33661,1,0,0:0:0:0:
182,192,33758,1,0,0:0:0:0:
36,192,33758,1,0,0:0:0:0:
182,192,33951,1,0,0:0:0:0:
329,192,33951,1,0,0:0:0:0:
329,192,34145,128,0,35693:0:0:0:0:
475,192,34145,128,0,35693:0:0:0:0:
36,192,34338,1,0,0:0:0:0:
109,192,34435,1,0,0:0:0:0:
182,192,34532,1,0,0:0:0:0:
36,192,34725,1,0,0:0:0:0:
109,192,34822,1,0,0:0:0:0:
182,192,34919,1,0,0:0:0:0:
109,192,35016,1,0,0:0:0:0:
36,192,35112,1,0,0:0:0:0:
182,192,35306,1,0,0:0:0:0:
182,192,35500,1,0,0:0:0:0:
36,192,35693,1,0,0:0:0:0:
109,192,35693,1,0,0:0:0:0:
