osu file format v14

[General]
AudioFilename: audio.mp3
AudioLeadIn: 0
PreviewTime: 46866
Countdown: 0
SampleSet: Soft
StackLeniency: 0.7
Mode: 2
LetterboxInBreaks: 0
WidescreenStoryboard: 0

[Editor]
DistanceSpacing: 1.5
BeatDivisor: 4
GridSize: 8
TimelineZoom: 1

[Metadata]
Title:Moon without the Stars
TitleUnicode:Moon without the Stars
Artist:Jerry Barnes Quiana
ArtistUnicode:Jerry Barnes Quiana
Creator:guineaQ
Version:Rain
Source:Deemo
Tags:
BeatmapID:909683
BeatmapSetID:420318

[Difficulty]
HPDrainRate:6
CircleSize:4
OverallDifficulty:9
ApproachRate:9
SliderMultiplier:2
SliderTickRate:1

[Events]
//Background and Video events
0,0,"heartache.jpg",0,0
//Break Periods
//Storyboard Layer 0 (Background)
//Storyboard Layer 1 (Fail)
//Storyboard Layer 2 (Pass)
//Storyboard Layer 3 (Foreground)
//Storyboard Sound Samples

[TimingPoints]
15883,491.803278688525,4,2,1,35,1,0
23260,-100,4,2,1,15,0,0
23751,-100,4,2,1,35,0,0
47358,-90.9090909090909,4,2,1,50,0,1
62850,-90.9090909090909,4,2,1,50,0,0
63096,-90.9090909090909,4,2,1,50,0,1
76866,-100,4,2,1,35,0,0

[HitObjects]
256,192,8014,12,0,13915,0:0:0:0:
256,248,15882,5,0,0:0:0:0:
432,176,16128,1,0,0:0:0:0:
352,184,16251,1,0,0:0:0:0:
272,192,16374,1,0,0:0:0:0:
440,256,16620,1,0,0:0:0:0:
200,160,16866,1,8,0:0:0:0:
48,176,17112,1,0,0:0:0:0:
200,160,17358,1,0,0:0:0:0:
408,240,17604,1,2,0:0:0:0:
208,312,17850,5,0,0:0:0:0:
384,232,18096,1,0,0:0:0:0:
304,200,18219,1,0,0:0:0:0:
112,128,18342,1,2,0:0:0:0:
248,64,18587,1,0,0:0:0:0:
40,160,18833,1,8,0:0:0:0:
232,208,19079,2,0,L|360:200,1,100,0|0,0:0|0:0,0:0:0:0:
112,184,19817,6,0,L|336:168,1,200,2|0,0:0|0:0,0:0:0:0:
96,304,20555,1,2,0:0:0:0:
416,232,20801,2,0,P|496:224|496:152,2,150,8|0|2,0:0|0:0|0:0,0:0:0:0:
256,192,21784,5,0,0:0:0:0:
512,360,22276,1,2,0:0:0:0:
176,128,22768,2,0,B|76:128|76:128|192:128,1,200,8|4,0:0|0:0,0:0:0:0:
448,192,23751,5,2,0:0:0:0:
288,288,23997,1,0,0:0:0:0:
208,264,24120,1,0,0:0:0:0:
128,240,24243,1,0,0:0:0:0:
312,208,24489,1,0,0:0:0:0:
96,232,24735,2,0,L|296:232,1,200,8|0,0:0|0:0,0:0:0:0:
64,64,25473,1,2,0:0:0:0:
256,160,25719,5,0,0:0:0:0:
416,88,25964,1,0,0:0:0:0:
336,96,26087,1,0,0:0:0:0:
144,104,26210,1,2,0:0:0:0:
280,16,26456,1,0,0:0:0:0:
48,168,26702,2,0,P|112:136|248:184,1,200,8|0,0:0|0:0,0:0:0:0:
464,120,27686,5,2,0:0:0:0:
256,184,28178,1,0,0:0:0:0:
432,224,28423,1,2,0:0:0:0:
176,168,28669,2,0,P|240:192|336:288,1,200,8|0,0:0|0:0,0:0:0:0:
128,240,29407,1,2,0:0:0:0:
328,144,29653,6,0,L|440:144,1,100,0|0,0:0|0:0,0:0:0:0:
208,32,30145,1,2,0:0:0:0:
138,179,31620,6,0,L|250:179,1,100,2|0,0:0|0:0,0:0:0:0:
385,247,32112,1,0,0:0:0:0:
227,331,32358,1,0,0:0:0:0:
350,228,32604,1,8,0:0:0:0:
32,168,32850,1,0,0:0:0:0:
184,304,33096,1,0,0:0:0:0:
392,160,33342,6,0,P|436:182|485:187,1,100,2|0,0:0|0:0,0:0:0:0:
288,200,34079,2,0,P|337:195|381:172,1,100,2|0,0:0|0:0,0:0:0:0:
32,280,34571,2,0,P|77:324|243:294,1,200,8|0,0:0|0:0,0:0:0:0:
404,238,35309,1,0,0:0:0:0:
89,190,35555,6,0,L|313:222,1,200
128,96,36292,1,2,0:0:0:0:
352,272,36538,2,0,L|464:288,1,100,8|0,0:0|0:0,0:0:0:0:
248,328,37030,1,0,0:0:0:0:
432,200,37276,1,2,0:0:0:0:
256,136,37522,5,0,0:0:0:0:
512,136,38014,1,2,0:0:0:0:
376,80,38260,1,0,0:0:0:0:
136,184,38505,1,8,0:0:0:0:
272,240,38751,2,0,L|400:240,1,100,0|0,0:0|0:0,0:0:0:0:
176,280,39243,1,0,0:0:0:0:
508,176,39489,6,0,L|408:176,1,100,2|0,0:0|0:0,0:0:0:0:
296,224,39981,1,0,0:0:0:0:
448,72,40227,1,0,0:0:0:0:
240,120,40473,1,8,0:0:0:0:
408,176,40719,2,0,L|520:176,1,100,0|0,0:0|0:0,0:0:0:0:
344,96,41210,1,2,0:0:0:0:
168,152,41456,5,0,0:0:0:0:
384,256,41948,2,0,L|484:256,1,100,2|0,0:0|0:0,0:0:0:0:
104,256,42440,2,0,P|179:311|253:254,1,200,8|0,0:0|0:0,0:0:0:0:
376,160,43178,1,0,0:0:0:0:
176,128,43423,6,0,L|400:112,1,200,2|0,0:0|0:0,0:0:0:0:
168,40,44161,1,2,0:0:0:0:
400,80,44407,2,0,L|520:72,2,100,8|0|0,0:0|0:0|0:0,0:0:0:0:
184,168,45145,1,2,0:0:0:0:
360,192,45391,5,0,0:0:0:0:
16,144,45883,1,0,0:0:0:0:
309,183,46866,2,0,L|389:279,1,100,0|0,0:0|0:0,0:0:0:0:
165,207,47358,5,6,0:0:0:0:
308,104,47604,1,0,0:0:0:0:
130,207,47850,2,0,L|-6:207,1,110.000003356934,0|0,0:0|0:0,0:0:0:0:
382,302,48342,1,8,0:0:0:0:
194,264,48587,2,0,L|304:264,1,110.000003356934,0|0,0:0|0:0,0:0:0:0:
80,224,49079,1,2,0:0:0:0:
304,264,49325,5,0,0:0:0:0:
119,302,49571,1,0,0:0:0:0:
318,173,49817,2,0,L|462:173,1,110.000003356934,2|0,0:0|0:0,0:0:0:0:
48,64,50309,1,8,0:0:0:0:
200,136,50555,1,0,0:0:0:0:
368,64,50801,2,0,L|248:64,1,110.000003356934,0|0,0:0|0:0,0:0:0:0:
488,8,51292,5,2,0:0:0:0:
336,80,51538,2,0,L|226:80,1,110.000003356934,0|0,0:0|0:0,0:0:0:0:
440,112,52030,1,2,0:0:0:0:
104,80,52276,1,8,0:0:0:0:
296,176,52522,2,0,L|432:176,1,110.000003356934,0|0,0:0|0:0,0:0:0:0:
208,256,53014,1,2,0:0:0:0:
416,176,53260,5,0,0:0:0:0:
248,240,53505,1,0,0:0:0:0:
456,160,53751,2,0,L|320:160,1,110.000003356934,2|0,0:0|0:0,0:0:0:0:
8,160,54243,1,8,0:0:0:0:
200,96,54489,2,0,L|320:96,1,110.000003356934,0|0,0:0|0:0,0:0:0:0:
125,122,54981,1,0,0:0:0:0:
384,56,55227,6,0,P|276:64|162:128,1,220.000006713867,2|0,0:0|0:0,0:0:0:0:
344,96,55964,1,0,0:0:0:0:
8,136,56210,1,8,0:0:0:0:
200,224,56456,2,0,L|328:232,1,110.000003356934,0|0,0:0|0:0,0:0:0:0:
104,256,56948,1,2,0:0:0:0:
336,160,57194,6,0,L|464:168,1,110.000003356934,0|0,0:0|0:0,0:0:0:0:
224,120,57686,2,0,P|168:176|144:224,1,110.000003356934,2|0,0:0|0:0,0:0:0:0:
496,64,58178,2,0,L|352:56,1,110.000003356934,8|0,0:0|0:0,0:0:0:0:
160,112,58669,2,0,L|269:118,1,110.000003356934,0|0,0:0|0:0,0:0:0:0:
426,200,59161,6,0,P|354:240|170:248,1,220.000006713867,2|0,0:0|0:0,0:0:0:0:
434,280,59899,1,2,0:0:0:0:
48,200,60145,2,0,P|120:192|176:200,1,110.000003356934,8|0,0:0|0:0,0:0:0:0:
344,256,60637,1,0,0:0:0:0:
128,312,60883,1,2,0:0:0:0:
344,256,61128,6,0,P|288:296|208:184,1,220.000006713867,0|2,0:0|0:0,0:0:0:0:
352,168,61866,1,0,0:0:0:0:
16,248,62112,1,8,0:0:0:0:
220,198,62358,1,2,0:0:0:0:
448,304,63096,5,6,0:0:0:0:
288,200,63342,1,0,0:0:0:0:
448,304,63587,2,0,L|338:304,1,110.000003356934,0|0,0:0|0:0,0:0:0:0:
0,304,64079,1,8,0:0:0:0:
232,200,64325,2,0,L|122:200,1,110.000003356934,0|0,0:0|0:0,0:0:0:0:
338,304,64817,1,2,0:0:0:0:
136,320,65063,5,0,0:0:0:0:
338,304,65309,1,0,0:0:0:0:
112,248,65555,1,2,0:0:0:0:
312,296,65801,1,2,0:0:0:0:
0,224,66046,2,0,L|136:224,1,110.000003356934,8|0,0:0|0:0,0:0:0:0:
304,152,66538,2,0,L|194:152,1,110.000003356934,0|0,0:0|0:0,0:0:0:0:
400,208,67030,5,2,0:0:0:0:
232,256,67276,2,0,L|88:256,1,110.000003356934,0|0,0:0|0:0,0:0:0:0:
336,288,67768,1,2,0:0:0:0:
8,256,68014,1,8,0:0:0:0:
184,160,68260,2,0,L|312:160,1,110.000003356934,0|0,0:0|0:0,0:0:0:0:
96,208,68751,1,0,0:0:0:0:
280,264,68997,5,0,0:0:0:0:
80,224,69243,1,0,0:0:0:0:
288,168,69489,2,0,L|152:168,1,110.000003356934,2|0,0:0|0:0,0:0:0:0:
512,168,69981,1,8,0:0:0:0:
304,80,70227,2,0,L|456:80,1,110.000003356934,0|0,0:0|0:0,0:0:0:0:
224,136,70719,1,0,0:0:0:0:
496,48,70964,6,0,P|400:80|304:160,1,220.000006713867,2|0,0:0|0:0,0:0:0:0:
104,112,71702,1,0,0:0:0:0:
416,184,71948,1,8,0:0:0:0:
216,264,72194,2,0,L|64:288,1,110.000003356934,0|0,0:0|0:0,0:0:0:0:
336,216,72686,1,2,0:0:0:0:
128,176,72932,6,0,L|-24:200,1,110.000003356934,0|0,0:0|0:0,0:0:0:0:
240,160,73423,2,0,P|304:184|344:208,1,110.000003356934,2|0,0:0|0:0,0:0:0:0:
16,96,73915,2,0,P|63:69|115:50,1,110.000003356934,8|0,0:0|0:0,0:0:0:0:
339,114,74407,2,0,P|291:140|239:159,1,110.000003356934,0|0,0:0|0:0,0:0:0:0:
24,221,74899,6,0,P|104:245|224:341,1,220.000006713867,2|0,0:0|0:0,0:0:0:0:
440,277,75637,1,2,0:0:0:0:
96,357,75883,1,8,0:0:0:0:
264,269,76128,2,0,L|128:277,1,110.000003356934,0|0,0:0|0:0,0:0:0:0:
368,205,76620,1,2,0:0:0:0:
32,152,76866,5,0,0:0:0:0:
256,192,76989,12,0,78833,0:0:0:0:
