osu file format v14

[General]
AudioFilename: audio.mp3
AudioLeadIn: 0
PreviewTime: 46866
Countdown: 0
SampleSet: Soft
StackLeniency: 0.7
Mode: 2
LetterboxInBreaks: 0
WidescreenStoryboard: 1

[Editor]
DistanceSpacing: 1.5
BeatDivisor: 4
GridSize: 16
TimelineZoom: 1

[Metadata]
Title:Moon without the Stars
TitleUnicode:Moon without the Stars
Artist:Jerry Barnes Quiana
ArtistUnicode:Jerry Barnes Quiana
Creator:guineaQ
Version:Platter
Source:Deemo
Tags:
BeatmapID:1926069
BeatmapSetID:420318

[Difficulty]
HPDrainRate:5
CircleSize:3
OverallDifficulty:8
ApproachRate:8
SliderMultiplier:1.8
SliderTickRate:1

[Events]
//Background and Video events
0,0,"heartache.jpg",0,0
//Break Periods
//Storyboard Layer 0 (Background)
//Storyboard Layer 1 (Fail)
//Storyboard Layer 2 (Pass)
//Storyboard Layer 3 (Foreground)
//Storyboard Sound Samples

[TimingPoints]
15883,491.803278688525,4,2,1,35,1,0
23260,-100,4,2,1,15,0,0
23751,-100,4,2,1,35,0,0
47358,-90.9090909090909,4,2,1,50,0,1
62850,-90.9090909090909,4,2,1,50,0,0
63096,-90.9090909090909,4,2,1,50,0,1
76866,-100,4,2,1,35,0,0

[HitObjects]
256,192,8014,12,0,13915,0:0:0:0:
256,192,15882,5,0,0:0:0:0:
396,170,16128,2,0,L|457:170,2,45,0|0|0,0:0|0:0|0:0,0:0:0:0:
256,192,16620,1,0,0:0:0:0:
74,220,16866,2,0,P|44:175|1:148,1,90,8|0,0:0|0:0,0:0:0:0:
127,122,17358,1,0,0:0:0:0:
385,122,17604,6,0,B|475:122|475:122|383:122,1,180,2|0,0:0|0:0,0:0:0:0:
212,123,18342,2,0,L|182:222,1,90,2|0,0:0|0:0,0:0:0:0:
411,208,18833,2,0,L|384:121,1,90,8|0,0:0|0:0,0:0:0:0:
208,240,19325,1,0,0:0:0:0:
208,240,19817,6,0,P|154:197|218:123,1,180,2|0,0:0|0:0,0:0:0:0:
388,181,20555,1,2,0:0:0:0:
208,240,20801,2,0,P|154:197|218:123,1,180,8|0,0:0|0:0,0:0:0:0:
388,181,21538,6,0,L|500:181,1,90,2|0,0:0|0:0,0:0:0:0:
160,184,22276,1,2,0:0:0:0:
478,181,22768,2,0,P|478:105|370:80,1,180,8|4,0:0|0:0,0:0:0:0:
121,70,23751,5,2,0:0:0:0:
288,192,23997,2,0,L|368:192,2,45,0|0|0,0:0|0:0|0:0,0:0:0:0:
174,267,24489,1,0,0:0:0:0:
388,119,24735,2,0,L|490:119,1,90,8|0,0:0|0:0,0:0:0:0:
288,192,25227,1,0,0:0:0:0:
108,316,25473,6,0,B|17:316|17:316|107:316,1,180,2|0,0:0|0:0,0:0:0:0:
288,192,26210,2,0,P|348:149|400:130,1,90,2|0,0:0|0:0,0:0:0:0:
149,284,26702,2,0,P|99:256|86:120,1,180,8|0,0:0|0:0,0:0:0:0:
437,143,27686,6,0,P|432:230|363:284,1,180,2|0,0:0|0:0,0:0:0:0:
174,180,28423,1,2,0:0:0:0:
371,80,28669,2,0,L|436:142,1,90,8|0,0:0|0:0,0:0:0:0:
338,180,29161,1,0,0:0:0:0:
149,284,29407,6,0,B|59:284|59:284|149:284,1,180,2|0,0:0|0:0,0:0:0:0:
363,284,30145,1,2,0:0:0:0:
363,284,31620,6,0,P|413:252|464:237,1,90,2|0,0:0|0:0,0:0:0:0:
306,206,32112,2,0,L|269:97,1,90,0|0,0:0|0:0,0:0:0:0:
96,120,32604,1,8,0:0:0:0:
206,185,32850,2,0,P|264:177|305:159,1,90,0|0,0:0|0:0,0:0:0:0:
96,120,33342,2,0,L|-17:120,1,90,2|0,0:0|0:0,0:0:0:0:
352,120,34079,6,0,L|239:120,1,90,2|0,0:0|0:0,0:0:0:0:
52,202,34571,2,0,P|67:252|203:276,1,180,8|0,0:0|0:0,0:0:0:0:
321,167,35309,1,0,0:0:0:0:
147,201,35555,6,0,P|102:249|186:284,1,180,0|0,0:0|0:0,0:0:0:0:
354,132,36292,1,2,0:0:0:0:
153,51,36538,2,0,L|54:88,2,90,8|0|0,0:0|0:0|0:0,0:0:0:0:
354,132,37276,2,0,P|420:139|461:153,1,90,2|0,0:0|0:0,0:0:0:0:
179,289,38014,6,0,L|65:289,1,90,2|0,0:0|0:0,0:0:0:0:
297,289,38505,2,0,L|346:194,1,90,8|0,0:0|0:0,0:0:0:0:
179,289,38997,1,0,0:0:0:0:
37,290,39243,1,0,0:0:0:0:
256,128,39489,6,0,P|310:191|256:256,1,180,2|0,0:0|0:0,0:0:0:0:
128,192,40227,1,0,0:0:0:0:
320,80,40473,2,0,L|432:80,2,90,8|0|0,0:0|0:0|0:0,0:0:0:0:
128,192,41210,2,0,P|57:217|26:217,1,90,2|0,0:0|0:0,0:0:0:0:
268,32,41948,6,0,P|241:96|212:124,1,90,2|0,0:0|0:0,0:0:0:0:
405,21,42440,2,0,P|417:112|340:117,1,180,8|0,0:0|0:0,0:0:0:0:
461,198,43178,1,0,0:0:0:0:
261,243,43423,6,0,B|171:243|171:243|261:243,1,180,2|0,0:0|0:0,0:0:0:0:
461,198,44161,1,2,0:0:0:0:
256,48,44407,2,0,P|186:63|157:78,2,90,8|0|0,0:0|0:0|0:0,0:0:0:0:
433,176,45145,2,0,L|510:240,1,90,2|0,0:0|0:0,0:0:0:0:
256,320,45883,1,0,0:0:0:0:
256,320,46866,6,0,L|326:263,1,90,0|0,0:0|0:0,0:0:0:0:
83,119,47358,6,0,P|35:151|109:264,1,198.000006042481,6|0,0:0|0:0,0:0:0:0:
256,320,48096,1,0,0:0:0:0:
464,278,48342,2,0,P|403:271|351:277,1,99.0000030212403,8|0,0:0|0:0,0:0:0:0:
256,320,48833,1,0,0:0:0:0:
432,320,49079,1,2,0:0:0:0:
193,246,49325,6,0,L|175:134,1,99.0000030212403,0|0,0:0|0:0,0:0:0:0:
376,317,49817,2,0,L|392:220,1,99.0000030212403,2|0,0:0|0:0,0:0:0:0:
177,148,50309,1,8,0:0:0:0:
40,102,50555,2,0,P|82:77|130:67,2,99.0000030212403,0|0|0,0:0|0:0|0:0,0:0:0:0:
364,283,51292,6,0,P|456:281|480:192,1,198.000006042481,2|0,0:0|0:0,0:0:0:0:
294,84,52030,1,2,0:0:0:0:
92,190,52276,1,8,0:0:0:0:
257,219,52522,2,0,L|215:111,1,99.0000030212403,0|0,0:0|0:0,0:0:0:0:
409,221,53014,1,2,0:0:0:0:
66,44,53260,6,0,P|162:50|221:126,1,198.000006042481,0|2,0:0|0:0,0:0:0:0:
317,209,53997,1,0,0:0:0:0:
110,149,54243,2,0,P|71:188|49:242,1,99.0000030212403,8|0,0:0|0:0,0:0:0:0:
229,257,54735,2,0,L|316:208,1,99.0000030212403,0|0,0:0|0:0,0:0:0:0:
95,289,55227,6,0,P|75:192|98:97,1,198.000006042481,2|0,0:0|0:0,0:0:0:0:
256,192,55964,1,0,0:0:0:0:
464,192,56210,2,0,L|355:192,1,99.0000030212403,8|0,0:0|0:0,0:0:0:0:
256,192,56702,1,0,0:0:0:0:
98,97,56948,1,2,0:0:0:0:
413,97,57194,6,0,P|436:192|417:289,1,198.000006042481,0|2,0:0|0:0,0:0:0:0:
256,192,57932,1,0,0:0:0:0:
48,192,58178,2,0,L|157:192,1,99.0000030212403,8|0,0:0|0:0,0:0:0:0:
320,192,58669,2,0,L|320:304,1,99.0000030212403,0|0,0:0|0:0,0:0:0:0:
105,267,59161,6,0,P|50:194|128:113,1,198.000006042481,2|0,0:0|0:0,0:0:0:0:
304,192,59899,1,2,0:0:0:0:
105,267,60145,2,0,L|-2:308,2,99.0000030212403,8|0|0,0:0|0:0|0:0,0:0:0:0:
304,192,60883,1,2,0:0:0:0:
12,302,61128,6,0,P|42:208|143:196,1,198.000006042481,0|2,0:0|0:0,0:0:0:0:
256,272,61866,1,0,0:0:0:0:
464,192,62112,1,8,0:0:0:0:
256,112,62358,1,2,0:0:0:0:
429,119,63096,6,0,P|477:151|403:264,1,198.000006042481,6|0,0:0|0:0,0:0:0:0:
256,320,63834,1,0,0:0:0:0:
48,278,64080,2,0,P|109:271|161:277,1,99.0000030212403,8|0,0:0|0:0,0:0:0:0:
256,320,64571,1,0,0:0:0:0:
80,320,64817,1,2,0:0:0:0:
319,246,65063,6,0,L|337:134,1,99.0000030212403,0|0,0:0|0:0,0:0:0:0:
136,317,65555,1,2,0:0:0:0:
334,148,65801,1,2,0:0:0:0:
151,58,66047,1,8,0:0:0:0:
97,152,66293,2,0,P|55:177|7:187,2,99.0000030212403,0|0|0,0:0|0:0|0:0,0:0:0:0:
418,142,67030,6,0,P|486:217|422:295,1,198.000006042481,2|0,0:0|0:0,0:0:0:0:
240,192,67768,1,2,0:0:0:0:
442,288,68014,1,8,0:0:0:0:
306,331,68260,2,0,L|348:223,1,99.0000030212403,0|0,0:0|0:0,0:0:0:0:
127,136,68752,1,0,0:0:0:0:
341,238,68998,6,0,P|437:232|496:156,1,198.000006042481,0|2,0:0|0:0,0:0:0:0:
380,128,69735,1,0,0:0:0:0:
182,128,69981,2,0,P|143:167|121:221,1,99.0000030212403,8|0,0:0|0:0,0:0:0:0:
311,332,70473,2,0,L|344:227,1,99.0000030212403,0|0,0:0|0:0,0:0:0:0:
94,288,70965,6,0,P|74:192|97:97,1,198.000006042481,2|0,0:0|0:0,0:0:0:0:
256,192,71702,1,0,0:0:0:0:
464,192,71948,2,0,L|355:192,1,99.0000030212403,8|0,0:0|0:0,0:0:0:0:
256,192,72440,1,0,0:0:0:0:
98,97,72686,1,2,0:0:0:0:
413,97,72932,6,0,P|436:192|417:289,1,198.000006042481,0|2,0:0|0:0,0:0:0:0:
256,192,73670,1,0,0:0:0:0:
48,192,73916,2,0,L|157:192,1,99.0000030212403,8|0,0:0|0:0,0:0:0:0:
320,192,74407,2,0,L|320:304,1,99.0000030212403,0|0,0:0|0:0,0:0:0:0:
105,267,74899,6,0,P|50:194|128:113,1,198.000006042481,2|0,0:0|0:0,0:0:0:0:
304,192,75637,1,2,0:0:0:0:
105,267,75883,2,0,L|-2:308,2,99.0000030212403,8|0|0,0:0|0:0|0:0,0:0:0:0:
304,192,76621,1,2,0:0:0:0:
103,117,76866,1,0,0:0:0:0:
256,192,76989,12,0,78833,0:0:0:0:
