osu file format v14

[General]
AudioFilename: audio.mp3
AudioLeadIn: 0
PreviewTime: 46866
Countdown: 0
SampleSet: None
StackLeniency: 0.7
Mode: 3
LetterboxInBreaks: 0
SpecialStyle: 0
WidescreenStoryboard: 1

[Editor]
DistanceSpacing: 1.5
BeatDivisor: 4
GridSize: 8
TimelineZoom: 1

[Metadata]
Title:Moon without the Stars
TitleUnicode:Moon without the Stars
Artist:Jerry Barnes Quiana
ArtistUnicode:Jerry Barnes Quiana
Creator:guineaQ
Version:Lvl 2
Source:Deemo
Tags:
BeatmapID:1926159
BeatmapSetID:420318

[Difficulty]
HPDrainRate:8
CircleSize:5
OverallDifficulty:8
ApproachRate:9
SliderMultiplier:2
SliderTickRate:1

[Events]
//Background and Video events
0,0,"heartache.jpg",0,0
//Break Periods
//Storyboard Layer 0 (Background)
//Storyboard Layer 1 (Fail)
//Storyboard Layer 2 (Pass)
//Storyboard Layer 3 (Foreground)
//Storyboard Sound Samples

[TimingPoints]
15883,491.803278688525,4,2,1,35,1,0
23260,-100,4,2,1,15,0,0
23751,-100,4,2,1,35,0,0
47358,-100,4,2,1,50,0,1
62850,-100,4,2,1,50,0,0
63096,-100,4,2,1,50,0,1
76866,-100,4,2,1,35,0,0

[HitObjects]
460,192,15882,5,2,0:0:0:0:
51,192,15882,1,4,0:0:0:0:
358,192,16866,1,8,0:0:0:0:
153,192,16866,1,0,0:0:0:0:
51,192,17604,1,2,0:0:0:0:
460,192,17850,1,0,0:0:0:0:
256,192,17850,1,0,0:0:0:0:
153,192,18342,1,2,0:0:0:0:
358,192,18833,1,8,0:0:0:0:
460,192,18833,1,0,0:0:0:0:
51,192,19817,1,0,0:0:0:0:
256,192,19817,1,2,0:0:0:0:
460,192,20555,1,2,0:0:0:0:
358,192,20801,1,8,0:0:0:0:
153,192,20801,1,0,0:0:0:0:
256,192,21538,1,2,0:0:0:0:
51,192,21784,1,0,0:0:0:0:
460,192,21784,1,0,0:0:0:0:
256,192,22276,1,2,0:0:0:0:
153,192,22768,1,8,0:0:0:0:
358,192,22768,1,0,0:0:0:0:
256,192,23260,1,4,0:0:0:0:
51,192,23751,1,2,0:0:0:0:
153,192,23751,1,0,0:0:0:0:
256,192,24735,1,8,0:0:0:0:
358,192,24735,1,0,0:0:0:0:
153,192,25473,1,2,0:0:0:0:
51,192,25719,1,0,0:0:0:0:
460,192,25719,1,0,0:0:0:0:
358,192,26210,1,2,0:0:0:0:
256,192,26702,1,0,0:0:0:0:
153,192,26702,1,8,0:0:0:0:
51,192,27686,1,2,0:0:0:0:
460,192,27686,1,0,0:0:0:0:
256,192,28423,1,2,0:0:0:0:
153,192,28669,1,8,0:0:0:0:
358,192,28669,1,0,0:0:0:0:
256,192,29407,1,2,0:0:0:0:
51,192,29653,1,0,0:0:0:0:
460,192,29653,1,0,0:0:0:0:
256,192,30145,1,2,0:0:0:0:
153,192,31620,1,4,0:0:0:0:
358,192,31620,1,2,0:0:0:0:
256,192,32604,1,8,0:0:0:0:
51,192,32604,1,0,0:0:0:0:
460,192,33342,1,2,0:0:0:0:
460,192,34079,1,2,0:0:0:0:
256,192,34571,1,8,0:0:0:0:
51,192,34571,1,0,0:0:0:0:
153,192,35555,1,2,0:0:0:0:
358,192,35555,1,0,0:0:0:0:
256,192,36292,1,2,0:0:0:0:
51,192,36538,1,8,0:0:0:0:
460,192,36538,1,0,0:0:0:0:
256,192,37276,1,2,0:0:0:0:
153,192,37522,1,0,0:0:0:0:
358,192,37522,1,0,0:0:0:0:
256,192,38014,1,2,0:0:0:0:
153,192,38505,1,8,0:0:0:0:
51,192,38505,1,0,0:0:0:0:
358,192,39489,1,2,0:0:0:0:
460,192,39489,1,0,0:0:0:0:
256,192,40473,1,8,0:0:0:0:
153,192,40473,1,0,0:0:0:0:
51,192,41210,1,2,0:0:0:0:
153,192,41456,1,0,0:0:0:0:
358,192,41456,1,0,0:0:0:0:
460,192,41948,1,2,0:0:0:0:
256,192,42440,1,0,0:0:0:0:
51,192,42440,1,8,0:0:0:0:
460,192,43423,1,2,0:0:0:0:
256,192,43423,1,0,0:0:0:0:
358,192,44161,1,2,0:0:0:0:
153,192,44407,1,8,0:0:0:0:
256,192,44407,1,0,0:0:0:0:
460,192,45145,1,2,0:0:0:0:
358,192,45391,1,0,0:0:0:0:
51,192,45391,1,0,0:0:0:0:
51,192,45883,1,2,0:0:0:0:
153,192,47358,1,2,0:0:0:0:
460,192,47358,1,4,0:0:0:0:
358,192,47604,1,0,0:0:0:0:
358,192,47850,1,0,0:0:0:0:
256,192,48342,1,0,0:0:0:0:
51,192,48342,1,8,0:0:0:0:
460,192,48833,1,0,0:0:0:0:
256,192,49079,1,2,0:0:0:0:
51,192,49325,1,0,0:0:0:0:
358,192,49325,1,0,0:0:0:0:
153,192,49571,1,0,0:0:0:0:
153,192,49817,1,2,0:0:0:0:
256,192,50309,1,0,0:0:0:0:
460,192,50309,1,8,0:0:0:0:
358,192,50801,1,0,0:0:0:0:
256,192,51292,1,0,0:0:0:0:
51,192,51292,1,2,0:0:0:0:
460,192,51538,1,0,0:0:0:0:
358,192,51784,1,0,0:0:0:0:
153,192,52030,1,2,0:0:0:0:
256,192,52276,1,0,0:0:0:0:
460,192,52276,1,8,0:0:0:0:
460,192,53014,1,2,0:0:0:0:
358,192,53260,1,0,0:0:0:0:
153,192,53260,1,0,0:0:0:0:
51,192,53505,1,0,0:0:0:0:
256,192,53751,1,2,0:0:0:0:
358,192,54243,1,8,0:0:0:0:
460,192,54243,1,0,0:0:0:0:
256,192,54735,1,0,0:0:0:0:
358,192,55227,1,2,0:0:0:0:
51,192,55227,1,0,0:0:0:0:
256,192,56210,1,8,0:0:0:0:
460,192,56210,1,0,0:0:0:0:
51,192,56948,1,2,0:0:0:0:
153,192,57194,1,0,0:0:0:0:
460,192,57194,1,0,0:0:0:0:
358,192,57686,1,2,0:0:0:0:
256,192,58178,1,8,0:0:0:0:
51,192,58178,1,0,0:0:0:0:
153,192,59161,1,2,0:0:0:0:
358,192,59161,1,0,0:0:0:0:
51,192,59653,1,0,0:0:0:0:
460,192,59899,1,2,0:0:0:0:
256,192,60145,1,0,0:0:0:0:
358,192,60145,1,8,0:0:0:0:
153,192,60883,1,2,0:0:0:0:
460,192,61128,1,0,0:0:0:0:
358,192,61128,1,0,0:0:0:0:
51,192,61620,1,2,0:0:0:0:
153,192,62112,1,8,0:0:0:0:
256,192,62112,1,0,0:0:0:0:
460,192,62358,1,2,0:0:0:0:
358,192,63096,1,4,0:0:0:0:
51,192,63096,1,2,0:0:0:0:
153,192,63342,1,0,0:0:0:0:
153,192,63587,1,0,0:0:0:0:
256,192,64079,1,8,0:0:0:0:
460,192,64079,1,0,0:0:0:0:
51,192,64571,1,0,0:0:0:0:
256,192,64817,1,2,0:0:0:0:
460,192,65063,1,0,0:0:0:0:
153,192,65063,1,0,0:0:0:0:
358,192,65309,1,0,0:0:0:0:
51,192,65555,1,2,0:0:0:0:
51,192,65801,1,2,0:0:0:0:
256,192,66046,1,8,0:0:0:0:
460,192,66046,1,0,0:0:0:0:
153,192,66538,1,0,0:0:0:0:
256,192,67030,1,0,0:0:0:0:
460,192,67030,1,0,0:0:0:0:
51,192,67276,1,0,0:0:0:0:
153,192,67522,1,0,0:0:0:0:
358,192,67768,1,2,0:0:0:0:
256,192,68014,1,0,0:0:0:0:
51,192,68014,1,8,0:0:0:0:
51,192,68751,1,2,0:0:0:0:
153,192,68997,1,0,0:0:0:0:
358,192,68997,1,0,0:0:0:0:
460,192,69243,1,0,0:0:0:0:
256,192,69489,1,2,0:0:0:0:
153,192,69981,1,8,0:0:0:0:
51,192,69981,1,0,0:0:0:0:
256,192,70473,1,0,0:0:0:0:
153,192,70964,1,2,0:0:0:0:
460,192,70964,1,0,0:0:0:0:
256,192,71948,1,8,0:0:0:0:
51,192,71948,1,0,0:0:0:0:
460,192,72686,1,2,0:0:0:0:
358,192,72932,1,0,0:0:0:0:
51,192,72932,1,0,0:0:0:0:
153,192,73423,1,2,0:0:0:0:
256,192,73915,1,8,0:0:0:0:
460,192,73915,1,0,0:0:0:0:
358,192,74899,1,2,0:0:0:0:
153,192,74899,1,0,0:0:0:0:
460,192,75391,1,0,0:0:0:0:
51,192,75637,1,2,0:0:0:0:
256,192,75883,1,8,0:0:0:0:
153,192,75883,1,0,0:0:0:0:
358,192,76620,1,2,0:0:0:0:
153,192,76866,128,0,78833:0:0:0:0:
