osu file format v14

[General]
AudioFilename: audio.mp3
AudioLeadIn: 0
PreviewTime: 46866
Countdown: 0
SampleSet: Soft
StackLeniency: 0.7
Mode: 0
LetterboxInBreaks: 0
WidescreenStoryboard: 0

[Editor]
DistanceSpacing: 1.5
BeatDivisor: 4
GridSize: 4
TimelineZoom: 1

[Metadata]
Title:Moon without the Stars
TitleUnicode:Moon without the Stars
Artist:Jerry Barnes Quiana
ArtistUnicode:Jerry Barnes Quiana
Creator:guineaQ
Version:Insane
Source:Deemo
Tags:
BeatmapID:909333
BeatmapSetID:420318

[Difficulty]
HPDrainRate:6
CircleSize:4
OverallDifficulty:7
ApproachRate:8
SliderMultiplier:1.6
SliderTickRate:1

[Events]
//Background and Video events
0,0,"heartache.jpg",0,0
//Break Periods
//Storyboard Layer 0 (Background)
//Storyboard Layer 1 (Fail)
//Storyboard Layer 2 (Pass)
//Storyboard Layer 3 (Foreground)
//Storyboard Sound Samples

[TimingPoints]
15883,491.803278688525,4,2,1,35,1,0
23260,-100,4,2,1,15,0,0
23751,-100,4,2,1,35,0,0
47358,-90.9090909090909,4,2,1,50,0,1
62850,-90.9090909090909,4,2,1,50,0,0
63096,-90.9090909090909,4,2,1,50,0,1
76866,-100,4,2,1,35,0,0
78833,-100,4,2,1,5,0,0

[HitObjects]
256,192,8014,12,0,13915,0:0:0:0:
281,269,15882,6,0,P|297:209|288:167,1,80,6|0,0:0|0:0,0:0:0:0:
229,138,16251,1,0,0:0:0:0:
229,138,16374,2,0,P|213:198|222:240,1,80
316,287,16866,1,8,0:0:0:0:
388,187,17112,2,0,L|306:190,1,80
206,218,17604,1,2,0:0:0:0:
316,287,17850,6,0,P|345:306|395:315,1,80
458,257,18219,1,0,0:0:0:0:
458,257,18342,2,0,P|429:238|379:229,1,80,2|0,0:0|0:0,0:0:0:0:
300,306,18833,1,8,0:0:0:0:
229,209,19079,2,0,L|218:97,1,80
278,276,19817,6,0,P|228:292|148:225,1,160,2|0,0:0|0:0,0:0:0:0:
154,100,20555,1,2,0:0:0:0:
229,209,20801,2,0,P|280:193|345:224,2,120,8|0|2,0:0|0:0|0:0,0:0:0:0:
202,333,21784,5,0,0:0:0:0:
152,155,22276,1,2,0:0:0:0:
278,276,22768,2,0,L|462:261,1,160,8|4,0:0|0:0,0:0:0:0:
308,169,23751,6,0,P|252:193|199:198,1,80,2|0,0:0|0:0,0:0:0:0:
152,155,24120,1,0,0:0:0:0:
135,125,24243,2,0,P|79:101|26:96,1,80
156,241,24735,2,0,P|201:158|251:111,1,160,8|0,0:0|0:0,0:0:0:0:
427,146,25473,1,2,0:0:0:0:
362,234,25719,6,0,P|322:236|283:243,1,80
220,314,26087,1,0,0:0:0:0:
198,341,26210,2,0,P|158:339|118:332,1,80,2|0,0:0|0:0,0:0:0:0:
172,130,26702,2,0,B|184:192|177:256|177:256|213:213,1,160,8|0,0:0|0:0,0:0:0:0:
413,186,27686,6,0,P|371:201|270:144,1,160,2|0,0:0|0:0,0:0:0:0:
226,47,28423,1,2,0:0:0:0:
362,101,28669,2,0,L|373:266,1,160,8|0,0:0|0:0,0:0:0:0:
240,276,29407,6,0,P|177:301|155:317,2,80,2|0|0,0:0|0:0|0:0,0:0:0:0:
357,347,30145,1,2,0:0:0:0:
272,295,31620,6,0,L|266:210,2,80,2|0|0,0:0|0:0|0:0,0:0:0:0:
340,184,32358,1,0,0:0:0:0:
213,154,32604,1,8,0:0:0:0:
295,264,32850,2,0,P|356:272|407:254,1,80
326,153,33342,2,0,L|321:57,1,80,2|0,0:0|0:0,0:0:0:0:
217,233,34079,6,0,L|212:137,1,80,2|0,0:0|0:0,0:0:0:0:
137,261,34571,2,0,P|179:309|273:299,1,160,8|0,0:0|0:0,0:0:0:0:
268,302,35309,1,0,0:0:0:0:
320,193,35555,6,0,P|251:168|216:232,1,160
338,296,36292,1,2,0:0:0:0:
389,169,36538,1,8,0:0:0:0:
255,256,36784,2,0,L|165:264,1,80
338,296,37276,2,0,L|248:304,1,80,2|0,0:0|0:0,0:0:0:0:
98,219,38014,5,2,0:0:0:0:
155,304,38260,1,0,0:0:0:0:
186,162,38505,2,0,P|190:109|189:79,1,80,8|0,0:0|0:0,0:0:0:0:
98,219,38997,1,0,0:0:0:0:
243,247,39243,1,0,0:0:0:0:
155,304,39489,6,0,P|101:302|68:308,2,80,2|0|0,0:0|0:0|0:0,0:0:0:0:
278,348,40227,1,0,0:0:0:0:
293,215,40473,1,8,0:0:0:0:
376,319,40719,2,0,P|366:270|373:222,1,80
487,189,41210,2,0,P|488:228|479:267,1,80,2|0,0:0|0:0,0:0:0:0:
448,120,41948,6,0,P|472:151|486:188,1,80,2|0,0:0|0:0,0:0:0:0:
318,171,42440,2,0,P|330:117|416:137,1,160,8|0,0:0|0:0,0:0:0:0:
414,133,43178,1,0,0:0:0:0:
354,257,43423,6,0,P|324:216|207:194,1,160,2|0,0:0|0:0,0:0:0:0:
246,304,44161,1,2,0:0:0:0:
354,257,44407,2,0,P|401:252|463:254,2,80,8|0|0,0:0|0:0|0:0,0:0:0:0:
217,321,45145,2,0,P|170:316|108:318,1,80,2|0,0:0|0:0,0:0:0:0:
245,207,45883,5,0,0:0:0:0:
245,207,46866,2,0,L|245:289,1,80
338,162,47358,6,0,P|292:115|235:105,2,88.000002685547,6|0|0,0:0|0:0|0:0,0:0:0:0:
270,261,48096,1,0,0:0:0:0:
127,191,48342,2,0,L|243:180,1,88.000002685547,8|0,0:0|0:0,0:0:0:0:
394,279,48833,2,0,L|278:268,1,88.000002685547,0|2,0:0|0:0,0:0:0:0:
175,324,49325,5,0,0:0:0:0:
127,191,49571,1,0,0:0:0:0:
306,270,49817,2,0,P|309:329|309:365,1,88.000002685547,2|0,0:0|0:0,0:0:0:0:
155,206,50309,2,0,P|214:203|250:203,1,88.000002685547,8|0,0:0|0:0,0:0:0:0:
378,121,50801,2,0,P|319:124|283:124,1,88.000002685547
154,44,51292,5,2,0:0:0:0:
83,179,51538,2,0,P|70:243|67:294,2,88.000002685547,0|0|2,0:0|0:0|0:0,0:0:0:0:
227,143,52276,1,8,0:0:0:0:
189,273,52522,2,0,P|247:261|292:261,1,88.000002685547
360,98,53014,6,0,P|302:86|257:86,2,88.000002685547,2|0|0,0:0|0:0|0:0,0:0:0:0:
453,208,53751,2,0,L|448:309,1,88.000002685547,2|0,0:0|0:0,0:0:0:0:
315,122,54243,2,0,L|320:223,2,88.000002685547,8|0|0,0:0|0:0|0:0,0:0:0:0:
448,37,54981,1,0,0:0:0:0:
379,205,55227,6,0,P|315:226|213:141,1,176.000005371094,2|0,0:0|0:0,0:0:0:0:
277,313,55964,1,0,0:0:0:0:
315,122,56210,2,0,L|311:17,2,88.000002685547,8|0|0,0:0|0:0|0:0,0:0:0:0:
466,202,56948,6,0,P|404:200|359:209,2,88.000002685547,2|0|0,0:0|0:0|0:0,0:0:0:0:
364,315,57686,2,0,P|302:317|257:308,1,88.000002685547,2|0,0:0|0:0,0:0:0:0:
162,238,58178,2,0,L|153:142,1,88.000002685547,8|0,0:0|0:0,0:0:0:0:
239,37,58669,2,0,L|230:124,1,88.000002685547
124,222,59161,6,0,P|167:198|234:303,1,176.000005371094,2|0,0:0|0:0,0:0:0:0:
104,310,59899,1,2,0:0:0:0:
45,175,60145,2,0,P|53:109|49:66,2,88.000002685547,8|0|0,0:0|0:0|0:0,0:0:0:0:
138,300,60883,1,2,0:0:0:0:
29,220,61128,6,0,L|136:218,1,88.000002685547
237,310,61620,2,0,L|344:312,1,88.000002685547,2|0,0:0|0:0,0:0:0:0:
262,146,62112,1,8,0:0:0:0:
400,189,62358,2,0,P|451:192|507:183,2,88.000002685547,2|0|0,0:0|0:0|0:0,0:0:0:0:
284,30,63096,6,0,L|262:153,2,88.000002685547,6|0|0,0:0|0:0|0:0,0:0:0:0:
356,141,63833,1,0,0:0:0:0:
187,179,64079,2,0,P|167:131|177:75,1,88.000002685547,8|0,0:0|0:0,0:0:0:0:
289,217,64571,2,0,P|260:262|190:285,1,88.000002685547,0|2,0:0|0:0,0:0:0:0:
87,221,65063,5,0,0:0:0:0:
186,119,65309,1,0,0:0:0:0:
289,217,65555,1,2,0:0:0:0:
190,319,65801,1,2,0:0:0:0:
108,201,66046,2,0,L|98:77,1,88.000002685547,8|0,0:0|0:0,0:0:0:0:
193,292,66538,2,0,L|203:168,1,88.000002685547
256,32,67030,5,2,0:0:0:0:
394,107,67276,2,0,P|459:99|501:100,2,88.000002685547,0|0|2,0:0|0:0|0:0,0:0:0:0:
224,195,68014,1,8,0:0:0:0:
370,277,68260,2,0,P|429:304|459:331,1,88.000002685547
257,314,68751,6,0,P|284:255|311:225,2,88.000002685547
376,156,69489,2,0,L|261:164,1,88.000002685547,2|0,0:0|0:0,0:0:0:0:
157,265,69981,2,0,L|42:257,2,88.000002685547,8|0|0,0:0|0:0|0:0,0:0:0:0:
300,318,70719,1,0,0:0:0:0:
230,108,70964,6,0,P|208:170|289:240,1,176.000005371094,2|0,0:0|0:0,0:0:0:0:
429,301,71702,1,0,0:0:0:0:
375,151,71948,2,0,P|313:156|271:166,2,88.000002685547,8|0|0,0:0|0:0|0:0,0:0:0:0:
263,268,72686,6,0,P|201:263|159:253,2,88.000002685547,2|0|0,0:0|0:0|0:0,0:0:0:0:
391,200,73423,2,0,P|385:141|392:99,1,88.000002685547,2|0,0:0|0:0,0:0:0:0:
280,27,73915,2,0,P|283:70|277:114,1,88.000002685547,8|0,0:0|0:0,0:0:0:0:
200,222,74407,2,0,L|80:232,1,88.000002685547
15,135,74899,6,0,B|142:122|142:122|203:137,1,176.000005371094,2|0,0:0|0:0,0:0:0:0:
353,181,75637,1,2,0:0:0:0:
233,306,75883,2,0,P|236:262|250:220,2,88.000002685547,8|0|0,0:0|0:0|0:0,0:0:0:0:
376,188,76620,2,0,L|472:159,1,88.000002685547,2|0,0:0|0:0,0:0:0:0:
256,192,76989,12,0,78833,0:0:0:0:
