osu file format v14

[General]
AudioFilename: audio.mp3
AudioLeadIn: 0
PreviewTime: 46866
Countdown: 0
SampleSet: Soft
StackLeniency: 0.7
Mode: 0
LetterboxInBreaks: 0
WidescreenStoryboard: 0

[Editor]
DistanceSpacing: 1.2
BeatDivisor: 4
GridSize: 32
TimelineZoom: 1

[Metadata]
Title:Moon without the Stars
TitleUnicode:Moon without the Stars
Artist:Jerry Barnes Quiana
ArtistUnicode:Jerry Barnes Quiana
Creator:guineaQ
Version:Hard
Source:Deemo
Tags:
BeatmapID:989447
BeatmapSetID:420318

[Difficulty]
HPDrainRate:5
CircleSize:4
OverallDifficulty:6
ApproachRate:7
SliderMultiplier:1.4
SliderTickRate:1

[Events]
//Background and Video events
0,0,"heartache.jpg",0,0
//Break Periods
//Storyboard Layer 0 (Background)
//Storyboard Layer 1 (Fail)
//Storyboard Layer 2 (Pass)
//Storyboard Layer 3 (Foreground)
//Storyboard Sound Samples

[TimingPoints]
15883,491.803278688525,4,2,1,35,1,0
23260,-100,4,2,1,15,0,0
23751,-100,4,2,1,35,0,0
47358,-90.9090909090909,4,2,1,50,0,1
62850,-90.9090909090909,4,2,1,50,0,0
63096,-90.9090909090909,4,2,1,50,0,1
76866,-100,4,2,1,35,0,0
78833,-100,4,2,1,5,0,0

[HitObjects]
256,192,8014,12,0,13915,0:0:0:0:
322,223,15882,6,0,L|316:138,1,70,6|0,0:0|0:0,0:0:0:0:
296,115,16251,1,0,0:0:0:0:
296,115,16374,2,0,L|197:102,1,70
106,132,16866,2,0,L|7:119,2,70,8|0|0,0:0|0:0|0:0,0:0:0:0:
157,65,17604,1,2,0:0:0:0:
180,171,17850,6,0,P|184:230|182:260,1,70
174,282,18219,1,0,0:0:0:0:
174,282,18342,2,0,P|233:278|263:280,1,70,2|0,0:0|0:0,0:0:0:0:
350,225,18833,2,0,P|384:225|419:221,2,70,8|0|0,0:0|0:0|0:0,0:0:0:0:
229,107,19817,6,0,P|255:163|239:255,1,140,2|0,0:0|0:0,0:0:0:0:
174,282,20555,1,2,0:0:0:0:
107,191,20801,2,0,L|-15:187,2,105,8|0|2,0:0|0:0|0:0,0:0:0:0:
178,146,21784,5,0,0:0:0:0:
303,257,22276,1,2,0:0:0:0:
398,118,22768,2,0,P|331:91|255:94,1,140,8|4,0:0|0:0,0:0:0:0:
199,246,23751,6,0,L|195:165,1,70,2|0,0:0|0:0,0:0:0:0:
169,142,24120,1,0,0:0:0:0:
169,142,24243,2,0,L|165:61,1,70
93,180,24735,2,0,P|145:222|236:195,1,140,8|0,0:0|0:0,0:0:0:0:
248,103,25473,1,2,0:0:0:0:
292,174,25719,6,0,P|324:182|368:176,1,70
395,154,26087,1,0,0:0:0:0:
395,154,26210,2,0,P|427:146|471:152,1,70,2|0,0:0|0:0,0:0:0:0:
432,267,26702,2,0,B|395:280|362:268|331:253|285:270,1,140,8|0,0:0|0:0,0:0:0:0:
80,267,27686,6,0,B|116:280|150:268|181:253|227:270,1,140,2|0,0:0|0:0,0:0:0:0:
326,342,28423,1,2,0:0:0:0:
186,342,28669,2,0,L|174:186,1,140,8|0,0:0|0:0,0:0:0:0:
197,100,29407,6,0,L|190:10,2,70,2|0|0,0:0|0:0|0:0,0:0:0:0:
248,166,30145,1,2,0:0:0:0:
248,166,31620,6,0,P|287:191|306:222,2,70,2|0|0,0:0|0:0|0:0,0:0:0:0:
165,150,32358,1,0,0:0:0:0:
222,249,32604,2,0,L|225:333,2,70,8|0|0,0:0|0:0|0:0,0:0:0:0:
300,209,33342,2,0,L|384:206,1,70,2|0,0:0|0:0,0:0:0:0:
137,166,34079,6,0,L|207:164,1,70,2|0,0:0|0:0,0:0:0:0:
112,89,34571,2,0,P|66:124|64:206,1,140,8|0,0:0|0:0,0:0:0:0:
61,201,35309,1,0,0:0:0:0:
168,246,35555,6,0,L|318:244,1,140,2|0,0:0|0:0,0:0:0:0:
368,302,36292,1,2,0:0:0:0:
365,184,36538,2,0,L|363:114,2,70,8|0|0,0:0|0:0|0:0,0:0:0:0:
427,240,37276,2,0,L|497:238,1,70,2|0,0:0|0:0,0:0:0:0:
363,114,38014,6,0,L|293:116,1,70,2|0,0:0|0:0,0:0:0:0:
183,146,38505,2,0,L|186:60,1,70,8|0,0:0|0:0,0:0:0:0:
261,39,38997,1,0,0:0:0:0:
261,39,39243,1,0,0:0:0:0:
183,146,39489,6,0,L|180:215,2,70,2|0|0,0:0|0:0|0:0,0:0:0:0:
166,63,40227,1,0,0:0:0:0:
262,113,40473,2,0,P|306:118|336:116,2,70,8|0|0,0:0|0:0|0:0,0:0:0:0:
210,46,41210,2,0,P|166:41|136:43,1,70,2|0,0:0|0:0,0:0:0:0:
279,200,41948,6,0,P|278:165|283:131,1,70,2|0,0:0|0:0,0:0:0:0:
375,261,42440,2,0,P|302:271|245:308,1,140,8|0,0:0|0:0,0:0:0:0:
247,306,43178,1,0,0:0:0:0:
148,270,43423,6,0,P|138:197|101:140,1,140,2|0,0:0|0:0,0:0:0:0:
26,106,44161,1,2,0:0:0:0:
128,60,44407,2,0,P|173:52|219:52,2,70,8|0|0,0:0|0:0|0:0,0:0:0:0:
102,142,45145,2,0,L|101:212,1,70,2|0,0:0|0:0,0:0:0:0:
210,84,45883,5,2,0:0:0:0:
210,84,46866,2,0,L|209:154,1,70
294,267,47358,6,0,P|333:283|384:276,2,77.0000023498536,6|0|0,0:0|0:0|0:0,0:0:0:0:
233,196,48096,1,0,0:0:0:0:
317,119,48342,2,0,P|339:151|347:189,2,77.0000023498536,8|0|0,0:0|0:0|0:0,0:0:0:0:
230,45,49079,1,2,0:0:0:0:
180,123,49325,6,0,L|90:126,1,77.0000023498536
14,96,49817,2,0,L|104:93,1,77.0000023498536,2|0,0:0|0:0,0:0:0:0:
218,137,50309,2,0,P|236:195|225:230,1,77.0000023498536,8|0,0:0|0:0,0:0:0:0:
133,193,50801,2,0,P|116:227|117:265,1,77.0000023498536
203,296,51292,5,2,0:0:0:0:
233,209,51538,2,0,L|327:205,2,77.0000023498536,0|0|2,0:0|0:0|0:0,0:0:0:0:
117,265,52276,2,0,L|23:261,2,77.0000023498536,8|0|0,0:0|0:0|0:0,0:0:0:0:
194,214,53014,1,2,0:0:0:0:
194,214,53260,6,0,L|190:137,1,77.0000023498536
290,230,53751,2,0,P|336:254|391:246,1,77.0000023498536,2|0,0:0|0:0,0:0:0:0:
409,113,54243,2,0,P|375:131|353:162,1,77.0000023498536,8|0,0:0|0:0,0:0:0:0:
436,202,54735,2,0,P|450:237|449:275,1,77.0000023498536
353,161,55227,6,0,P|337:100|428:45,1,154.000004699707,2|0,0:0|0:0,0:0:0:0:
487,64,55964,1,0,0:0:0:0:
422,185,56210,2,0,P|425:147|409:113,2,77.0000023498536,8|0|0,0:0|0:0|0:0,0:0:0:0:
327,68,56948,6,0,P|288:65|254:81,2,77.0000023498536,2|0|0,0:0|0:0|0:0,0:0:0:0:
306,158,57686,2,0,P|271:174|233:171,1,77.0000023498536,2|0,0:0|0:0,0:0:0:0:
105,136,58178,2,0,L|111:225,1,77.0000023498536,8|0,0:0|0:0,0:0:0:0:
192,254,58669,2,0,L|198:343,1,77.0000023498536
110,212,59161,6,0,P|157:169|258:188,1,154.000004699707,2|0,0:0|0:0,0:0:0:0:
288,283,59899,1,0,0:0:0:0:
373,208,60145,2,0,P|426:200|472:205,2,77.0000023498536,8|0|0,0:0|0:0|0:0,0:0:0:0:
294,258,60883,1,0,0:0:0:0:
256,173,61128,6,0,L|253:68,1,77.0000023498536
332,46,61620,2,0,L|334:122,1,77.0000023498536,2|0,0:0|0:0,0:0:0:0:
294,258,62112,1,8,0:0:0:0:
373,208,62358,2,0,P|383:289|338:342,1,154.000004699707,2|0,0:0|0:0,0:0:0:0:
227,304,63096,6,0,P|195:301|120:310,2,77.0000023498536,6|0|0,0:0|0:0|0:0,0:0:0:0:
314,332,63833,1,0,0:0:0:0:
254,218,64079,2,0,L|251:136,2,77.0000023498536,8|0|0,0:0|0:0|0:0,0:0:0:0:
342,246,64817,1,2,0:0:0:0:
437,155,65063,6,0,L|355:158,1,77.0000023498536
254,218,65555,1,2,0:0:0:0:
342,246,65801,1,2,0:0:0:0:
246,309,66046,2,0,L|164:306,1,77.0000023498536,8|0,0:0|0:0,0:0:0:0:
84,268,66538,2,0,L|160:270,1,77.0000023498536
254,218,67030,5,2,0:0:0:0:
168,183,67276,2,0,P|153:135|162:96,2,77.0000023498536,0|0|2,0:0|0:0|0:0,0:0:0:0:
277,127,68014,2,0,P|321:150|342:184,2,77.0000023498536,8|0|0,0:0|0:0|0:0,0:0:0:0:
254,218,68751,1,2,0:0:0:0:
254,218,68997,6,0,L|256:314,1,77.0000023498536
168,183,69489,2,0,L|166:106,1,77.0000023498536,2|0,0:0|0:0,0:0:0:0:
11,102,69981,2,0,L|78:139,1,77.0000023498536,8|0,0:0|0:0,0:0:0:0:
92,47,70473,2,0,L|157:7,1,77.0000023498536
168,183,70964,6,0,P|233:199|310:124,1,154.000004699707,2|0,0:0|0:0,0:0:0:0:
220,105,71702,1,0,0:0:0:0:
338,68,71948,2,0,P|376:99|390:142,2,77.0000023498536,8|0|0,0:0|0:0|0:0,0:0:0:0:
220,105,72686,6,0,P|207:141|212:178,2,77.0000023498536,2|0|0,0:0|0:0|0:0,0:0:0:0:
300,151,73423,2,0,P|305:188|292:224,1,77.0000023498536,2|0,0:0|0:0,0:0:0:0:
133,262,73915,2,0,L|222:270,1,77.0000023498536,8|0,0:0|0:0,0:0:0:0:
291,313,74407,2,0,L|202:321,1,77.0000023498536
73,336,74899,6,0,P|39:279|84:180,1,154.000004699707,2|0,0:0|0:0,0:0:0:0:
172,175,75637,1,2,0:0:0:0:
99,86,75883,2,0,L|16:89,2,77.0000023498536,8|0|0,0:0|0:0|0:0,0:0:0:0:
178,133,76620,2,0,L|261:130,1,77.0000023498536,2|0,0:0|0:0,0:0:0:0:
256,192,76989,12,0,78833,0:0:0:0:
