osu file format v14

[General]
AudioFilename: audio.mp3
AudioLeadIn: 0
PreviewTime: 46866
Countdown: 0
SampleSet: Soft
StackLeniency: 0.7
Mode: 0
LetterboxInBreaks: 0
WidescreenStoryboard: 0

[Editor]
DistanceSpacing: 1.5
BeatDivisor: 4
GridSize: 32
TimelineZoom: 1

[Metadata]
Title:Moon without the Stars
TitleUnicode:Moon without the Stars
Artist:Jerry Barnes Quiana
ArtistUnicode:Jerry Barnes Quiana
Creator:guineaQ
Version:Advanced
Source:Deemo
Tags:
BeatmapID:990057
BeatmapSetID:420318

[Difficulty]
HPDrainRate:4
CircleSize:3.5
OverallDifficulty:4
ApproachRate:6
SliderMultiplier:1.2
SliderTickRate:1

[Events]
//Background and Video events
0,0,"heartache.jpg",0,0
//Break Periods
//Storyboard Layer 0 (Background)
//Storyboard Layer 1 (Fail)
//Storyboard Layer 2 (Pass)
//Storyboard Layer 3 (Foreground)
//Storyboard Sound Samples

[TimingPoints]
15883,491.803278688525,4,2,1,35,1,0
23260,-100,4,2,1,15,0,0
23751,-100,4,2,1,35,0,0
47358,-100,4,2,1,50,0,1
62850,-100,4,2,1,50,0,0
63096,-100,4,2,1,50,0,1
76866,-100,4,2,1,35,0,0
78833,-100,4,2,1,5,0,0

[HitObjects]
256,192,8014,12,0,13915,0:0:0:0:
316,171,15882,5,6,0:0:0:0:
316,171,16128,2,0,P|328:119|320:96,2,60
229,195,16866,2,0,P|285:212|325:276,1,120,8|0,0:0|0:0,0:0:0:0:
233,284,17604,1,2,0:0:0:0:
152,244,17850,2,0,P|138:186|169:126,2,120,0|2|8,0:0|0:0|0:0,0:0:0:0:
229,195,19079,2,0,L|302:195,1,60
389,128,19817,6,0,B|340:128|340:128|319:115|319:115|250:115,1,120,2|0,0:0|0:0,0:0:0:0:
182,115,20555,1,0,0:0:0:0:
117,51,20801,2,0,P|71:33|17:38,2,90,8|0|2,0:0|0:0|0:0,0:0:0:0:
182,115,21784,2,0,P|165:169|207:224,1,120,0|2,0:0|0:0,0:0:0:0:
314,219,22768,2,0,P|346:170|330:115,1,120,8|4,0:0|0:0,0:0:0:0:
256,20,23751,5,2,0:0:0:0:
256,20,23997,2,0,L|316:20,2,60
167,43,24735,2,0,P|136:91|152:147,1,120,8|0,0:0|0:0,0:0:0:0:
232,105,25473,1,2,0:0:0:0:
273,184,25719,2,0,P|251:227|182:269,2,120,0|2|8,0:0|0:0|0:0,0:0:0:0:
232,105,26948,2,0,L|232:22,1,60
119,88,27686,6,0,B|105:126|123:150|143:177|128:212,1,120,2|0,0:0|0:0,0:0:0:0:
62,263,28423,1,2,0:0:0:0:
136,313,28669,2,0,P|176:265|252:265,1,120,8|0,0:0|0:0,0:0:0:0:
302,312,29407,2,0,L|385:308,2,60,2|0|0,0:0|0:0|0:0,0:0:0:0:
216,342,30145,1,2,0:0:0:0:
216,342,31620,6,0,P|220:279|208:201,1,120,2|0,0:0|0:0,0:0:0:0:
188,135,32358,1,0,0:0:0:0:
113,85,32604,2,0,P|106:49|108:21,2,60,8|0|0,0:0|0:0|0:0,0:0:0:0:
188,135,33342,2,0,P|217:135|247:129,1,60,2|0,0:0|0:0,0:0:0:0:
345,198,34079,2,0,P|315:197|285:203,1,60,2|0,0:0|0:0,0:0:0:0:
325,284,34571,2,0,P|389:297|405:236,1,120,8|0,0:0|0:0,0:0:0:0:
410,256,35309,1,0,0:0:0:0:
345,198,35555,6,0,P|297:154|296:86,1,120,2|0,0:0|0:0,0:0:0:0:
379,116,36292,1,2,0:0:0:0:
417,34,36538,2,0,L|483:29,2,60,8|0|0,0:0|0:0|0:0,0:0:0:0:
327,23,37276,2,0,L|267:27,1,60,2|0,0:0|0:0,0:0:0:0:
181,111,38014,2,0,L|241:115,1,60,2|0,0:0|0:0,0:0:0:0:
309,173,38505,2,0,L|310:244,2,60
330,85,39243,1,0,0:0:0:0:
407,38,39489,6,0,P|421:74|377:161,1,120,2|0,0:0|0:0,0:0:0:0:
309,173,40227,1,0,0:0:0:0:
243,110,40473,2,0,P|217:104|158:104,2,60,8|0|0,0:0|0:0|0:0,0:0:0:0:
330,85,41210,2,0,P|329:49|313:-1,1,60,2|0,0:0|0:0,0:0:0:0:
243,110,41948,2,0,P|237:139|236:169,1,60,2|0,0:0|0:0,0:0:0:0:
291,241,42440,2,0,P|226:226|164:232,1,120,8|0,0:0|0:0,0:0:0:0:
173,229,43178,1,0,0:0:0:0:
104,286,43423,6,0,P|119:221|113:159,1,120,2|0,0:0|0:0,0:0:0:0:
88,81,44161,1,2,0:0:0:0:
161,29,44407,2,0,L|230:33,2,60,8|0|0,0:0|0:0|0:0,0:0:0:0:
88,81,45145,2,0,L|26:86,1,60,2|0,0:0|0:0,0:0:0:0:
115,168,45883,1,2,0:0:0:0:
115,168,47358,6,0,L|250:157,1,120,6|0,0:0|0:0,0:0:0:0:
320,186,48096,1,0,0:0:0:0:
284,268,48342,2,0,P|267:287|227:306,2,60,8|0|0,0:0|0:0|0:0,0:0:0:0:
320,186,49079,1,2,0:0:0:0:
368,110,49325,2,0,L|427:114,1,60
418,24,49817,2,0,L|358:19,1,60,2|0,0:0|0:0,0:0:0:0:
281,67,50309,2,0,P|233:62|208:64,2,60
367,149,51292,6,0,P|309:183|237:174,1,120,2|0,0:0|0:0,0:0:0:0:
177,141,52030,1,2,0:0:0:0:
140,223,52276,2,0,L|146:308,2,60,8|0|0,0:0|0:0|0:0,0:0:0:0:
57,185,53014,1,2,0:0:0:0:
94,103,53260,2,0,L|89:43,1,60
172,81,53751,2,0,L|177:141,1,60,2|0,0:0|0:0,0:0:0:0:
232,212,54243,2,0,P|284:222|308:218,2,60,8|0|0,0:0|0:0|0:0,0:0:0:0:
330,142,55227,6,0,P|373:191|368:264,1,120,2|0,0:0|0:0,0:0:0:0:
313,308,55964,1,0,0:0:0:0:
222,307,56210,2,0,P|240:251|290:221,1,120,8|0,0:0|0:0,0:0:0:0:
375,243,56948,2,0,L|459:252,2,60,2|0|0,0:0|0:0|0:0,0:0:0:0:
316,174,57686,2,0,L|322:114,1,60,2|0,0:0|0:0,0:0:0:0:
337,25,58178,2,0,P|298:64|215:75,1,120,8|0,0:0|0:0,0:0:0:0:
127,130,59161,6,0,P|184:142|227:183,1,120,2|0,0:0|0:0,0:0:0:0:
198,269,59899,1,2,0:0:0:0:
285,249,60145,2,0,L|419:243,1,120,8|0,0:0|0:0,0:0:0:0:
487,207,60883,2,0,L|490:285,2,60,2|0|0,0:0|0:0|0:0,0:0:0:0:
412,157,61620,2,0,L|409:97,1,60,2|0,0:0|0:0,0:0:0:0:
451,16,62112,1,8,0:0:0:0:
451,16,62358,2,0,L|325:23,1,120,2|0,0:0|0:0,0:0:0:0:
280,97,63096,6,0,L|154:90,1,120,6|0,0:0|0:0,0:0:0:0:
76,124,63833,1,0,0:0:0:0:
2,71,64079,2,0,P|41:41|74:41,2,60,8|0|0,0:0|0:0|0:0,0:0:0:0:
76,124,64817,1,2,0:0:0:0:
146,180,65063,2,0,L|152:258,1,60
156,330,65555,1,2,0:0:0:0:
156,330,65801,1,2,0:0:0:0:
244,318,66046,2,0,L|304:313,2,60,8|0|0,0:0|0:0|0:0,0:0:0:0:
150,239,67030,6,0,L|288:227,1,120,2|0,0:0|0:0,0:0:0:0:
336,168,67768,1,2,0:0:0:0:
405,111,68014,2,0,L|465:106,2,60,8|0|0,0:0|0:0|0:0,0:0:0:0:
320,80,68751,1,2,0:0:0:0:
236,46,68997,2,0,P|194:61|166:93,1,60
249,132,69489,2,0,P|282:160|324:169,1,60,2|0,0:0|0:0,0:0:0:0:
320,80,69981,2,0,P|328:36|314:-4,2,60,8|0|0,0:0|0:0|0:0,0:0:0:0:
206,39,70964,6,0,L|218:169,1,120,2|0,0:0|0:0,0:0:0:0:
229,248,71702,1,0,0:0:0:0:
174,319,71948,2,0,P|139:261|155:198,1,120,8|0,0:0|0:0,0:0:0:0:
217,158,72686,2,0,P|268:164|287:175,2,60,2|0|0,0:0|0:0|0:0,0:0:0:0:
132,126,73423,2,0,P|81:120|62:109,1,60,2|0,0:0|0:0,0:0:0:0:
6,55,73915,2,0,P|58:27|116:36,1,120,8|0,0:0|0:0,0:0:0:0:
221,96,74899,6,0,P|249:147|239:206,1,120,2|0,0:0|0:0,0:0:0:0:
165,252,75637,1,2,0:0:0:0:
104,185,75883,2,0,P|129:168|159:163,2,60,8|0|0,0:0|0:0|0:0,0:0:0:0:
165,252,76620,2,0,L|165:313,1,60,2|0,0:0|0:0,0:0:0:0:
256,192,76989,12,0,78833,0:0:0:0:
