osu file format v14

[General]
AudioFilename: audio.mp3
AudioLeadIn: 0
PreviewTime: 4241
Countdown: 1
SampleSet: Soft
StackLeniency: 0.7
Mode: 0
LetterboxInBreaks: 0
WidescreenStoryboard: 1

[Editor]
Bookmarks: 106795,123205
DistanceSpacing: 0.1
BeatDivisor: 4
GridSize: 16
TimelineZoom: 1.7

[Metadata]
Title:Rat's Birthday Mixtape
TitleUnicode:Rat's Birthday Mixtape
Artist:Jerma
ArtistUnicode:Jerma
Creator:mithew
Version:We Are the Rats
Source:Rat Movie 2: The Movie
Tags:Kevin MacLeod Electro Cabello
BeatmapID:1809151
BeatmapSetID:788334

[Difficulty]
HPDrainRate:6
CircleSize:4
OverallDifficulty:9
ApproachRate:10
SliderMultiplier:2.5
SliderTickRate:1

[Events]
//Background and Video events
0,0,"funny rat isolated on white background.jpg",0,0
//Break Periods
//Storyboard Layer 0 (Background)
//Storyboard Layer 1 (Fail)
//Storyboard Layer 2 (Pass)
//Storyboard Layer 3 (Foreground)
//Storyboard Sound Samples

[TimingPoints]
128.652665192827,512.820512820513,4,2,0,70,1,0
4231,-66.6666666666667,4,2,0,70,0,1
8333,-25,4,2,0,70,0,1
8846,-66.6666666666667,4,2,0,70,0,1
12436,-25,4,2,0,70,0,1
12692,-66.6666666666667,4,2,0,70,0,1
13461,-33.3333333333333,4,2,0,70,0,1
13846,-66.6666666666667,4,2,0,70,0,1
16538,-100,4,2,0,70,0,0
23461,-66.6666666666667,4,2,0,70,0,0
24744,-44.4444444444445,4,2,0,70,0,1
28846,-25,4,2,0,70,0,1
29103,-44.4444444444445,4,2,0,70,0,1
32949,-25,4,2,0,70,0,1
33205,-44.4444444444445,4,2,0,70,0,1
33974,-33.8983050847458,4,2,0,70,0,1
35000,-44.4444444444445,4,2,0,70,0,1
36026,-66.6666666666667,4,2,0,70,0,1
37051,-25,4,2,0,70,0,1
37308,-40,4,2,0,70,0,1
41154,-57.1428571428571,4,2,0,70,0,0
41410,-80,4,2,0,70,0,0
43718,-66.6666666666667,4,2,0,70,0,0
43974,-57.1428571428571,4,2,0,70,0,0
45256,-50,4,2,0,70,0,0
49359,-40,4,2,0,70,0,1
53461,-25,4,2,0,70,0,1
53974,-40,4,2,0,70,0,1
56538,-66.6666666666667,4,2,0,70,0,1
56795,-50,4,2,0,70,0,1
57051,-40,4,2,0,70,0,1
57308,-33.3333333333333,4,2,0,70,0,1
57564,-25,4,2,0,70,0,1
58333,-40,4,2,0,70,0,1
61667,-25,4,2,0,70,0,1
62692,-33.3333333333333,4,2,0,70,0,1
65769,-100,4,2,0,70,0,0
69872,-66.6666666666667,4,2,0,70,0,0
73974,-57.1428571428571,4,2,0,70,0,0
82179,-50,4,2,0,70,0,0
90385,-40,4,2,0,70,0,1
94423,-25,4,2,0,70,0,1
94744,-40,4,2,0,70,0,1
98590,-25,4,2,0,70,0,1
98846,-40,4,2,0,70,0,1
102692,-25,4,2,0,70,0,1
103077,-40,4,2,0,70,0,1
106795,-66.6666666666667,4,2,0,70,0,0

[Colours]
Combo1 : 197,136,109
Combo2 : 163,163,163

[HitObjects]
149,228,128,6,0,P|199:238|245:303,1,125
156,369,513,1,0,0:0:0:0:
54,218,641,2,0,L|50:155,1,62.5
149,228,897,2,0,L|152:290,1,62.5
225,147,1154,6,0,L|218:18,1,125
296,191,1538,1,0,0:0:0:0:
426,58,1667,2,0,P|360:69|322:124,1,125
456,25,2051,1,0,0:0:0:0:
403,266,2179,6,0,L|406:135,1,125
475,320,2564,1,0,0:0:0:0:
310,258,2692,2,0,P|278:259|249:270,1,62.5
452,200,2949,2,0,P|483:198|512:187,1,62.5
286,84,3205,5,0,0:0:0:0:
263,352,3333,1,0,0:0:0:0:
234,94,3461,5,0,0:0:0:0:
354,328,3590,1,0,0:0:0:0:
144,171,3718,5,0,0:0:0:0:
421,253,3846,1,0,0:0:0:0:
135,302,3974,5,0,0:0:0:0:
424,115,4103,1,0,0:0:0:0:
40,108,4231,6,0,B|134:122|134:122|226:59,1,187.500007152558
124,322,4615,1,0,0:0:0:0:
333,184,4744,2,0,B|297:268|297:268|321:363,1,187.500007152558
305,89,5128,1,0,0:0:0:0:
421,330,5256,5,0,0:0:0:0:
143,241,5385,2,0,P|100:239|50:272,2,93.7500035762788
319,341,5769,2,0,P|367:356|475:280,1,187.500007152558
188,352,6154,1,0,0:0:0:0:
263,126,6282,5,0,0:0:0:0:
272,252,6410,1,0,0:0:0:0:
172,125,6538,1,0,0:0:0:0:
371,191,6667,1,0,0:0:0:0:
199,318,6795,5,0,0:0:0:0:
251,12,6923,1,0,0:0:0:0:
365,353,7051,1,0,0:0:0:0:
83,150,7179,1,0,0:0:0:0:
461,204,7308,5,0,0:0:0:0:
35,130,7564,1,0,0:0:0:0:
339,54,7692,1,0,0:0:0:0:
80,271,7820,2,0,L|74:377,1,93.7500035762788
214,93,8077,2,0,L|208:0,1,93.7500035762788
343,334,8333,6,0,B|353:272|392:229|392:229|418:266|418:266|455:240|455:240|475:302|457:369,1,333.333333333333
114,84,8846,6,0,P|70:68|24:78,1,93.7500035762788
339,54,9103,2,0,P|382:69|428:59,1,93.7500035762788
127,277,9359,1,0,0:0:0:0:
194,60,9487,1,0,0:0:0:0:
270,366,9615,1,0,0:0:0:0:
22,190,9744,2,0,P|109:223|201:207,1,187.500007152558
409,30,10128,1,0,0:0:0:0:
292,188,10256,1,0,0:0:0:0:
459,355,10385,6,0,L|454:244,1,93.7500035762788
446,80,10641,1,0,0:0:0:0:
267,314,10769,2,0,L|387:329,1,93.7500035762788
199,207,11026,2,0,L|79:222,1,93.7500035762788
6,237,11282,1,0,0:0:0:0:
260,20,11410,5,0,0:0:0:0:
204,237,11538,1,0,0:0:0:0:
300,18,11667,5,0,0:0:0:0:
121,260,11795,1,0,0:0:0:0:
344,18,11923,5,0,0:0:0:0:
43,224,12051,1,0,0:0:0:0:
396,15,12179,5,0,0:0:0:0:
19,131,12308,1,0,0:0:0:0:
372,258,12436,6,0,B|363:191|324:148|324:148|298:185|298:185|261:159|261:159|239:219|256:278,1,333.333333333333
28,363,12820,5,0,0:0:0:0:
170,106,12949,1,0,0:0:0:0:
217,384,13077,1,0,0:0:0:0:
147,66,13205,1,0,0:0:0:0:
512,299,13461,6,0,B|383:251|383:251|346:144|346:144|475:189,1,375.000014305115
348,360,13846,1,0,0:0:0:0:
271,93,13974,2,0,L|283:0,1,93.7500035762788
81,165,14231,1,0,0:0:0:0:
427,89,14359,1,0,0:0:0:0:
143,308,14487,5,0,0:0:0:0:
175,191,14615,1,0,0:0:0:0:
235,342,14744,1,0,0:0:0:0:
173,151,14872,1,0,0:0:0:0:
385,226,15000,5,0,0:0:0:0:
117,301,15128,1,0,0:0:0:0:
420,219,15256,1,0,0:0:0:0:
83,142,15385,1,0,0:0:0:0:
403,368,15513,5,0,0:0:0:0:
265,35,15641,1,0,0:0:0:0:
110,341,15769,1,0,0:0:0:0:
461,215,15897,1,0,0:0:0:0:
55,101,16026,5,0,0:0:0:0:
485,99,16154,1,0,0:0:0:0:
72,285,16282,1,0,0:0:0:0:
469,346,16538,6,0,P|426:328|342:365,1,125
257,329,16923,1,0,0:0:0:0:
340,238,17051,2,0,L|336:176,1,62.5
231,77,17308,2,0,L|226:139,1,62.5
218,236,17564,1,0,0:0:0:0:
62,191,17692,6,0,P|88:177|146:177,1,62.5
37,339,17949,2,0,P|45:310|139:265,1,125
21,109,18333,1,0,0:0:0:0:
120,342,18461,1,0,0:0:0:0:
299,306,18590,6,0,L|297:376,1,62.5
373,225,18846,2,0,L|371:155,1,62.5
494,330,19103,2,0,L|359:347,1,125
212,370,19487,1,0,0:0:0:0:
150,197,19615,5,0,0:0:0:0:
415,224,19744,1,0,0:0:0:0:
129,164,19872,5,0,0:0:0:0:
394,191,20001,1,0,0:0:0:0:
80,238,20128,5,0,0:0:0:0:
483,192,20257,1,0,0:0:0:0:
172,53,20385,5,0,0:0:0:0:
202,350,20514,1,0,0:0:0:0:
469,38,20641,6,0,P|426:56|342:19,1,125
257,55,21026,1,0,0:0:0:0:
340,146,21154,2,0,L|336:208,1,62.5
231,307,21411,2,0,L|226:245,1,62.5
218,148,21667,1,0,0:0:0:0:
62,193,21795,6,0,P|88:207|146:207,1,62.5
37,45,22052,2,0,P|45:74|139:119,1,125
21,275,22436,1,0,0:0:0:0:
120,42,22564,1,0,0:0:0:0:
195,358,22692,6,0,L|191:295,1,62.5
289,277,22949,2,0,L|285:214,1,62.5
338,369,23205,1,0,0:0:0:0:
277,176,23333,1,0,0:0:0:0:
387,55,23461,6,0,L|267:36,1,93.7500035762788
419,247,23718,2,0,L|512:262,1,93.7500035762788
229,110,23974,1,0,0:0:0:0:
195,358,24103,1,0,0:0:0:0:
56,145,24231,6,0,P|60:98|40:36,1,93.7500035762788
187,266,24487,2,0,P|183:313|203:375,1,93.7500035762788
462,60,24744,6,0,B|325:86|325:86|207:6,1,281.250010728836
512,125,25128,1,0,0:0:0:0:
285,365,25256,2,0,B|363:246|363:246|495:206,1,281.250010728836
199,180,25641,1,0,0:0:0:0:
465,359,25769,5,0,0:0:0:0:
465,359,25897,2,0,P|468:297|426:226,2,140.625005364418
221,323,26282,2,0,P|133:351|-5:231,1,281.250010728836
317,354,26667,1,0,0:0:0:0:
242,31,26795,5,0,0:0:0:0:
180,275,26923,1,0,0:0:0:0:
325,99,27051,1,0,0:0:0:0:
107,164,27179,1,0,0:0:0:0:
397,169,27308,5,0,0:0:0:0:
38,335,27436,1,0,0:0:0:0:
220,0,27564,1,0,0:0:0:0:
365,384,27692,1,0,0:0:0:0:
0,182,27820,5,0,0:0:0:0:
487,130,28077,1,0,0:0:0:0:
173,54,28205,1,0,0:0:0:0:
470,243,28333,2,0,L|479:407,1,140.625005364418
208,140,28590,2,0,L|221:-25,1,140.625005364418
169,334,28846,6,0,B|159:272|120:229|120:229|94:266|94:266|57:240|57:240|37:302|55:369,1,333.333333333333
379,50,29359,6,0,P|454:33|526:63,1,140.625005364418
134,238,29615,2,0,P|59:255|-13:225,1,140.625005364418
286,22,29872,1,0,0:0:0:0:
397,370,30000,1,0,0:0:0:0:
66,137,30128,1,0,0:0:0:0:
478,264,30256,2,0,P|411:284|296:131,1,281.250010728836
174,331,30641,5,0,0:0:0:0:
194,65,30769,1,0,0:0:0:0:
459,29,30897,6,0,L|451:195,1,140.625005364418
438,372,31153,1,0,0:0:0:0:
194,65,31281,2,0,L|374:46,1,140.625005364418
140,241,31538,2,0,L|-16:218,1,140.625005364418
236,384,31794,1,0,0:0:0:0:
455,217,31923,5,0,0:0:0:0:
28,48,32179,1,0,0:0:0:0:
504,373,32436,1,0,0:0:0:0:
269,9,32692,1,0,0:0:0:0:
116,340,32949,6,0,B|106:278|67:235|67:235|41:272|41:272|4:246|4:246|-16:308|2:375,1,333.333333333333
490,179,33333,5,0,0:0:0:0:
233,60,33461,1,0,0:0:0:0:
146,297,33590,1,0,0:0:0:0:
431,258,33718,1,0,0:0:0:0:
0,56,33974,2,0,P|169:24|250:176,1,368.750011956692
0,208,34359,1,0,0:0:0:0:
435,29,34744,5,0,0:0:0:0:
455,251,34872,1,0,0:0:0:0:
139,166,35000,5,0,0:0:0:0:
232,120,35128,1,0,0:0:0:0:
229,230,35256,1,0,0:0:0:0:
192,80,35385,1,0,0:0:0:0:
162,273,35513,5,0,0:0:0:0:
217,53,35641,1,0,0:0:0:0:
330,235,35769,1,0,0:0:0:0:
83,151,35897,1,0,0:0:0:0:
366,78,36026,5,0,0:0:0:0:
66,251,36154,1,0,0:0:0:0:
407,175,36282,5,0,0:0:0:0:
55,82,36410,1,0,0:0:0:0:
183,368,36538,5,0,0:0:0:0:
212,27,36667,1,0,0:0:0:0:
357,358,36795,5,0,0:0:0:0:
307,33,36923,1,0,0:0:0:0:
76,355,37051,6,0,B|59:293|79:231|79:231|116:257|116:257|142:220|142:220|181:263|191:325,1,333.333333333333
426,103,37436,5,0,0:0:0:0:
141,99,37564,1,0,0:0:0:0:
459,65,37692,1,0,0:0:0:0:
114,55,37820,1,0,0:0:0:0:
399,243,38077,6,0,P|401:338|414:235,1,312.5
62,348,38461,1,0,0:0:0:0:
474,64,38846,5,0,0:0:0:0:
199,39,38974,1,0,0:0:0:0:
177,344,39103,5,0,0:0:0:0:
220,233,39231,1,0,0:0:0:0:
283,340,39359,1,0,0:0:0:0:
102,268,39487,1,0,0:0:0:0:
488,346,39615,1,0,0:0:0:0:
39,213,39872,6,0,L|24:33,1,156.25
506,14,40128,5,0,0:0:0:0:
95,321,40256,1,0,0:0:0:0:
497,107,40385,1,0,0:0:0:0:
38,211,40513,1,0,0:0:0:0:
417,346,40641,5,0,0:0:0:0:
247,11,40769,1,0,0:0:0:0:
15,306,40897,1,0,0:0:0:0:
506,270,41026,1,0,0:0:0:0:
19,0,41154,6,0,B|38:86|38:86|21:129|21:129|40:227,1,218.750002086163
79,366,41538,1,0,0:0:0:0:
155,221,41667,2,0,L|137:130,2,78.125
316,342,42051,2,0,P|276:339|238:349,1,78.125
358,250,42308,2,0,P|397:252|478:161,1,156.25
477,45,42692,1,0,0:0:0:0:
304,320,42949,5,0,0:0:0:0:
485,337,43077,1,0,0:0:0:0:
271,224,43205,1,0,0:0:0:0:
254,196,43461,6,0,L|264:105,1,78.125
116,231,43718,2,0,P|126:268|123:341,1,93.7500035762788
349,66,43974,2,0,P|302:38|248:27,1,109.375001043081
276,311,44231,6,0,B|371:321|371:321|388:314|388:314|403:324|403:324|489:333,1,218.750002086163
185,207,44615,1,0,0:0:0:0:
450,155,44744,2,0,L|442:30,1,109.375001043081
169,235,45000,2,0,L|177:360,1,109.375001043081
210,66,45256,6,0,B|127:57|76:103|76:103|18:78|3:29,1,250
312,141,45641,1,0,0:0:0:0:
38,177,45769,2,0,L|28:301,1,125
312,141,46026,2,0,L|302:16,1,125
346,345,46538,6,0,L|470:354,1,125
302,16,46795,2,0,B|226:27|186:-6|186:-6|138:55|50:67|50:67|80:112|58:157,1,375
74,237,47307,5,0,0:0:0:0:
145,211,47563,1,0,0:0:0:0:
132,284,47820,1,0,0:0:0:0:
59,158,48077,1,0,0:0:0:0:
203,260,48333,5,0,0:0:0:0:
42,333,48590,1,0,0:0:0:0:
160,167,48846,1,0,0:0:0:0:
142,341,49102,1,0,0:0:0:0:
471,356,49359,6,0,B|369:239|369:239|241:331,1,312.5
376,160,49744,1,0,0:0:0:0:
57,139,49872,2,0,B|159:256|159:256|286:163,1,312.5
146,338,50256,1,0,0:0:0:0:
118,5,50385,1,0,0:0:0:0:
119,5,50513,2,0,P|63:73|60:154,2,156.25
461,146,50897,2,0,B|288:182|313:95|153:101,1,312.5
438,58,51282,1,0,0:0:0:0:
66,270,51410,5,0,0:0:0:0:
487,301,51538,1,0,0:0:0:0:
63,224,51667,1,0,0:0:0:0:
471,327,51795,1,0,0:0:0:0:
181,78,51923,5,0,0:0:0:0:
174,369,52051,1,0,0:0:0:0:
461,148,52179,1,0,0:0:0:0:
36,289,52308,1,0,0:0:0:0:
260,20,52436,5,0,0:0:0:0:
204,237,52564,1,0,0:0:0:0:
300,18,52693,5,0,0:0:0:0:
121,260,52821,1,0,0:0:0:0:
344,18,52949,5,0,0:0:0:0:
43,224,53077,1,0,0:0:0:0:
396,15,53205,5,0,0:0:0:0:
19,131,53334,1,0,0:0:0:0:
491,298,53461,6,0,B|508:237|488:175|488:175|451:201|451:201|425:164|425:164|386:207|376:269,1,333.333333333333
0,64,53974,6,0,P|75:43|153:41,1,156.25
189,333,54231,2,0,P|113:353|35:355,1,156.25
452,62,54487,1,0,0:0:0:0:
400,356,54615,1,0,0:0:0:0:
106,304,54744,1,0,0:0:0:0:
158,10,54872,2,0,B|221:49|242:100|242:100|248:169|248:169|261:222|372:316,1,312.5
512,0,55256,5,0,0:0:0:0:
86,157,55385,1,0,0:0:0:0:
493,356,55513,6,0,B|496:303|492:254|463:204,1,156.25
315,23,55769,1,0,0:0:0:0:
220,329,55897,2,0,B|404:313,1,156.25
155,16,56154,2,0,B|-16:35,1,156.25
463,205,56410,1,0,0:0:0:0:
40,238,56538,6,0,P|15:296|19:358,1,93.7500035762788
112,111,56795,6,0,P|39:119|-14:168,1,125
232,94,57051,6,0,P|177:38|103:15,1,156.25
366,192,57308,6,0,P|373:112|314:-3,1,187.500007152558
491,384,57564,6,0,B|514:325|503:268|503:268|461:287|461:287|443:245|443:245|394:288|376:350,1,333.333333333333
78,251,57949,5,0,0:0:0:0:
95,94,58077,1,0,0:0:0:0:
69,326,58205,1,0,0:0:0:0:
105,16,58333,2,0,L|87:171,1,156.25
491,384,58590,6,0,P|478:234|346:163,1,312.5
500,115,58974,1,0,0:0:0:0:
142,353,59359,1,0,0:0:0:0:
258,339,59487,1,0,0:0:0:0:
32,258,59615,5,0,0:0:0:0:
217,134,59744,1,0,0:0:0:0:
352,327,59872,1,0,0:0:0:0:
29,170,60000,1,0,0:0:0:0:
471,51,60128,1,0,0:0:0:0:
498,139,60385,6,0,P|422:156|345:143,1,156.25
111,364,60641,5,0,0:0:0:0:
116,148,60769,1,0,0:0:0:0:
206,370,60897,5,0,0:0:0:0:
185,85,61026,1,0,0:0:0:0:
306,373,61154,5,0,0:0:0:0:
263,38,61282,1,0,0:0:0:0:
427,363,61410,5,0,0:0:0:0:
336,8,61538,1,0,0:0:0:0:
15,310,61667,6,0,B|-1:248|18:186|18:186|55:212|55:212|81:175|81:175|120:218|130:280,1,333.333333333333
492,116,62051,5,0,0:0:0:0:
109,153,62179,1,0,0:0:0:0:
341,274,62308,1,0,0:0:0:0:
89,35,62436,1,0,0:0:0:0:
446,346,62692,6,0,B|261:411|273:296|78:353,1,375.000014305115
337,275,63077,1,0,0:0:0:0:
468,29,63461,5,0,0:0:0:0:
15,133,63590,1,0,0:0:0:0:
389,350,63718,5,0,0:0:0:0:
346,239,63846,1,0,0:0:0:0:
283,346,63974,1,0,0:0:0:0:
464,274,64102,1,0,0:0:0:0:
78,352,64230,1,0,0:0:0:0:
297,54,64487,6,0,B|364:62|396:44|396:44|436:44|477:71,1,187.500007152558
41,103,64744,1,0,0:0:0:0:
477,174,64872,1,0,0:0:0:0:
131,160,65000,1,0,0:0:0:0:
347,137,65128,1,0,0:0:0:0:
77,351,65256,5,0,0:0:0:0:
105,184,65385,1,0,0:0:0:0:
194,313,65513,1,0,0:0:0:0:
14,264,65641,1,0,0:0:0:0:
343,208,65769,5,0,0:0:0:0:
352,287,65897,2,0,L|362:369,1,62.5
266,229,66154,1,0,0:0:0:0:
275,150,66282,2,0,L|285:68,1,62.5
381,232,66538,1,0,0:0:0:0:
390,311,66666,2,0,L|400:393,1,62.5
304,253,66923,1,0,0:0:0:0:
313,174,67051,2,0,L|323:92,1,62.5
506,306,67308,6,0,P|449:327|389:310,1,125
169,176,67820,5,0,0:0:0:0:
160,97,67948,2,0,L|150:15,1,62.5
246,155,68205,1,0,0:0:0:0:
237,234,68333,2,0,L|227:316,1,62.5
131,152,68589,1,0,0:0:0:0:
122,73,68717,2,0,L|112:-9,1,62.5
208,131,68974,1,0,0:0:0:0:
199,210,69102,2,0,L|189:292,1,62.5
5,77,69359,6,0,P|62:56|122:73,1,125
471,259,69872,5,0,0:0:0:0:
394,308,70000,2,0,P|348:315|302:305,1,93.7500035762788
23,318,70256,1,0,0:0:0:0:
100,269,70384,2,0,P|145:261|191:271,1,93.7500035762788
224,362,70641,1,0,0:0:0:0:
272,215,70769,1,0,0:0:0:0:
35,159,70897,5,0,0:0:0:0:
191,98,71026,1,0,0:0:0:0:
84,66,71154,1,0,0:0:0:0:
100,269,71282,1,0,0:0:0:0:
156,6,71410,2,0,P|246:22|295:99,1,187.500007152558
464,276,71923,5,0,0:0:0:0:
401,214,72051,2,0,P|355:221|317:249,1,93.7500035762788
100,159,72308,1,0,0:0:0:0:
162,220,72436,2,0,P|207:212|245:184,1,93.7500035762788
269,317,72692,1,0,0:0:0:0:
275,110,72820,1,0,0:0:0:0:
40,319,72949,5,0,0:0:0:0:
168,362,73077,1,0,0:0:0:0:
55,245,73205,5,0,0:0:0:0:
190,252,73333,1,0,0:0:0:0:
29,171,73461,6,0,P|50:118|1:3,1,187.500007152558
441,100,73974,5,0,0:0:0:0:
448,181,74103,2,0,B|459:248|459:248|417:239,1,109.375001043081
321,369,74359,1,0,0:0:0:0:
314,288,74488,2,0,B|303:221|303:221|345:230,1,109.375001043081
417,350,74744,1,0,0:0:0:0:
378,166,74872,1,0,0:0:0:0:
172,278,75000,5,0,0:0:0:0:
315,291,75128,1,0,0:0:0:0:
183,362,75256,1,0,0:0:0:0:
228,189,75385,1,0,0:0:0:0:
299,372,75513,2,0,L|26:343,1,218.750002086163
102,98,76026,5,0,0:0:0:0:
35,166,76154,2,0,B|14:218|14:218|25:246|25:246|21:286,1,109.375001043081
283,163,76410,1,0,0:0:0:0:
187,163,76538,2,0,B|135:184|135:184|123:212|123:212|92:237,1,109.375001043081
93,306,76795,1,0,0:0:0:0:
102,98,76923,1,0,0:0:0:0:
323,276,77051,5,0,0:0:0:0:
105,227,77179,1,0,0:0:0:0:
385,184,77308,5,0,0:0:0:0:
186,283,77436,1,0,0:0:0:0:
361,384,77564,6,0,P|335:305|412:165,1,218.750002086163
490,273,78077,5,0,0:0:0:0:
497,191,78206,2,0,B|508:124|508:124|466:133,1,109.375001043081
370,3,78462,1,0,0:0:0:0:
363,84,78591,2,0,B|352:151|352:151|394:142,1,109.375001043081
466,22,78847,1,0,0:0:0:0:
427,206,78975,1,0,0:0:0:0:
221,94,79103,5,0,0:0:0:0:
364,81,79231,1,0,0:0:0:0:
232,10,79359,1,0,0:0:0:0:
277,183,79488,1,0,0:0:0:0:
348,0,79616,2,0,L|75:29,1,218.750002086163
102,286,80129,5,0,0:0:0:0:
35,218,80257,2,0,B|14:166|14:166|25:138|25:138|21:98,1,109.375001043081
283,221,80513,1,0,0:0:0:0:
187,221,80641,2,0,B|135:199|135:199|123:171|123:171|92:146,1,109.375001043081
93,78,80898,1,0,0:0:0:0:
102,286,81026,1,0,0:0:0:0:
323,108,81154,5,0,0:0:0:0:
105,157,81282,1,0,0:0:0:0:
392,180,81411,5,0,0:0:0:0:
186,101,81539,1,0,0:0:0:0:
417,64,81667,5,0,0:0:0:0:
246,209,81795,1,0,0:0:0:0:
489,231,81923,5,0,0:0:0:0:
271,59,82051,1,0,0:0:0:0:
441,356,82179,6,0,P|387:325|325:318,1,125
170,365,82436,1,0,0:0:0:0:
170,365,82564,1,0,0:0:0:0:
489,231,82692,6,0,P|435:200|373:193,1,125
218,240,82949,1,0,0:0:0:0:
218,240,83077,1,0,0:0:0:0:
318,86,83205,5,0,0:0:0:0:
328,319,83333,1,0,0:0:0:0:
17,257,83461,2,0,B|53:236|62:216|62:216|85:202|133:202,1,125
233,26,83718,2,0,P|151:111|15:76,1,250
387,46,84231,6,0,L|375:189,1,125
364,306,84487,1,0,0:0:0:0:
270,123,84615,1,0,0:0:0:0:
512,0,84744,6,0,L|500:143,1,125
489,260,85000,1,0,0:0:0:0:
395,77,85128,1,0,0:0:0:0:
241,246,85256,5,0,0:0:0:0:
447,188,85385,1,0,0:0:0:0:
166,146,85513,2,0,B|171:207|171:207|146:296,1,125
316,363,85769,2,0,P|287:227|341:100,1,250
36,119,86282,6,0,P|90:89|151:84,1,125
322,125,86538,1,0,0:0:0:0:
127,175,86667,1,0,0:0:0:0:
286,9,86795,6,0,P|316:63|321:124,1,125
281,295,87051,1,0,0:0:0:0:
231,100,87180,1,0,0:0:0:0:
443,252,87308,5,0,0:0:0:0:
197,231,87436,1,0,0:0:0:0:
484,64,87564,2,0,P|477:134|499:188,1,125
369,384,87820,2,0,P|371:310|272:152,1,250
20,87,88333,5,0,0:0:0:0:
263,45,88461,1,0,0:0:0:0:
177,204,88590,1,0,0:0:0:0:
140,0,88718,1,0,0:0:0:0:
58,312,88846,5,0,0:0:0:0:
183,109,88974,1,0,0:0:0:0:
190,366,89103,1,0,0:0:0:0:
75,68,89231,1,0,0:0:0:0:
398,371,89359,6,0,L|336:361,1,62.5
12,276,89487,2,0,L|73:266,1,62.5
410,225,89615,2,0,L|348:215,1,62.5
24,128,89743,2,0,L|85:118,1,62.5
512,0,89872,5,0,0:0:0:0:
459,33,89936,1,0,0:0:0:0:
398,46,90000,1,0,0:0:0:0:
336,39,90064,1,0,0:0:0:0:
282,13,90128,1,0,0:0:0:0:
201,13,90192,1,0,0:0:0:0:
130,51,90256,1,0,0:0:0:0:
86,118,90320,1,0,0:0:0:0:
98,207,90385,6,0,B|132:273|135:359|135:359|201:315|282:330,1,312.5
469,313,90769,1,0,0:0:0:0:
159,137,90897,2,0,P|82:127|-5:188,1,156.25
367,25,91154,2,0,P|443:35|511:0,1,156.25
386,246,91410,1,0,0:0:0:0:
272,12,91538,1,0,0:0:0:0:
166,237,91667,1,0,0:0:0:0:
34,22,91795,1,0,0:0:0:0:
3,331,91923,6,0,P|81:311|159:335,1,156.25
319,380,92179,1,0,0:0:0:0:
196,171,92308,1,0,0:0:0:0:
474,233,92436,5,0,0:0:0:0:
317,286,92564,1,0,0:0:0:0:
512,324,92692,1,0,0:0:0:0:
449,122,92820,1,0,0:0:0:0:
220,352,92949,5,0,0:0:0:0:
503,210,93077,1,0,0:0:0:0:
179,163,93205,1,0,0:0:0:0:
501,55,93333,1,0,0:0:0:0:
27,227,93461,6,0,P|25:116|37:44,1,156.25
412,211,93718,2,0,P|424:306|416:366,1,156.25
292,28,93974,2,0,P|368:15|446:23,1,156.25
188,364,94231,2,0,P|110:367|32:359,1,156.25
151,146,94487,6,0,B|183:70|183:70|205:104|205:104|238:73|238:73|249:153,1,250
512,150,94744,6,0,P|443:113|366:102,1,156.25
296,365,95000,2,0,P|370:342|432:296,1,156.25
80,0,95256,2,0,P|43:68|32:145,1,156.25
100,364,95513,5,0,0:0:0:0:
480,143,95641,1,0,0:0:0:0:
16,172,95769,1,0,0:0:0:0:
494,320,95897,1,0,0:0:0:0:
37,268,96026,6,0,L|192:250,1,156.25
497,227,96282,1,0,0:0:0:0:
286,35,96410,1,0,0:0:0:0:
295,360,96538,5,0,0:0:0:0:
271,210,96667,1,0,0:0:0:0:
186,349,96795,1,0,0:0:0:0:
404,302,96923,5,0,0:0:0:0:
128,253,97051,1,0,0:0:0:0:
421,267,97180,1,0,0:0:0:0:
202,325,97308,1,0,0:0:0:0:
391,382,97436,1,0,0:0:0:0:
37,184,97564,5,0,0:0:0:0:
495,121,97692,1,0,0:0:0:0:
485,370,97820,1,0,0:0:0:0:
435,27,97949,1,0,0:0:0:0:
77,356,98077,5,0,0:0:0:0:
122,0,98205,1,0,0:0:0:0:
417,384,98333,1,0,0:0:0:0:
420,12,98461,1,0,0:0:0:0:
177,259,98590,6,0,B|209:183|209:183|231:217|231:217|264:186|264:186|275:266,1,250
0,47,98846,2,0,L|155:34,1,156.25
283,29,99103,1,0,0:0:0:0:
99,162,99231,1,0,0:0:0:0:
379,155,99359,2,0,L|364:-4,1,156.25
512,354,99615,6,0,B|436:382|436:382|361:370,1,156.25
2,188,99872,1,0,0:0:0:0:
2,188,100000,2,0,B|77:160|77:160|170:169,1,156.25
266,222,100256,1,0,0:0:0:0:
83,35,100385,5,0,0:0:0:0:
75,363,100513,1,0,0:0:0:0:
431,135,100641,5,0,0:0:0:0:
260,356,100769,1,0,0:0:0:0:
154,97,100897,1,0,0:0:0:0:
409,294,101026,1,0,0:0:0:0:
56,199,101154,5,0,0:0:0:0:
340,107,101282,1,0,0:0:0:0:
187,271,101410,1,0,0:0:0:0:
246,10,101538,1,0,0:0:0:0:
381,350,101667,5,0,0:0:0:0:
402,22,101795,1,0,0:0:0:0:
94,376,101923,5,0,0:0:0:0:
121,11,102051,1,0,0:0:0:0:
512,302,102179,5,0,0:0:0:0:
0,286,102308,1,0,0:0:0:0:
512,189,102436,5,0,0:0:0:0:
0,118,102564,1,0,0:0:0:0:
177,259,102692,6,0,B|209:183|209:183|231:217|231:217|264:186|264:186|275:266,1,250
7,268,102949,1,0,0:0:0:0:
452,87,103077,5,0,0:0:0:0:
141,87,103205,1,0,0:0:0:0:
423,12,103333,1,0,0:0:0:0:
111,98,103461,1,0,0:0:0:0:
501,27,103590,1,0,0:0:0:0:
449,314,103718,6,0,B|268:263|320:356|138:307,1,312.5
364,384,104103,1,0,0:0:0:0:
512,68,104487,6,0,P|457:97|313:102,1,156.25
43,35,104744,5,0,0:0:0:0:
336,183,104872,1,0,0:0:0:0:
80,156,105000,1,0,0:0:0:0:
256,128,105128,1,0,0:0:0:0:
158,384,105256,5,0,0:0:0:0:
198,66,105385,1,0,0:0:0:0:
505,293,105513,1,0,0:0:0:0:
0,225,105641,1,0,0:0:0:0:
450,168,105769,5,0,0:0:0:0:
248,3,105897,1,0,0:0:0:0:
285,371,106026,1,0,0:0:0:0:
82,206,106154,1,0,0:0:0:0:
427,0,106282,5,0,0:0:0:0:
450,344,106410,1,0,0:0:0:0:
89,354,106539,1,0,0:0:0:0:
63,20,106667,1,0,0:0:0:0:
251,187,106795,5,0,0:0:0:0:
