osu file format v14

[General]
AudioFilename: audio.mp3
AudioLeadIn: 0
PreviewTime: 61872
Countdown: 1
SampleSet: None
StackLeniency: 0.5
Mode: 3
LetterboxInBreaks: 0
SpecialStyle: 0
WidescreenStoryboard: 0

[Editor]
DistanceSpacing: 0.5
BeatDivisor: 8
GridSize: 4
TimelineZoom: 2

[Metadata]
Title:Industrial Nation
TitleUnicode:Industrial Nation
Artist:Jerico
ArtistUnicode:Jerico
Creator:_ark
Version:Mechanics
Source:https://www.deviantart.com/art/Mechanics-543849456
Tags:
BeatmapID:1515425
BeatmapSetID:717289

[Difficulty]
HPDrainRate:5
CircleSize:4
OverallDifficulty:5
ApproachRate:5
SliderMultiplier:1.8
SliderTickRate:1

[Events]
//Background and Video events
0,0,"somehtin.jpg",0,0
//Break Periods
2,24645,28638
2,31639,34032
//Storyboard Layer 0 (Background)
//Storyboard Layer 1 (Fail)
//Storyboard Layer 2 (Pass)
//Storyboard Layer 3 (Foreground)
//Storyboard Sound Samples

[TimingPoints]
13659,337.078651685393,4,2,1,50,1,0
40541,-33.3333333333333,4,2,1,50,0,0
40562,-333.333333333333,4,2,1,50,0,0
40583,-100,4,2,1,50,0,0
40625,-33.3333333333333,4,2,1,50,0,0
40667,-333.333333333333,4,2,1,50,0,0
40709,-100,4,2,1,50,0,0
43237,-33.3333333333333,4,2,1,50,0,0
43258,-333.333333333333,4,2,1,50,0,0
43279,-100,4,2,1,50,0,0
43321,-33.3333333333333,4,2,1,50,0,0
43362,-333.333333333333,4,2,1,50,0,0
43405,-100,4,2,1,50,0,0
45934,-33.3333333333333,4,2,1,50,0,0
45955,-333.333333333333,4,2,1,50,0,0
45976,-100,4,2,1,50,0,0
46018,-33.3333333333333,4,2,1,50,0,0
46060,-333.333333333333,4,2,1,50,0,0
46102,-100,4,2,1,50,0,0
48630,-33.3333333333333,4,2,1,50,0,0
48651,-333.333333333333,4,2,1,50,0,0
48672,-100,4,2,1,50,0,0
48715,-33.3333333333333,4,2,1,50,0,0
48757,-333.333333333333,4,2,1,50,0,0
48799,-100,4,2,1,50,0,0
51327,-33.3333333333333,4,2,1,50,0,0
51348,-333.333333333333,4,2,1,50,0,0
51369,-100,4,2,1,50,0,0
51411,-333.333333333333,4,2,1,50,0,0
51453,-33.3333333333333,4,2,1,50,0,0
51495,-100,4,2,1,50,0,0
54024,-33.3333333333333,4,2,1,50,0,0
54045,-333.333333333333,4,2,1,50,0,0
54066,-100,4,2,1,50,0,0
54108,-33.3333333333333,4,2,1,50,0,0
54150,-333.333333333333,4,2,1,50,0,0
54192,-100,4,2,1,50,0,0
56720,-33.3333333333333,4,2,1,50,0,0
56741,-333.333333333333,4,2,1,50,0,0
56762,-100,4,2,1,50,0,0
56805,-33.3333333333333,4,2,1,50,0,0
56847,-333.333333333333,4,2,1,50,0,0
56889,-100,4,2,1,50,0,0
59417,-33.3333333333333,4,2,1,50,0,0
59438,-333.333333333333,4,2,1,50,0,0
59459,-100,4,2,1,50,0,0
59501,-100,4,2,1,50,0,0
59543,-333.333333333333,4,2,1,50,0,0
59585,-100,4,2,1,50,0,0
60765,-20,4,2,1,50,0,0
60786,-500,4,2,1,50,0,0
60807,-100,4,2,1,50,0,0

[HitObjects]
192,192,13658,5,0,0:0:0:0:
320,192,13658,1,0,0:0:0:0:
192,192,14164,1,0,0:0:0:0:
448,192,14164,1,0,0:0:0:0:
192,192,15007,1,0,0:0:0:0:
320,192,15007,1,0,0:0:0:0:
320,192,15850,1,0,0:0:0:0:
192,192,15850,1,0,0:0:0:0:
64,192,16355,1,0,0:0:0:0:
320,192,16355,1,0,0:0:0:0:
192,192,16861,1,0,0:0:0:0:
448,192,16861,1,0,0:0:0:0:
64,192,17198,1,0,0:0:0:0:
320,192,17198,1,0,0:0:0:0:
192,192,17535,1,0,0:0:0:0:
64,192,17535,1,0,0:0:0:0:
320,192,17703,1,0,0:0:0:0:
448,192,17703,1,0,0:0:0:0:
192,192,18209,1,0,0:0:0:0:
448,192,18209,1,0,0:0:0:0:
192,192,18378,1,0,0:0:0:0:
448,192,18378,1,0,0:0:0:0:
320,192,18462,1,0,0:0:0:0:
64,192,18462,1,0,0:0:0:0:
192,192,18546,1,0,0:0:0:0:
448,192,18546,1,0,0:0:0:0:
320,192,18630,1,0,0:0:0:0:
64,192,18630,1,0,0:0:0:0:
192,192,18715,128,0,19052:0:0:0:0:
448,192,19052,1,0,0:0:0:0:
192,192,19557,1,0,0:0:0:0:
448,192,19557,1,0,0:0:0:0:
192,192,20400,1,0,0:0:0:0:
320,192,20400,1,0,0:0:0:0:
320,192,21243,1,0,0:0:0:0:
192,192,21243,1,0,0:0:0:0:
64,192,21748,1,0,0:0:0:0:
320,192,21748,1,0,0:0:0:0:
192,192,22254,1,0,0:0:0:0:
448,192,22254,1,0,0:0:0:0:
64,192,22591,1,0,0:0:0:0:
320,192,22591,1,0,0:0:0:0:
192,192,22928,1,0,0:0:0:0:
64,192,22928,1,0,0:0:0:0:
320,192,23097,1,0,0:0:0:0:
448,192,23097,1,0,0:0:0:0:
192,192,23602,1,0,0:0:0:0:
448,192,23602,1,0,0:0:0:0:
192,192,23771,1,0,0:0:0:0:
448,192,23771,1,0,0:0:0:0:
320,192,23855,1,0,0:0:0:0:
64,192,23855,1,0,0:0:0:0:
192,192,23939,1,0,0:0:0:0:
448,192,23939,1,0,0:0:0:0:
320,192,24024,1,0,0:0:0:0:
64,192,24024,1,0,0:0:0:0:
192,192,24108,128,0,24445:0:0:0:0:
448,192,24445,1,0,0:0:0:0:
448,192,29838,132,0,30175:0:0:0:0:
192,192,29838,128,0,30175:0:0:0:0:
320,192,30175,128,0,30512:0:0:0:0:
64,192,30175,128,0,30512:0:0:0:0:
192,192,30512,128,0,30850:0:0:0:0:
448,192,30512,128,0,30850:0:0:0:0:
320,192,30850,128,0,31144:0:0:0:0:
64,192,30850,128,0,31144:0:0:0:0:
320,192,31187,128,0,31229:0:0:0:0:
448,192,31187,128,0,31229:0:0:0:0:
192,192,31229,128,0,31271:0:0:0:0:
64,192,31229,128,0,31271:0:0:0:0:
320,192,31271,128,0,31313:0:0:0:0:
448,192,31271,128,0,31313:0:0:0:0:
192,192,31313,128,0,31355:0:0:0:0:
64,192,31313,128,0,31355:0:0:0:0:
320,192,31355,128,0,31397:0:0:0:0:
448,192,31355,128,0,31397:0:0:0:0:
192,192,31397,128,0,31439:0:0:0:0:
64,192,31397,128,0,31439:0:0:0:0:
192,192,35232,132,0,35569:0:0:0:0:
448,192,35232,128,0,35569:0:0:0:0:
64,192,35569,128,0,35906:0:0:0:0:
320,192,35569,128,0,35906:0:0:0:0:
192,192,35906,128,0,36243:0:0:0:0:
448,192,35906,128,0,36243:0:0:0:0:
320,192,36243,128,0,36538:0:0:0:0:
64,192,36243,128,0,36538:0:0:0:0:
320,192,36580,128,0,36622:0:0:0:0:
448,192,36580,128,0,36622:0:0:0:0:
192,192,36622,128,0,36664:0:0:0:0:
64,192,36622,128,0,36664:0:0:0:0:
320,192,36664,128,0,36706:0:0:0:0:
448,192,36664,128,0,36706:0:0:0:0:
192,192,36706,128,0,36748:0:0:0:0:
64,192,36706,128,0,36748:0:0:0:0:
320,192,36748,128,0,36791:0:0:0:0:
448,192,36748,128,0,36791:0:0:0:0:
192,192,36791,128,0,36833:0:0:0:0:
64,192,36791,128,0,36833:0:0:0:0:
320,192,40288,5,0,0:0:0:0:
64,192,40288,1,0,0:0:0:0:
448,192,40288,1,0,0:0:0:0:
192,192,40372,1,0,0:0:0:0:
320,192,40456,1,0,0:0:0:0:
64,192,40456,1,0,0:0:0:0:
448,192,40456,1,0,0:0:0:0:
192,192,40541,1,0,0:0:0:0:
320,192,40625,1,0,0:0:0:0:
64,192,40625,1,0,0:0:0:0:
192,192,40793,1,0,0:0:0:0:
448,192,40793,1,0,0:0:0:0:
192,192,40962,1,0,0:0:0:0:
448,192,40962,1,0,0:0:0:0:
64,192,40962,1,0,0:0:0:0:
64,192,41130,1,0,0:0:0:0:
192,192,41215,1,0,0:0:0:0:
448,192,41299,1,0,0:0:0:0:
320,192,41299,1,0,0:0:0:0:
192,192,41383,1,0,0:0:0:0:
320,192,41467,1,0,0:0:0:0:
64,192,41467,1,0,0:0:0:0:
320,192,41636,1,0,0:0:0:0:
64,192,41636,1,0,0:0:0:0:
448,192,41636,1,0,0:0:0:0:
320,192,41805,1,0,0:0:0:0:
448,192,41889,1,0,0:0:0:0:
64,192,41973,1,0,0:0:0:0:
320,192,41973,1,0,0:0:0:0:
192,192,42057,1,0,0:0:0:0:
64,192,42142,1,0,0:0:0:0:
320,192,42142,1,0,0:0:0:0:
192,192,42310,1,0,0:0:0:0:
64,192,42310,1,0,0:0:0:0:
448,192,42310,1,0,0:0:0:0:
64,192,42479,1,0,0:0:0:0:
192,192,42563,1,0,0:0:0:0:
64,192,42647,1,0,0:0:0:0:
448,192,42647,1,0,0:0:0:0:
320,192,42732,1,0,0:0:0:0:
64,192,42816,1,0,0:0:0:0:
192,192,42816,1,0,0:0:0:0:
320,192,42984,1,0,0:0:0:0:
64,192,42984,1,0,0:0:0:0:
448,192,42984,1,0,0:0:0:0:
192,192,43153,1,0,0:0:0:0:
320,192,43237,1,0,0:0:0:0:
448,192,43321,1,0,0:0:0:0:
64,192,43321,1,0,0:0:0:0:
192,192,43321,128,0,43342:0:0:0:0:
448,192,43490,1,0,0:0:0:0:
192,192,43490,1,0,0:0:0:0:
320,192,43658,1,0,0:0:0:0:
448,192,43658,1,0,0:0:0:0:
64,192,43658,1,0,0:0:0:0:
192,192,43827,1,0,0:0:0:0:
64,192,43911,1,0,0:0:0:0:
192,192,43996,1,0,0:0:0:0:
448,192,43996,1,0,0:0:0:0:
320,192,44080,1,0,0:0:0:0:
192,192,44164,1,0,0:0:0:0:
64,192,44164,1,0,0:0:0:0:
320,192,44333,1,0,0:0:0:0:
64,192,44333,1,0,0:0:0:0:
448,192,44333,1,0,0:0:0:0:
192,192,44501,1,0,0:0:0:0:
320,192,44585,1,0,0:0:0:0:
64,192,44585,1,0,0:0:0:0:
448,192,44670,1,0,0:0:0:0:
192,192,44670,1,0,0:0:0:0:
320,192,44754,1,0,0:0:0:0:
448,192,44838,1,0,0:0:0:0:
192,192,44838,1,0,0:0:0:0:
320,192,45007,1,0,0:0:0:0:
64,192,45007,1,0,0:0:0:0:
64,192,45175,1,0,0:0:0:0:
192,192,45260,1,0,0:0:0:0:
448,192,45344,1,0,0:0:0:0:
320,192,45344,1,0,0:0:0:0:
64,192,45344,1,0,0:0:0:0:
192,192,45428,1,0,0:0:0:0:
448,192,45512,1,0,0:0:0:0:
320,192,45597,1,0,0:0:0:0:
448,192,45681,1,0,0:0:0:0:
192,192,45681,1,0,0:0:0:0:
64,192,45681,1,0,0:0:0:0:
320,192,45765,1,0,0:0:0:0:
64,192,45850,1,0,0:0:0:0:
192,192,45934,1,0,0:0:0:0:
64,192,46018,1,0,0:0:0:0:
320,192,46018,1,0,0:0:0:0:
448,192,46018,128,0,46039:0:0:0:0:
448,192,46187,1,0,0:0:0:0:
192,192,46187,1,0,0:0:0:0:
64,192,46355,1,0,0:0:0:0:
448,192,46355,1,0,0:0:0:0:
192,192,46355,1,0,0:0:0:0:
64,192,46524,1,0,0:0:0:0:
192,192,46608,1,0,0:0:0:0:
320,192,46692,1,0,0:0:0:0:
448,192,46692,1,0,0:0:0:0:
192,192,46776,1,0,0:0:0:0:
64,192,46861,1,0,0:0:0:0:
320,192,46861,1,0,0:0:0:0:
448,192,47029,1,0,0:0:0:0:
64,192,47029,1,0,0:0:0:0:
320,192,47029,1,0,0:0:0:0:
320,192,47198,1,0,0:0:0:0:
448,192,47282,1,0,0:0:0:0:
320,192,47366,1,0,0:0:0:0:
64,192,47366,1,0,0:0:0:0:
192,192,47451,1,0,0:0:0:0:
320,192,47535,1,0,0:0:0:0:
64,192,47535,1,0,0:0:0:0:
448,192,47703,1,0,0:0:0:0:
64,192,47703,1,0,0:0:0:0:
192,192,47703,1,0,0:0:0:0:
64,192,47872,1,0,0:0:0:0:
192,192,47956,1,0,0:0:0:0:
448,192,48041,1,0,0:0:0:0:
64,192,48041,1,0,0:0:0:0:
320,192,48125,1,0,0:0:0:0:
192,192,48209,1,0,0:0:0:0:
64,192,48209,1,0,0:0:0:0:
448,192,48378,1,0,0:0:0:0:
64,192,48378,1,0,0:0:0:0:
320,192,48378,1,0,0:0:0:0:
192,192,48546,1,0,0:0:0:0:
320,192,48630,1,0,0:0:0:0:
64,192,48715,1,0,0:0:0:0:
448,192,48715,1,0,0:0:0:0:
192,192,48715,128,0,48736:0:0:0:0:
192,192,48883,1,0,0:0:0:0:
448,192,48883,1,0,0:0:0:0:
64,192,49052,1,0,0:0:0:0:
448,192,49052,1,0,0:0:0:0:
320,192,49052,1,0,0:0:0:0:
192,192,49220,1,0,0:0:0:0:
64,192,49305,1,0,0:0:0:0:
448,192,49389,1,0,0:0:0:0:
192,192,49389,1,0,0:0:0:0:
320,192,49473,1,0,0:0:0:0:
64,192,49557,1,0,0:0:0:0:
192,192,49557,1,0,0:0:0:0:
448,192,49726,1,0,0:0:0:0:
64,192,49726,1,0,0:0:0:0:
320,192,49726,1,0,0:0:0:0:
192,192,49894,1,0,0:0:0:0:
64,192,49979,1,0,0:0:0:0:
320,192,49979,1,0,0:0:0:0:
192,192,50063,1,0,0:0:0:0:
448,192,50063,1,0,0:0:0:0:
320,192,50147,1,0,0:0:0:0:
192,192,50232,1,0,0:0:0:0:
448,192,50232,1,0,0:0:0:0:
64,192,50400,1,0,0:0:0:0:
320,192,50400,1,0,0:0:0:0:
64,192,50569,1,0,0:0:0:0:
192,192,50653,1,0,0:0:0:0:
320,192,50737,1,0,0:0:0:0:
448,192,50737,1,0,0:0:0:0:
64,192,50737,1,0,0:0:0:0:
192,192,50821,1,0,0:0:0:0:
448,192,50906,1,0,0:0:0:0:
320,192,50990,1,0,0:0:0:0:
64,192,51074,1,0,0:0:0:0:
192,192,51074,1,0,0:0:0:0:
448,192,51074,1,0,0:0:0:0:
320,192,51158,1,0,0:0:0:0:
64,192,51243,1,0,0:0:0:0:
192,192,51327,1,0,0:0:0:0:
320,192,51411,1,0,0:0:0:0:
64,192,51411,1,0,0:0:0:0:
448,192,51411,128,0,51432:0:0:0:0:
192,192,51580,1,0,0:0:0:0:
448,192,51580,1,0,0:0:0:0:
192,192,51748,1,0,0:0:0:0:
448,192,51748,1,0,0:0:0:0:
64,192,51748,1,0,0:0:0:0:
64,192,51917,1,0,0:0:0:0:
192,192,52001,1,0,0:0:0:0:
448,192,52085,1,0,0:0:0:0:
320,192,52085,1,0,0:0:0:0:
192,192,52170,1,0,0:0:0:0:
320,192,52254,1,0,0:0:0:0:
64,192,52254,1,0,0:0:0:0:
320,192,52423,1,0,0:0:0:0:
64,192,52423,1,0,0:0:0:0:
448,192,52423,1,0,0:0:0:0:
320,192,52591,1,0,0:0:0:0:
448,192,52675,1,0,0:0:0:0:
64,192,52760,1,0,0:0:0:0:
320,192,52760,1,0,0:0:0:0:
192,192,52844,1,0,0:0:0:0:
64,192,52928,1,0,0:0:0:0:
320,192,52928,1,0,0:0:0:0:
192,192,53097,1,0,0:0:0:0:
64,192,53097,1,0,0:0:0:0:
448,192,53097,1,0,0:0:0:0:
64,192,53265,1,0,0:0:0:0:
192,192,53350,1,0,0:0:0:0:
64,192,53434,1,0,0:0:0:0:
448,192,53434,1,0,0:0:0:0:
320,192,53518,1,0,0:0:0:0:
64,192,53602,1,0,0:0:0:0:
192,192,53602,1,0,0:0:0:0:
320,192,53771,1,0,0:0:0:0:
64,192,53771,1,0,0:0:0:0:
448,192,53771,1,0,0:0:0:0:
192,192,53939,1,0,0:0:0:0:
320,192,54024,1,0,0:0:0:0:
448,192,54108,1,0,0:0:0:0:
64,192,54108,1,0,0:0:0:0:
192,192,54108,128,0,54129:0:0:0:0:
448,192,54276,1,0,0:0:0:0:
192,192,54276,1,0,0:0:0:0:
320,192,54445,1,0,0:0:0:0:
448,192,54445,1,0,0:0:0:0:
64,192,54445,1,0,0:0:0:0:
192,192,54614,1,0,0:0:0:0:
64,192,54698,1,0,0:0:0:0:
192,192,54782,1,0,0:0:0:0:
448,192,54782,1,0,0:0:0:0:
320,192,54866,1,0,0:0:0:0:
192,192,54951,1,0,0:0:0:0:
64,192,54951,1,0,0:0:0:0:
320,192,55119,1,0,0:0:0:0:
64,192,55119,1,0,0:0:0:0:
448,192,55119,1,0,0:0:0:0:
192,192,55288,1,0,0:0:0:0:
320,192,55372,1,0,0:0:0:0:
64,192,55372,1,0,0:0:0:0:
448,192,55456,1,0,0:0:0:0:
192,192,55456,1,0,0:0:0:0:
320,192,55541,1,0,0:0:0:0:
448,192,55625,1,0,0:0:0:0:
192,192,55625,1,0,0:0:0:0:
320,192,55793,1,0,0:0:0:0:
64,192,55793,1,0,0:0:0:0:
64,192,55962,1,0,0:0:0:0:
192,192,56046,1,0,0:0:0:0:
64,192,56130,1,0,0:0:0:0:
448,192,56130,1,0,0:0:0:0:
320,192,56130,1,0,0:0:0:0:
192,192,56215,1,0,0:0:0:0:
448,192,56299,1,0,0:0:0:0:
320,192,56383,1,0,0:0:0:0:
448,192,56467,1,0,0:0:0:0:
192,192,56467,1,0,0:0:0:0:
64,192,56467,1,0,0:0:0:0:
320,192,56552,1,0,0:0:0:0:
64,192,56636,1,0,0:0:0:0:
192,192,56720,1,0,0:0:0:0:
64,192,56805,1,0,0:0:0:0:
320,192,56805,1,0,0:0:0:0:
448,192,56805,128,0,56826:0:0:0:0:
448,192,56973,1,0,0:0:0:0:
192,192,56973,1,0,0:0:0:0:
64,192,57142,1,0,0:0:0:0:
448,192,57142,1,0,0:0:0:0:
192,192,57142,1,0,0:0:0:0:
64,192,57310,1,0,0:0:0:0:
192,192,57394,1,0,0:0:0:0:
320,192,57479,1,0,0:0:0:0:
448,192,57479,1,0,0:0:0:0:
192,192,57563,1,0,0:0:0:0:
64,192,57647,1,0,0:0:0:0:
320,192,57647,1,0,0:0:0:0:
448,192,57816,1,0,0:0:0:0:
64,192,57816,1,0,0:0:0:0:
320,192,57816,1,0,0:0:0:0:
320,192,57984,1,0,0:0:0:0:
448,192,58069,1,0,0:0:0:0:
320,192,58153,1,0,0:0:0:0:
64,192,58153,1,0,0:0:0:0:
192,192,58237,1,0,0:0:0:0:
320,192,58321,1,0,0:0:0:0:
64,192,58321,1,0,0:0:0:0:
448,192,58490,1,0,0:0:0:0:
64,192,58490,1,0,0:0:0:0:
192,192,58490,1,0,0:0:0:0:
64,192,58658,1,0,0:0:0:0:
192,192,58743,1,0,0:0:0:0:
448,192,58827,1,0,0:0:0:0:
64,192,58827,1,0,0:0:0:0:
320,192,58911,1,0,0:0:0:0:
192,192,58996,1,0,0:0:0:0:
64,192,58996,1,0,0:0:0:0:
448,192,59164,1,0,0:0:0:0:
64,192,59164,1,0,0:0:0:0:
320,192,59164,1,0,0:0:0:0:
192,192,59333,1,0,0:0:0:0:
320,192,59417,1,0,0:0:0:0:
64,192,59501,1,0,0:0:0:0:
448,192,59501,1,0,0:0:0:0:
192,192,59501,128,0,59522:0:0:0:0:
192,192,59670,1,0,0:0:0:0:
448,192,59670,1,0,0:0:0:0:
64,192,59838,1,0,0:0:0:0:
448,192,59838,1,0,0:0:0:0:
320,192,59838,1,0,0:0:0:0:
192,192,60007,1,0,0:0:0:0:
64,192,60091,1,0,0:0:0:0:
448,192,60175,1,0,0:0:0:0:
192,192,60175,1,0,0:0:0:0:
320,192,60260,1,0,0:0:0:0:
64,192,60344,1,0,0:0:0:0:
192,192,60344,1,0,0:0:0:0:
448,192,60512,1,0,0:0:0:0:
64,192,60512,1,0,0:0:0:0:
320,192,60512,1,0,0:0:0:0:
192,192,60681,1,0,0:0:0:0:
64,192,60765,1,0,0:0:0:0:
320,192,60765,1,0,0:0:0:0:
192,192,60850,1,0,0:0:0:0:
448,192,60850,128,0,61482:0:0:0:0:
64,192,62198,1,0,0:0:0:0:
192,192,62282,1,0,0:0:0:0:
448,192,62366,1,0,0:0:0:0:
320,192,62451,1,0,0:0:0:0:
64,192,62535,1,0,0:0:0:0:
192,192,62619,1,0,0:0:0:0:
448,192,62703,1,0,0:0:0:0:
64,192,62703,1,0,0:0:0:0:
320,192,62788,1,0,0:0:0:0:
64,192,62872,1,0,0:0:0:0:
192,192,62956,1,0,0:0:0:0:
448,192,63041,1,0,0:0:0:0:
320,192,63125,1,0,0:0:0:0:
64,192,63209,1,0,0:0:0:0:
448,192,63209,1,0,0:0:0:0:
192,192,63293,1,0,0:0:0:0:
448,192,63378,1,0,0:0:0:0:
64,192,63378,1,0,0:0:0:0:
320,192,63462,1,0,0:0:0:0:
192,192,63546,1,0,0:0:0:0:
64,192,63630,1,0,0:0:0:0:
320,192,63715,1,0,0:0:0:0:
192,192,63715,1,0,0:0:0:0:
448,192,63799,1,0,0:0:0:0:
192,192,63883,1,0,0:0:0:0:
64,192,63967,1,0,0:0:0:0:
320,192,64052,1,0,0:0:0:0:
448,192,64136,1,0,0:0:0:0:
192,192,64220,1,0,0:0:0:0:
320,192,64220,1,0,0:0:0:0:
64,192,64305,1,0,0:0:0:0:
320,192,64389,1,0,0:0:0:0:
448,192,64473,1,0,0:0:0:0:
192,192,64557,1,0,0:0:0:0:
320,192,64557,1,0,0:0:0:0:
64,192,64642,1,0,0:0:0:0:
320,192,64726,1,0,0:0:0:0:
448,192,64810,1,0,0:0:0:0:
64,192,64894,1,0,0:0:0:0:
320,192,64894,1,0,0:0:0:0:
192,192,64979,1,0,0:0:0:0:
320,192,65063,1,0,0:0:0:0:
448,192,65063,1,0,0:0:0:0:
192,192,65147,1,0,0:0:0:0:
64,192,65232,1,0,0:0:0:0:
320,192,65232,1,0,0:0:0:0:
192,192,65316,1,0,0:0:0:0:
320,192,65400,1,0,0:0:0:0:
64,192,65400,1,0,0:0:0:0:
448,192,65484,1,0,0:0:0:0:
64,192,65569,1,0,0:0:0:0:
320,192,65569,1,0,0:0:0:0:
192,192,65653,1,0,0:0:0:0:
320,192,65737,1,0,0:0:0:0:
448,192,65821,1,0,0:0:0:0:
64,192,65906,1,0,0:0:0:0:
192,192,65990,1,0,0:0:0:0:
320,192,66074,1,0,0:0:0:0:
448,192,66158,1,0,0:0:0:0:
64,192,66243,1,0,0:0:0:0:
192,192,66243,128,0,66411:0:0:0:0:
320,192,66411,128,0,66748:0:0:0:0:
448,192,66580,1,0,0:0:0:0:
192,192,66748,128,0,67085:0:0:0:0:
64,192,66917,1,0,0:0:0:0:
320,192,67085,128,0,67423:0:0:0:0:
448,192,67254,1,0,0:0:0:0:
192,192,67423,1,0,0:0:0:0:
448,192,67591,1,0,0:0:0:0:
320,192,67675,1,0,0:0:0:0:
64,192,67760,1,0,0:0:0:0:
192,192,67844,1,0,0:0:0:0:
448,192,67928,1,0,0:0:0:0:
320,192,68012,1,0,0:0:0:0:
64,192,68097,1,0,0:0:0:0:
192,192,68181,1,0,0:0:0:0:
448,192,68265,1,0,0:0:0:0:
320,192,68350,1,0,0:0:0:0:
64,192,68434,1,0,0:0:0:0:
192,192,68518,1,0,0:0:0:0:
448,192,68602,1,0,0:0:0:0:
320,192,68687,1,0,0:0:0:0:
64,192,68771,1,0,0:0:0:0:
192,192,68855,1,0,0:0:0:0:
320,192,68939,1,0,0:0:0:0:
448,192,69024,1,0,0:0:0:0:
192,192,69108,1,0,0:0:0:0:
64,192,69192,1,0,0:0:0:0:
320,192,69276,1,0,0:0:0:0:
448,192,69361,1,0,0:0:0:0:
192,192,69445,1,0,0:0:0:0:
64,192,69529,1,0,0:0:0:0:
320,192,69614,1,0,0:0:0:0:
448,192,69698,1,0,0:0:0:0:
192,192,69782,1,0,0:0:0:0:
64,192,69866,1,0,0:0:0:0:
320,192,69951,1,0,0:0:0:0:
448,192,70035,1,0,0:0:0:0:
192,192,70119,1,0,0:0:0:0:
64,192,70203,1,0,0:0:0:0:
448,192,70288,1,0,0:0:0:0:
320,192,70372,1,0,0:0:0:0:
192,192,70456,1,0,0:0:0:0:
64,192,70541,1,0,0:0:0:0:
448,192,70625,1,0,0:0:0:0:
320,192,70709,1,0,0:0:0:0:
192,192,70793,1,0,0:0:0:0:
64,192,70878,1,0,0:0:0:0:
448,192,70962,1,0,0:0:0:0:
320,192,71046,1,0,0:0:0:0:
192,192,71130,1,0,0:0:0:0:
64,192,71215,1,0,0:0:0:0:
448,192,71299,1,0,0:0:0:0:
320,192,71383,1,0,0:0:0:0:
192,192,71467,1,0,0:0:0:0:
64,192,71552,1,0,0:0:0:0:
192,192,71636,128,0,71805:0:0:0:0:
448,192,71636,1,0,0:0:0:0:
320,192,71805,128,0,72142:0:0:0:0:
448,192,71973,1,0,0:0:0:0:
64,192,71973,1,0,0:0:0:0:
192,192,72142,128,0,72479:0:0:0:0:
64,192,72310,1,0,0:0:0:0:
448,192,72310,1,0,0:0:0:0:
320,192,72479,128,0,72647:0:0:0:0:
448,192,72647,1,0,0:0:0:0:
64,192,72647,1,0,0:0:0:0:
192,192,72816,1,0,0:0:0:0:
448,192,72816,1,0,0:0:0:0:
64,192,72816,1,0,0:0:0:0:
