osu file format v14

[General]
AudioFilename: audio.mp3
AudioLeadIn: 0
PreviewTime: 62282
Countdown: 0
SampleSet: Soft
StackLeniency: 0.7
Mode: 3
LetterboxInBreaks: 0
SpecialStyle: 0
WidescreenStoryboard: 0

[Editor]
DistanceSpacing: 0.5
BeatDivisor: 4
GridSize: 4
TimelineZoom: 1.5

[Metadata]
Title:Industrial Nation
TitleUnicode:Industrial Nation
Artist:Jerico
ArtistUnicode:Jerico
Creator:Combistein
Version:Cyborg
Source:
Tags:
BeatmapID:1745553
BeatmapSetID:833318

[Difficulty]
HPDrainRate:8
CircleSize:4
OverallDifficulty:8
ApproachRate:5
SliderMultiplier:1.4
SliderTickRate:1

[Events]
//Background and Video events
0,0,"bg.jpg",0,0
//Break Periods
2,24645,28638
2,128465,132458
2,187791,191784
//Storyboard Layer 0 (Background)
//Storyboard Layer 1 (Fail)
//Storyboard Layer 2 (Pass)
//Storyboard Layer 3 (Foreground)
//Storyboard Sound Samples

[TimingPoints]
13659,337.078651685393,4,2,0,25,1,0
29838,-100,4,2,0,25,0,0
30850,-1000,4,2,0,25,0,0
30934,-20,4,2,0,25,0,0
31018,-1000,4,2,0,25,0,0
31102,-20,4,2,0,25,0,0
31187,-1000,4,2,0,25,0,0
31271,-20,4,2,0,25,0,0
31355,-1000,4,2,0,25,0,0
31439,-20,4,2,0,25,0,0
31524,-1000,4,2,0,25,0,0
31608,-25,4,2,0,25,0,0
31692,-1000,4,2,0,25,0,0
31776,-33.3333333333333,4,2,0,25,0,0
31861,-1000,4,2,0,25,0,0
31945,-66.6666666666667,4,2,0,25,0,0
32029,-142.857142857143,4,2,0,25,0,0
32282,-100,4,2,0,25,0,0
32366,-333.333333333333,4,2,0,25,0,0
35063,-83.3333333333333,4,2,0,25,0,0
35232,-100,4,2,0,25,0,0
36580,-20,4,2,0,25,0,0
36664,-1000,4,2,0,25,0,0
36748,-20,4,2,0,25,0,0
36833,-1000,4,2,0,25,0,0
36917,-25,4,2,0,25,0,0
37001,-1000,4,2,0,25,0,0
37085,-66.6666666666667,4,2,0,25,0,0
37170,-1000,4,2,0,25,0,0
37507,-142.857142857143,4,2,0,25,0,0
37591,-100,4,2,0,25,0,0
40456,-83.3333333333333,4,2,0,25,0,0
40625,-100,4,2,0,25,0,0
62029,-83.3333333333333,4,2,0,25,0,0
62198,-100,4,2,0,25,0,0
84866,-133.333333333333,4,2,0,25,0,0
85035,-83.3333333333333,4,2,0,25,0,0
85119,-100,4,2,0,25,0,0
106524,-83.3333333333333,4,2,0,25,0,0
106692,-100,4,2,0,25,0,0
133490,-83.3333333333333,4,2,0,25,0,0
133658,-142.857142857143,4,2,0,25,0,0
144445,-100,4,2,0,25,0,0
144614,-142.857142857143,4,2,0,25,0,0
145625,-100,4,2,0,25,0,0
145793,-142.857142857143,4,2,0,25,0,0
147142,-100,4,2,0,25,0,0
147310,-142.857142857143,4,2,0,25,0,0
148321,-100,4,2,0,25,0,0
148490,-142.857142857143,4,2,0,25,0,0
149838,-100,4,2,0,25,0,0
150007,-142.857142857143,4,2,0,25,0,0
151018,-100,4,2,0,25,0,0
151187,-142.857142857143,4,2,0,25,0,0
152535,-100,4,2,0,25,0,0
152703,-142.857142857143,4,2,0,25,0,0
153209,-100,4,2,0,25,0,0
153378,-142.857142857143,4,2,0,25,0,0
153715,-100,4,2,0,25,0,0
153883,-142.857142857143,4,2,0,25,0,0
155232,-100,4,2,0,25,0,0
197029,-333.333333333333,4,2,0,25,0,0
198209,-83.3333333333333,4,2,0,25,0,0
198378,-100,4,2,0,25,0,0
203602,-83.3333333333333,4,2,0,25,0,0
203771,-100,4,2,0,25,0,0
208996,-83.3333333333333,4,2,0,25,0,0
209164,-100,4,2,0,25,0,0
210344,-83.3333333333333,4,2,0,25,0,0
210512,-100,4,2,0,25,0,0
211692,-83.3333333333333,4,2,0,25,0,0
211861,-100,4,2,0,25,0,0
218434,-83.3333333333333,4,2,0,25,0,0
218602,-100,4,2,0,25,0,0
221130,-83.3333333333333,4,2,0,25,0,0
221299,-100,4,2,0,25,0,0
223827,-83.3333333333333,4,2,0,25,0,0
223996,-100,4,2,0,25,0,0
226524,-83.3333333333333,4,2,0,25,0,0
226692,-100,4,2,0,25,0,0
229220,-83.3333333333333,4,2,0,25,0,0
229389,-100,4,2,0,25,0,0
231917,-83.3333333333333,4,2,0,25,0,0
232085,-100,4,2,0,25,0,0
234614,-83.3333333333333,4,2,0,25,0,0
234785,-100,4,2,0,25,0,0
237310,-83.3333333333333,4,2,0,25,0,0
237479,-100,4,2,0,25,0,0
240007,-83.3333333333333,4,2,0,25,0,0
240175,-111.111111111111,4,2,0,25,0,0
244220,-100,4,2,0,25,0,0
245569,-111.111111111111,4,2,0,25,0,0
249614,-100,4,2,0,25,0,0
250962,-111.111111111111,4,2,0,25,0,0
255007,-100,4,2,0,25,0,0
256355,-111.111111111111,4,2,0,25,0,0
260400,-100,4,2,0,25,0,0
261580,-83.3333333333333,4,2,0,25,0,0
261748,-100,4,2,0,25,0,0
284417,-133.333333333333,4,2,0,25,0,0
284585,-83.3333333333333,4,2,0,25,0,0
284670,-100,4,2,0,25,0,0
306074,-83.3333333333333,4,2,0,25,0,0
306243,-111.111111111111,4,2,0,25,0,0
310288,-100,4,2,0,25,0,0
311636,-111.111111111111,4,2,0,25,0,0
315681,-100,4,2,0,25,0,0
317029,-111.111111111111,4,2,0,25,0,0
321074,-100,4,2,0,25,0,0
322423,-111.111111111111,4,2,0,25,0,0
326467,-100,4,2,0,25,0,0
327732,-83.3333333333333,4,2,0,25,0,0
327816,-100,4,2,0,25,0,0
360007,-83.3333333333333,4,2,0,25,0,0
360175,-100,4,2,0,25,0,0

[HitObjects]
64,192,13658,5,0,0:0:0:0:
320,192,13658,1,0,0:0:0:0:
448,192,13658,1,0,0:0:0:0:
64,192,13996,1,0,0:0:0:0:
192,192,13996,128,0,14164:0:0:0:0:
320,192,14164,1,0,0:0:0:0:
448,192,14164,1,0,0:0:0:0:
64,192,14333,1,0,0:0:0:0:
320,192,14670,1,0,0:0:0:0:
64,192,14670,1,0,0:0:0:0:
192,192,15007,1,0,0:0:0:0:
320,192,15007,1,0,0:0:0:0:
448,192,15175,1,0,0:0:0:0:
64,192,15344,128,0,15512:0:0:0:0:
192,192,15512,128,0,15681:0:0:0:0:
320,192,15681,1,0,0:0:0:0:
192,192,15850,1,0,0:0:0:0:
64,192,15850,1,0,0:0:0:0:
448,192,16018,1,0,0:0:0:0:
320,192,16018,1,0,0:0:0:0:
192,192,16187,128,0,16355:0:0:0:0:
64,192,16355,1,0,0:0:0:0:
320,192,16355,1,0,0:0:0:0:
448,192,16524,1,0,0:0:0:0:
192,192,16692,128,0,16861:0:0:0:0:
64,192,16692,128,0,16861:0:0:0:0:
320,192,16861,1,0,0:0:0:0:
448,192,16861,1,0,0:0:0:0:
192,192,17029,1,0,0:0:0:0:
320,192,17198,1,0,0:0:0:0:
448,192,17198,128,0,17366:0:0:0:0:
64,192,17198,128,0,17366:0:0:0:0:
192,192,17366,1,0,0:0:0:0:
320,192,17451,1,0,0:0:0:0:
448,192,17535,1,0,0:0:0:0:
64,192,17535,1,0,0:0:0:0:
192,192,17703,1,0,0:0:0:0:
320,192,17703,1,0,0:0:0:0:
448,192,17872,1,0,0:0:0:0:
320,192,18041,1,0,0:0:0:0:
64,192,18041,1,0,0:0:0:0:
192,192,18209,1,0,0:0:0:0:
448,192,18209,1,0,0:0:0:0:
320,192,18378,1,0,0:0:0:0:
64,192,18462,1,0,0:0:0:0:
320,192,18546,1,0,0:0:0:0:
448,192,18546,1,0,0:0:0:0:
320,192,18715,128,0,18967:0:0:0:0:
64,192,18715,128,0,18967:0:0:0:0:
192,192,19052,1,0,0:0:0:0:
320,192,19052,1,0,0:0:0:0:
448,192,19052,128,0,19389:0:0:0:0:
64,192,19389,1,0,0:0:0:0:
192,192,19557,1,0,0:0:0:0:
320,192,19557,1,0,0:0:0:0:
320,192,19726,1,0,0:0:0:0:
64,192,20063,1,0,0:0:0:0:
320,192,20063,1,0,0:0:0:0:
192,192,20232,1,0,0:0:0:0:
320,192,20400,1,0,0:0:0:0:
448,192,20400,1,0,0:0:0:0:
64,192,20569,1,0,0:0:0:0:
192,192,20737,128,0,20906:0:0:0:0:
448,192,20737,128,0,20906:0:0:0:0:
64,192,20906,1,0,0:0:0:0:
448,192,21074,1,0,0:0:0:0:
64,192,21243,1,0,0:0:0:0:
192,192,21243,1,0,0:0:0:0:
448,192,21411,1,0,0:0:0:0:
192,192,21411,1,0,0:0:0:0:
320,192,21580,128,0,21748:0:0:0:0:
192,192,21664,1,0,0:0:0:0:
64,192,21748,1,0,0:0:0:0:
448,192,21748,1,0,0:0:0:0:
192,192,21917,1,0,0:0:0:0:
320,192,22085,128,0,22254:0:0:0:0:
448,192,22085,128,0,22254:0:0:0:0:
64,192,22254,1,0,0:0:0:0:
192,192,22254,1,0,0:0:0:0:
448,192,22423,1,0,0:0:0:0:
192,192,22591,1,0,0:0:0:0:
64,192,22591,128,0,22760:0:0:0:0:
320,192,22591,128,0,22760:0:0:0:0:
448,192,22760,1,0,0:0:0:0:
192,192,22844,1,0,0:0:0:0:
320,192,22928,1,0,0:0:0:0:
448,192,22928,1,0,0:0:0:0:
64,192,23097,1,0,0:0:0:0:
448,192,23097,1,0,0:0:0:0:
192,192,23265,1,0,0:0:0:0:
320,192,23350,1,0,0:0:0:0:
448,192,23434,1,0,0:0:0:0:
64,192,23434,1,0,0:0:0:0:
64,192,23602,1,0,0:0:0:0:
320,192,23602,1,0,0:0:0:0:
320,192,23771,1,0,0:0:0:0:
64,192,23855,1,0,0:0:0:0:
320,192,23939,1,0,0:0:0:0:
448,192,23939,1,0,0:0:0:0:
64,192,24108,1,0,0:0:0:0:
192,192,24108,128,0,24445:0:0:0:0:
320,192,24445,1,0,0:0:0:0:
448,192,24445,1,0,0:0:0:0:
64,192,24445,1,0,0:0:0:0:
64,192,29838,132,0,32366:0:0:0:0:
192,192,29838,128,0,32366:0:0:0:0:
320,192,29838,128,0,32366:0:0:0:0:
448,192,29838,128,0,32366:0:0:0:0:
320,192,35232,128,0,37760:0:0:0:0:
64,192,35232,128,0,37760:0:0:0:0:
448,192,35232,128,0,37760:0:0:0:0:
192,192,35232,128,0,37760:0:0:0:0:
64,192,38602,128,0,40288:0:0:0:0:
192,192,40288,1,0,0:0:0:0:
448,192,40288,128,0,40330:0:0:0:0:
448,192,40456,128,0,40498:0:0:0:0:
192,192,40625,1,0,0:0:0:0:
320,192,40625,1,0,0:0:0:0:
64,192,40625,1,0,0:0:0:0:
320,192,40793,1,0,0:0:0:0:
192,192,40962,1,0,0:0:0:0:
64,192,40962,1,0,0:0:0:0:
448,192,40962,1,0,0:0:0:0:
320,192,41130,1,0,0:0:0:0:
448,192,41215,1,0,0:0:0:0:
64,192,41299,1,0,0:0:0:0:
320,192,41383,1,0,0:0:0:0:
192,192,41467,1,0,0:0:0:0:
64,192,41467,1,0,0:0:0:0:
192,192,41636,1,0,0:0:0:0:
320,192,41636,1,0,0:0:0:0:
448,192,41636,1,0,0:0:0:0:
64,192,41805,1,0,0:0:0:0:
192,192,41889,1,0,0:0:0:0:
320,192,41973,1,0,0:0:0:0:
448,192,41973,1,0,0:0:0:0:
64,192,42142,1,0,0:0:0:0:
192,192,42310,1,0,0:0:0:0:
320,192,42310,1,0,0:0:0:0:
64,192,42310,1,0,0:0:0:0:
192,192,42479,1,0,0:0:0:0:
448,192,42563,1,0,0:0:0:0:
320,192,42647,1,0,0:0:0:0:
192,192,42732,1,0,0:0:0:0:
64,192,42816,1,0,0:0:0:0:
448,192,42816,1,0,0:0:0:0:
192,192,42984,1,0,0:0:0:0:
320,192,42984,1,0,0:0:0:0:
448,192,42984,1,0,0:0:0:0:
64,192,43153,1,0,0:0:0:0:
192,192,43237,1,0,0:0:0:0:
320,192,43321,1,0,0:0:0:0:
448,192,43321,128,0,43490:0:0:0:0:
192,192,43490,1,0,0:0:0:0:
320,192,43658,1,0,0:0:0:0:
448,192,43658,1,0,0:0:0:0:
64,192,43658,1,0,0:0:0:0:
192,192,43827,1,0,0:0:0:0:
448,192,43911,1,0,0:0:0:0:
64,192,43996,1,0,0:0:0:0:
192,192,44080,1,0,0:0:0:0:
320,192,44164,1,0,0:0:0:0:
448,192,44164,1,0,0:0:0:0:
64,192,44333,1,0,0:0:0:0:
192,192,44333,1,0,0:0:0:0:
448,192,44333,1,0,0:0:0:0:
320,192,44501,1,0,0:0:0:0:
64,192,44585,1,0,0:0:0:0:
192,192,44670,1,0,0:0:0:0:
448,192,44670,1,0,0:0:0:0:
320,192,44838,128,0,45007:0:0:0:0:
64,192,44838,1,0,0:0:0:0:
64,192,45007,128,0,45175:0:0:0:0:
448,192,45007,1,0,0:0:0:0:
192,192,45175,1,0,0:0:0:0:
320,192,45260,1,0,0:0:0:0:
448,192,45344,1,0,0:0:0:0:
192,192,45344,128,0,45681:0:0:0:0:
64,192,45428,1,0,0:0:0:0:
320,192,45512,1,0,0:0:0:0:
448,192,45512,1,0,0:0:0:0:
64,192,45681,1,0,0:0:0:0:
320,192,45681,1,0,0:0:0:0:
448,192,45850,1,0,0:0:0:0:
320,192,45934,1,0,0:0:0:0:
192,192,46018,1,0,0:0:0:0:
64,192,46018,1,0,0:0:0:0:
192,192,46187,1,0,0:0:0:0:
320,192,46355,1,0,0:0:0:0:
448,192,46355,1,0,0:0:0:0:
64,192,46355,1,0,0:0:0:0:
192,192,46524,1,0,0:0:0:0:
64,192,46608,1,0,0:0:0:0:
448,192,46692,1,0,0:0:0:0:
320,192,46776,1,0,0:0:0:0:
192,192,46861,1,0,0:0:0:0:
64,192,46861,1,0,0:0:0:0:
192,192,47029,1,0,0:0:0:0:
320,192,47029,1,0,0:0:0:0:
448,192,47029,1,0,0:0:0:0:
64,192,47198,1,0,0:0:0:0:
192,192,47282,1,0,0:0:0:0:
320,192,47366,1,0,0:0:0:0:
448,192,47366,1,0,0:0:0:0:
192,192,47535,1,0,0:0:0:0:
64,192,47703,1,0,0:0:0:0:
320,192,47703,1,0,0:0:0:0:
448,192,47703,1,0,0:0:0:0:
192,192,47872,1,0,0:0:0:0:
320,192,47956,1,0,0:0:0:0:
192,192,48041,1,0,0:0:0:0:
320,192,48125,1,0,0:0:0:0:
448,192,48209,1,0,0:0:0:0:
64,192,48209,1,0,0:0:0:0:
64,192,48378,1,0,0:0:0:0:
192,192,48378,1,0,0:0:0:0:
320,192,48378,1,0,0:0:0:0:
320,192,48546,1,0,0:0:0:0:
192,192,48630,1,0,0:0:0:0:
320,192,48715,1,0,0:0:0:0:
448,192,48715,128,0,48883:0:0:0:0:
64,192,48883,1,0,0:0:0:0:
320,192,49052,1,0,0:0:0:0:
448,192,49052,1,0,0:0:0:0:
64,192,49052,1,0,0:0:0:0:
192,192,49220,1,0,0:0:0:0:
320,192,49305,1,0,0:0:0:0:
192,192,49389,1,0,0:0:0:0:
448,192,49473,1,0,0:0:0:0:
64,192,49557,1,0,0:0:0:0:
320,192,49557,1,0,0:0:0:0:
192,192,49726,1,0,0:0:0:0:
320,192,49726,1,0,0:0:0:0:
448,192,49726,1,0,0:0:0:0:
64,192,49894,1,0,0:0:0:0:
448,192,49979,1,0,0:0:0:0:
192,192,50063,1,0,0:0:0:0:
320,192,50063,1,0,0:0:0:0:
64,192,50232,128,0,50400:0:0:0:0:
448,192,50232,1,0,0:0:0:0:
320,192,50316,1,0,0:0:0:0:
448,192,50400,128,0,50569:0:0:0:0:
192,192,50400,1,0,0:0:0:0:
192,192,50569,1,0,0:0:0:0:
320,192,50653,1,0,0:0:0:0:
64,192,50737,128,0,51074:0:0:0:0:
448,192,50737,1,0,0:0:0:0:
320,192,50821,1,0,0:0:0:0:
192,192,50906,1,0,0:0:0:0:
448,192,50906,1,0,0:0:0:0:
320,192,51074,1,0,0:0:0:0:
448,192,51074,1,0,0:0:0:0:
192,192,51074,128,0,51411:0:0:0:0:
64,192,51243,1,0,0:0:0:0:
448,192,51327,1,0,0:0:0:0:
320,192,51411,1,0,0:0:0:0:
64,192,51580,128,0,51748:0:0:0:0:
192,192,51748,1,0,0:0:0:0:
448,192,51748,1,0,0:0:0:0:
320,192,51917,128,0,52085:0:0:0:0:
192,192,52001,1,0,0:0:0:0:
64,192,52085,1,0,0:0:0:0:
448,192,52170,1,0,0:0:0:0:
320,192,52254,1,0,0:0:0:0:
192,192,52254,1,0,0:0:0:0:
64,192,52423,1,0,0:0:0:0:
192,192,52423,1,0,0:0:0:0:
448,192,52423,1,0,0:0:0:0:
320,192,52591,1,0,0:0:0:0:
192,192,52675,1,0,0:0:0:0:
64,192,52760,1,0,0:0:0:0:
448,192,52760,1,0,0:0:0:0:
320,192,52928,1,0,0:0:0:0:
448,192,53097,1,0,0:0:0:0:
64,192,53097,1,0,0:0:0:0:
192,192,53097,1,0,0:0:0:0:
320,192,53265,1,0,0:0:0:0:
192,192,53350,1,0,0:0:0:0:
320,192,53434,1,0,0:0:0:0:
64,192,53518,1,0,0:0:0:0:
192,192,53602,1,0,0:0:0:0:
448,192,53602,1,0,0:0:0:0:
320,192,53771,1,0,0:0:0:0:
192,192,53771,1,0,0:0:0:0:
64,192,53771,1,0,0:0:0:0:
448,192,53939,1,0,0:0:0:0:
320,192,54024,1,0,0:0:0:0:
192,192,54108,1,0,0:0:0:0:
64,192,54108,128,0,54276:0:0:0:0:
448,192,54276,1,0,0:0:0:0:
192,192,54445,1,0,0:0:0:0:
64,192,54445,1,0,0:0:0:0:
448,192,54445,1,0,0:0:0:0:
320,192,54614,1,0,0:0:0:0:
192,192,54698,1,0,0:0:0:0:
64,192,54782,1,0,0:0:0:0:
448,192,54866,1,0,0:0:0:0:
320,192,54951,1,0,0:0:0:0:
192,192,54951,1,0,0:0:0:0:
64,192,55119,1,0,0:0:0:0:
192,192,55119,1,0,0:0:0:0:
448,192,55119,1,0,0:0:0:0:
320,192,55288,1,0,0:0:0:0:
192,192,55372,1,0,0:0:0:0:
64,192,55456,1,0,0:0:0:0:
448,192,55456,1,0,0:0:0:0:
64,192,55625,128,0,56130:0:0:0:0:
192,192,55625,1,0,0:0:0:0:
320,192,55793,1,0,0:0:0:0:
448,192,55793,1,0,0:0:0:0:
192,192,55962,1,0,0:0:0:0:
320,192,56046,1,0,0:0:0:0:
448,192,56130,1,0,0:0:0:0:
192,192,56130,128,0,56467:0:0:0:0:
320,192,56215,1,0,0:0:0:0:
64,192,56299,1,0,0:0:0:0:
448,192,56383,1,0,0:0:0:0:
320,192,56467,1,0,0:0:0:0:
64,192,56552,1,0,0:0:0:0:
192,192,56636,1,0,0:0:0:0:
448,192,56636,1,0,0:0:0:0:
320,192,56720,1,0,0:0:0:0:
192,192,56805,1,0,0:0:0:0:
64,192,56805,1,0,0:0:0:0:
448,192,56973,1,0,0:0:0:0:
320,192,57142,1,0,0:0:0:0:
192,192,57142,1,0,0:0:0:0:
448,192,57142,1,0,0:0:0:0:
64,192,57310,1,0,0:0:0:0:
192,192,57394,1,0,0:0:0:0:
320,192,57479,1,0,0:0:0:0:
448,192,57563,1,0,0:0:0:0:
64,192,57647,1,0,0:0:0:0:
192,192,57647,1,0,0:0:0:0:
192,192,57816,1,0,0:0:0:0:
320,192,57816,1,0,0:0:0:0:
448,192,57816,1,0,0:0:0:0:
64,192,57984,1,0,0:0:0:0:
448,192,58069,1,0,0:0:0:0:
320,192,58153,1,0,0:0:0:0:
192,192,58153,1,0,0:0:0:0:
64,192,58321,1,0,0:0:0:0:
192,192,58406,1,0,0:0:0:0:
320,192,58490,1,0,0:0:0:0:
448,192,58490,1,0,0:0:0:0:
320,192,58658,1,0,0:0:0:0:
192,192,58743,1,0,0:0:0:0:
320,192,58827,1,0,0:0:0:0:
64,192,58911,1,0,0:0:0:0:
448,192,58996,1,0,0:0:0:0:
320,192,58996,1,0,0:0:0:0:
64,192,59164,1,0,0:0:0:0:
192,192,59164,1,0,0:0:0:0:
448,192,59164,1,0,0:0:0:0:
320,192,59333,1,0,0:0:0:0:
192,192,59417,1,0,0:0:0:0:
320,192,59501,1,0,0:0:0:0:
64,192,59501,128,0,59670:0:0:0:0:
192,192,59670,1,0,0:0:0:0:
448,192,59838,1,0,0:0:0:0:
64,192,59838,1,0,0:0:0:0:
192,192,59838,1,0,0:0:0:0:
320,192,60007,1,0,0:0:0:0:
448,192,60091,1,0,0:0:0:0:
192,192,60175,1,0,0:0:0:0:
64,192,60260,1,0,0:0:0:0:
320,192,60344,1,0,0:0:0:0:
448,192,60344,1,0,0:0:0:0:
64,192,60512,1,0,0:0:0:0:
192,192,60512,1,0,0:0:0:0:
448,192,60512,1,0,0:0:0:0:
320,192,60681,1,0,0:0:0:0:
192,192,60765,1,0,0:0:0:0:
448,192,60850,1,0,0:0:0:0:
320,192,60850,1,0,0:0:0:0:
64,192,61018,128,0,61524:0:0:0:0:
192,192,61524,128,0,61861:0:0:0:0:
320,192,61861,128,0,62198:0:0:0:0:
448,192,62198,1,0,0:0:0:0:
64,192,62198,1,0,0:0:0:0:
192,192,62366,1,0,0:0:0:0:
320,192,62535,1,0,0:0:0:0:
192,192,62535,1,0,0:0:0:0:
448,192,62535,1,0,0:0:0:0:
448,192,62703,1,0,0:0:0:0:
320,192,62788,1,0,0:0:0:0:
192,192,62872,1,0,0:0:0:0:
64,192,62956,1,0,0:0:0:0:
192,192,63041,1,0,0:0:0:0:
448,192,63041,1,0,0:0:0:0:
64,192,63209,1,0,0:0:0:0:
320,192,63209,1,0,0:0:0:0:
192,192,63209,1,0,0:0:0:0:
448,192,63378,1,0,0:0:0:0:
192,192,63546,1,0,0:0:0:0:
64,192,63546,1,0,0:0:0:0:
448,192,63630,1,0,0:0:0:0:
192,192,63715,1,0,0:0:0:0:
320,192,63799,1,0,0:0:0:0:
448,192,63883,1,0,0:0:0:0:
64,192,63883,1,0,0:0:0:0:
192,192,63967,1,0,0:0:0:0:
320,192,64052,1,0,0:0:0:0:
448,192,64052,1,0,0:0:0:0:
64,192,64136,1,0,0:0:0:0:
320,192,64220,1,0,0:0:0:0:
192,192,64305,1,0,0:0:0:0:
448,192,64389,1,0,0:0:0:0:
320,192,64389,1,0,0:0:0:0:
64,192,64557,1,0,0:0:0:0:
192,192,64557,1,0,0:0:0:0:
320,192,64557,1,0,0:0:0:0:
64,192,64726,1,0,0:0:0:0:
192,192,64810,1,0,0:0:0:0:
320,192,64894,1,0,0:0:0:0:
448,192,64894,1,0,0:0:0:0:
64,192,64979,1,0,0:0:0:0:
448,192,65063,1,0,0:0:0:0:
192,192,65147,1,0,0:0:0:0:
320,192,65232,1,0,0:0:0:0:
64,192,65232,1,0,0:0:0:0:
448,192,65316,1,0,0:0:0:0:
192,192,65400,1,0,0:0:0:0:
320,192,65484,1,0,0:0:0:0:
64,192,65569,1,0,0:0:0:0:
192,192,65653,1,0,0:0:0:0:
320,192,65737,1,0,0:0:0:0:
448,192,65737,1,0,0:0:0:0:
64,192,65821,1,0,0:0:0:0:
192,192,65906,1,0,0:0:0:0:
448,192,65906,1,0,0:0:0:0:
320,192,65990,1,0,0:0:0:0:
192,192,66074,1,0,0:0:0:0:
64,192,66158,1,0,0:0:0:0:
192,192,66243,1,0,0:0:0:0:
448,192,66243,1,0,0:0:0:0:
320,192,66243,1,0,0:0:0:0:
192,192,66411,1,0,0:0:0:0:
320,192,66496,1,0,0:0:0:0:
448,192,66580,1,0,0:0:0:0:
64,192,66580,1,0,0:0:0:0:
192,192,66664,1,0,0:0:0:0:
320,192,66748,1,0,0:0:0:0:
448,192,66748,1,0,0:0:0:0:
64,192,66833,1,0,0:0:0:0:
448,192,66917,1,0,0:0:0:0:
192,192,67001,1,0,0:0:0:0:
320,192,67085,1,0,0:0:0:0:
64,192,67085,1,0,0:0:0:0:
448,192,67170,1,0,0:0:0:0:
192,192,67254,1,0,0:0:0:0:
64,192,67254,1,0,0:0:0:0:
320,192,67254,1,0,0:0:0:0:
320,192,67423,1,0,0:0:0:0:
64,192,67591,1,0,0:0:0:0:
192,192,67591,1,0,0:0:0:0:
448,192,67591,1,0,0:0:0:0:
192,192,67760,1,0,0:0:0:0:
320,192,67928,1,0,0:0:0:0:
448,192,67928,1,0,0:0:0:0:
64,192,67928,1,0,0:0:0:0:
448,192,68097,1,0,0:0:0:0:
64,192,68181,1,0,0:0:0:0:
320,192,68265,1,0,0:0:0:0:
192,192,68350,1,0,0:0:0:0:
320,192,68434,1,0,0:0:0:0:
448,192,68434,1,0,0:0:0:0:
192,192,68602,1,0,0:0:0:0:
448,192,68602,1,0,0:0:0:0:
64,192,68602,1,0,0:0:0:0:
320,192,68771,1,0,0:0:0:0:
448,192,68855,1,0,0:0:0:0:
320,192,68939,1,0,0:0:0:0:
64,192,68939,1,0,0:0:0:0:
192,192,69108,1,0,0:0:0:0:
64,192,69192,1,0,0:0:0:0:
192,192,69276,1,0,0:0:0:0:
448,192,69276,1,0,0:0:0:0:
320,192,69361,1,0,0:0:0:0:
192,192,69445,1,0,0:0:0:0:
64,192,69445,1,0,0:0:0:0:
448,192,69529,1,0,0:0:0:0:
64,192,69614,1,0,0:0:0:0:
320,192,69698,1,0,0:0:0:0:
192,192,69782,1,0,0:0:0:0:
64,192,69782,1,0,0:0:0:0:
448,192,69866,1,0,0:0:0:0:
320,192,69951,1,0,0:0:0:0:
64,192,69951,1,0,0:0:0:0:
192,192,70035,1,0,0:0:0:0:
320,192,70119,1,0,0:0:0:0:
448,192,70203,1,0,0:0:0:0:
64,192,70288,1,0,0:0:0:0:
192,192,70288,128,0,70456:0:0:0:0:
320,192,70372,1,0,0:0:0:0:
448,192,70456,1,0,0:0:0:0:
64,192,70541,1,0,0:0:0:0:
192,192,70625,1,0,0:0:0:0:
448,192,70625,1,0,0:0:0:0:
320,192,70709,1,0,0:0:0:0:
192,192,70793,1,0,0:0:0:0:
64,192,70878,1,0,0:0:0:0:
192,192,70962,1,0,0:0:0:0:
448,192,71046,1,0,0:0:0:0:
64,192,71130,1,0,0:0:0:0:
320,192,71130,1,0,0:0:0:0:
192,192,71215,1,0,0:0:0:0:
320,192,71299,1,0,0:0:0:0:
448,192,71299,1,0,0:0:0:0:
192,192,71383,1,0,0:0:0:0:
64,192,71467,1,0,0:0:0:0:
448,192,71552,1,0,0:0:0:0:
320,192,71636,1,0,0:0:0:0:
192,192,71636,1,0,0:0:0:0:
64,192,71720,1,0,0:0:0:0:
448,192,71805,1,0,0:0:0:0:
192,192,71889,1,0,0:0:0:0:
448,192,71973,1,0,0:0:0:0:
320,192,72015,1,0,0:0:0:0:
64,192,72057,1,0,0:0:0:0:
192,192,72100,1,0,0:0:0:0:
448,192,72142,1,0,0:0:0:0:
320,192,72184,1,0,0:0:0:0:
64,192,72226,1,0,0:0:0:0:
192,192,72268,1,0,0:0:0:0:
448,192,72310,1,0,0:0:0:0:
320,192,72352,1,0,0:0:0:0:
64,192,72394,1,0,0:0:0:0:
192,192,72437,1,0,0:0:0:0:
448,192,72479,1,0,0:0:0:0:
320,192,72521,1,0,0:0:0:0:
192,192,72563,1,0,0:0:0:0:
64,192,72605,1,0,0:0:0:0:
448,192,72647,1,0,0:0:0:0:
320,192,72689,1,0,0:0:0:0:
192,192,72732,1,0,0:0:0:0:
64,192,72774,1,0,0:0:0:0:
448,192,72816,1,0,0:0:0:0:
320,192,72858,1,0,0:0:0:0:
192,192,72900,1,0,0:0:0:0:
64,192,72942,1,0,0:0:0:0:
320,192,72984,1,0,0:0:0:0:
448,192,72984,1,0,0:0:0:0:
448,192,73153,1,0,0:0:0:0:
192,192,73321,1,0,0:0:0:0:
320,192,73321,1,0,0:0:0:0:
64,192,73321,1,0,0:0:0:0:
64,192,73490,1,0,0:0:0:0:
192,192,73574,1,0,0:0:0:0:
448,192,73658,1,0,0:0:0:0:
320,192,73743,1,0,0:0:0:0:
448,192,73827,1,0,0:0:0:0:
64,192,73827,1,0,0:0:0:0:
192,192,73827,128,0,73996:0:0:0:0:
448,192,73996,1,0,0:0:0:0:
320,192,73996,1,0,0:0:0:0:
64,192,74164,1,0,0:0:0:0:
320,192,74333,1,0,0:0:0:0:
448,192,74333,1,0,0:0:0:0:
320,192,74501,1,0,0:0:0:0:
192,192,74585,1,0,0:0:0:0:
64,192,74670,1,0,0:0:0:0:
448,192,74670,1,0,0:0:0:0:
320,192,74754,1,0,0:0:0:0:
192,192,74838,1,0,0:0:0:0:
64,192,74838,128,0,75007:0:0:0:0:
448,192,74923,1,0,0:0:0:0:
192,192,75007,1,0,0:0:0:0:
320,192,75091,1,0,0:0:0:0:
64,192,75175,1,0,0:0:0:0:
192,192,75175,128,0,75344:0:0:0:0:
448,192,75344,1,0,0:0:0:0:
320,192,75344,1,0,0:0:0:0:
64,192,75428,1,0,0:0:0:0:
448,192,75512,1,0,0:0:0:0:
320,192,75597,1,0,0:0:0:0:
192,192,75681,1,0,0:0:0:0:
64,192,75681,1,0,0:0:0:0:
448,192,75765,1,0,0:0:0:0:
64,192,75850,1,0,0:0:0:0:
320,192,75934,1,0,0:0:0:0:
192,192,76018,1,0,0:0:0:0:
448,192,76018,1,0,0:0:0:0:
64,192,76102,1,0,0:0:0:0:
320,192,76187,1,0,0:0:0:0:
192,192,76271,1,0,0:0:0:0:
448,192,76355,1,0,0:0:0:0:
320,192,76439,1,0,0:0:0:0:
192,192,76524,1,0,0:0:0:0:
64,192,76524,1,0,0:0:0:0:
448,192,76608,1,0,0:0:0:0:
320,192,76692,1,0,0:0:0:0:
64,192,76692,1,0,0:0:0:0:
192,192,76776,1,0,0:0:0:0:
320,192,76861,1,0,0:0:0:0:
448,192,76945,1,0,0:0:0:0:
320,192,77029,1,0,0:0:0:0:
64,192,77029,1,0,0:0:0:0:
192,192,77029,1,0,0:0:0:0:
448,192,77114,1,0,0:0:0:0:
320,192,77198,1,0,0:0:0:0:
192,192,77282,1,0,0:0:0:0:
64,192,77366,1,0,0:0:0:0:
448,192,77366,1,0,0:0:0:0:
320,192,77366,1,0,0:0:0:0:
192,192,77535,1,0,0:0:0:0:
64,192,77535,1,0,0:0:0:0:
448,192,77619,1,0,0:0:0:0:
64,192,77703,1,0,0:0:0:0:
320,192,77788,1,0,0:0:0:0:
192,192,77872,1,0,0:0:0:0:
448,192,77872,1,0,0:0:0:0:
64,192,77956,1,0,0:0:0:0:
320,192,78041,1,0,0:0:0:0:
448,192,78041,1,0,0:0:0:0:
192,192,78041,1,0,0:0:0:0:
64,192,78209,1,0,0:0:0:0:
320,192,78209,1,0,0:0:0:0:
320,192,78378,1,0,0:0:0:0:
192,192,78378,1,0,0:0:0:0:
192,192,78546,1,0,0:0:0:0:
192,192,78715,1,0,0:0:0:0:
64,192,78715,1,0,0:0:0:0:
448,192,78715,1,0,0:0:0:0:
64,192,78883,1,0,0:0:0:0:
448,192,78967,1,0,0:0:0:0:
192,192,79052,1,0,0:0:0:0:
320,192,79136,1,0,0:0:0:0:
192,192,79220,1,0,0:0:0:0:
64,192,79220,1,0,0:0:0:0:
448,192,79305,1,0,0:0:0:0:
320,192,79389,1,0,0:0:0:0:
64,192,79389,1,0,0:0:0:0:
192,192,79389,1,0,0:0:0:0:
192,192,79557,1,0,0:0:0:0:
64,192,79642,1,0,0:0:0:0:
192,192,79726,1,0,0:0:0:0:
448,192,79726,1,0,0:0:0:0:
320,192,79894,1,0,0:0:0:0:
448,192,79979,1,0,0:0:0:0:
320,192,80063,1,0,0:0:0:0:
64,192,80063,1,0,0:0:0:0:
192,192,80147,1,0,0:0:0:0:
320,192,80232,1,0,0:0:0:0:
448,192,80232,1,0,0:0:0:0:
64,192,80316,1,0,0:0:0:0:
448,192,80400,1,0,0:0:0:0:
192,192,80484,1,0,0:0:0:0:
320,192,80569,1,0,0:0:0:0:
448,192,80569,1,0,0:0:0:0:
64,192,80653,1,0,0:0:0:0:
192,192,80737,1,0,0:0:0:0:
448,192,80737,1,0,0:0:0:0:
320,192,80821,1,0,0:0:0:0:
192,192,80906,1,0,0:0:0:0:
64,192,80990,1,0,0:0:0:0:
448,192,81074,1,0,0:0:0:0:
320,192,81074,128,0,81243:0:0:0:0:
192,192,81158,1,0,0:0:0:0:
64,192,81243,1,0,0:0:0:0:
448,192,81327,1,0,0:0:0:0:
320,192,81411,1,0,0:0:0:0:
64,192,81411,1,0,0:0:0:0:
192,192,81496,1,0,0:0:0:0:
320,192,81580,1,0,0:0:0:0:
448,192,81664,1,0,0:0:0:0:
320,192,81748,1,0,0:0:0:0:
64,192,81833,1,0,0:0:0:0:
448,192,81917,1,0,0:0:0:0:
192,192,81917,1,0,0:0:0:0:
320,192,82001,1,0,0:0:0:0:
192,192,82085,1,0,0:0:0:0:
64,192,82085,1,0,0:0:0:0:
320,192,82170,1,0,0:0:0:0:
448,192,82254,1,0,0:0:0:0:
64,192,82338,1,0,0:0:0:0:
192,192,82423,1,0,0:0:0:0:
320,192,82423,1,0,0:0:0:0:
448,192,82507,1,0,0:0:0:0:
64,192,82591,1,0,0:0:0:0:
320,192,82675,1,0,0:0:0:0:
64,192,82760,1,0,0:0:0:0:
192,192,82802,1,0,0:0:0:0:
448,192,82844,1,0,0:0:0:0:
320,192,82886,1,0,0:0:0:0:
64,192,82928,1,0,0:0:0:0:
192,192,82970,1,0,0:0:0:0:
448,192,83012,1,0,0:0:0:0:
320,192,83055,1,0,0:0:0:0:
64,192,83097,1,0,0:0:0:0:
192,192,83139,1,0,0:0:0:0:
448,192,83181,1,0,0:0:0:0:
320,192,83223,1,0,0:0:0:0:
64,192,83265,1,0,0:0:0:0:
192,192,83265,128,0,84782:0:0:0:0:
64,192,84782,128,0,84866:0:0:0:0:
448,192,84782,128,0,84866:0:0:0:0:
64,192,85119,1,0,0:0:0:0:
192,192,85119,1,0,0:0:0:0:
448,192,85119,1,0,0:0:0:0:
320,192,85288,1,0,0:0:0:0:
192,192,85372,1,0,0:0:0:0:
64,192,85456,1,0,0:0:0:0:
448,192,85456,1,0,0:0:0:0:
320,192,85456,1,0,0:0:0:0:
192,192,85625,1,0,0:0:0:0:
320,192,85709,1,0,0:0:0:0:
448,192,85793,1,0,0:0:0:0:
64,192,85878,1,0,0:0:0:0:
192,192,85962,1,0,0:0:0:0:
320,192,85962,1,0,0:0:0:0:
320,192,86130,1,0,0:0:0:0:
448,192,86130,1,0,0:0:0:0:
64,192,86130,1,0,0:0:0:0:
192,192,86299,1,0,0:0:0:0:
64,192,86383,1,0,0:0:0:0:
320,192,86467,1,0,0:0:0:0:
448,192,86467,1,0,0:0:0:0:
192,192,86636,1,0,0:0:0:0:
320,192,86720,1,0,0:0:0:0:
448,192,86805,1,0,0:0:0:0:
64,192,86805,1,0,0:0:0:0:
192,192,86805,1,0,0:0:0:0:
320,192,86973,1,0,0:0:0:0:
448,192,87057,1,0,0:0:0:0:
64,192,87142,1,0,0:0:0:0:
320,192,87226,1,0,0:0:0:0:
192,192,87310,1,0,0:0:0:0:
64,192,87310,1,0,0:0:0:0:
192,192,87479,1,0,0:0:0:0:
320,192,87479,1,0,0:0:0:0:
448,192,87479,1,0,0:0:0:0:
64,192,87647,1,0,0:0:0:0:
192,192,87732,1,0,0:0:0:0:
320,192,87816,1,0,0:0:0:0:
448,192,87816,128,0,87984:0:0:0:0:
64,192,87984,1,0,0:0:0:0:
192,192,88153,1,0,0:0:0:0:
448,192,88153,1,0,0:0:0:0:
320,192,88153,1,0,0:0:0:0:
64,192,88321,1,0,0:0:0:0:
448,192,88406,1,0,0:0:0:0:
192,192,88490,1,0,0:0:0:0:
320,192,88574,1,0,0:0:0:0:
64,192,88658,1,0,0:0:0:0:
448,192,88658,1,0,0:0:0:0:
320,192,88827,1,0,0:0:0:0:
192,192,88827,1,0,0:0:0:0:
64,192,88827,1,0,0:0:0:0:
448,192,88996,1,0,0:0:0:0:
64,192,89080,1,0,0:0:0:0:
192,192,89164,1,0,0:0:0:0:
320,192,89164,1,0,0:0:0:0:
448,192,89333,1,0,0:0:0:0:
320,192,89417,1,0,0:0:0:0:
192,192,89501,1,0,0:0:0:0:
64,192,89501,1,0,0:0:0:0:
448,192,89501,1,0,0:0:0:0:
192,192,89670,1,0,0:0:0:0:
320,192,89754,1,0,0:0:0:0:
448,192,89838,1,0,0:0:0:0:
64,192,89923,1,0,0:0:0:0:
192,192,90007,1,0,0:0:0:0:
320,192,90007,1,0,0:0:0:0:
448,192,90007,128,0,90175:0:0:0:0:
64,192,90175,1,0,0:0:0:0:
192,192,90175,1,0,0:0:0:0:
320,192,90175,1,0,0:0:0:0:
448,192,90344,1,0,0:0:0:0:
320,192,90428,1,0,0:0:0:0:
192,192,90512,1,0,0:0:0:0:
64,192,90512,1,0,0:0:0:0:
320,192,90597,1,0,0:0:0:0:
448,192,90681,1,0,0:0:0:0:
64,192,90681,1,0,0:0:0:0:
192,192,90765,1,0,0:0:0:0:
320,192,90850,1,0,0:0:0:0:
448,192,90850,1,0,0:0:0:0:
192,192,90934,1,0,0:0:0:0:
64,192,91018,1,0,0:0:0:0:
448,192,91018,1,0,0:0:0:0:
320,192,91102,1,0,0:0:0:0:
192,192,91187,1,0,0:0:0:0:
64,192,91187,1,0,0:0:0:0:
320,192,91271,1,0,0:0:0:0:
448,192,91355,1,0,0:0:0:0:
64,192,91355,1,0,0:0:0:0:
192,192,91439,1,0,0:0:0:0:
320,192,91524,1,0,0:0:0:0:
448,192,91524,1,0,0:0:0:0:
192,192,91608,1,0,0:0:0:0:
64,192,91692,1,0,0:0:0:0:
448,192,91692,1,0,0:0:0:0:
320,192,91776,1,0,0:0:0:0:
64,192,91861,1,0,0:0:0:0:
192,192,91903,1,0,0:0:0:0:
320,192,91945,1,0,0:0:0:0:
448,192,92029,1,0,0:0:0:0:
192,192,92114,1,0,0:0:0:0:
448,192,92198,1,0,0:0:0:0:
320,192,92240,1,0,0:0:0:0:
192,192,92282,1,0,0:0:0:0:
64,192,92366,1,0,0:0:0:0:
320,192,92451,1,0,0:0:0:0:
64,192,92535,1,0,0:0:0:0:
320,192,92619,1,0,0:0:0:0:
192,192,92703,1,0,0:0:0:0:
448,192,92788,1,0,0:0:0:0:
64,192,92872,1,0,0:0:0:0:
192,192,92872,1,0,0:0:0:0:
320,192,92872,1,0,0:0:0:0:
448,192,93041,1,0,0:0:0:0:
320,192,93125,1,0,0:0:0:0:
192,192,93209,1,0,0:0:0:0:
64,192,93209,1,0,0:0:0:0:
192,192,93378,1,0,0:0:0:0:
64,192,93462,1,0,0:0:0:0:
192,192,93546,1,0,0:0:0:0:
320,192,93546,1,0,0:0:0:0:
448,192,93546,1,0,0:0:0:0:
320,192,93715,1,0,0:0:0:0:
192,192,93799,1,0,0:0:0:0:
64,192,93883,1,0,0:0:0:0:
192,192,93967,1,0,0:0:0:0:
320,192,94052,1,0,0:0:0:0:
448,192,94052,1,0,0:0:0:0:
64,192,94220,1,0,0:0:0:0:
192,192,94220,1,0,0:0:0:0:
320,192,94220,1,0,0:0:0:0:
448,192,94389,1,0,0:0:0:0:
320,192,94473,1,0,0:0:0:0:
192,192,94557,1,0,0:0:0:0:
64,192,94557,1,0,0:0:0:0:
320,192,94726,1,0,0:0:0:0:
448,192,94810,1,0,0:0:0:0:
192,192,94894,1,0,0:0:0:0:
320,192,94894,1,0,0:0:0:0:
64,192,95063,1,0,0:0:0:0:
192,192,95147,1,0,0:0:0:0:
320,192,95232,1,0,0:0:0:0:
448,192,95316,1,0,0:0:0:0:
64,192,95400,1,0,0:0:0:0:
320,192,95400,1,0,0:0:0:0:
192,192,95569,1,0,0:0:0:0:
320,192,95569,1,0,0:0:0:0:
448,192,95569,1,0,0:0:0:0:
64,192,95737,1,0,0:0:0:0:
192,192,95821,1,0,0:0:0:0:
320,192,95906,1,0,0:0:0:0:
448,192,95906,1,0,0:0:0:0:
192,192,96074,1,0,0:0:0:0:
320,192,96158,1,0,0:0:0:0:
448,192,96243,1,0,0:0:0:0:
64,192,96243,1,0,0:0:0:0:
192,192,96243,1,0,0:0:0:0:
320,192,96411,1,0,0:0:0:0:
192,192,96496,1,0,0:0:0:0:
64,192,96580,1,0,0:0:0:0:
448,192,96664,1,0,0:0:0:0:
320,192,96748,1,0,0:0:0:0:
192,192,96748,1,0,0:0:0:0:
192,192,96917,1,0,0:0:0:0:
64,192,96917,1,0,0:0:0:0:
448,192,96917,1,0,0:0:0:0:
320,192,97085,1,0,0:0:0:0:
448,192,97170,1,0,0:0:0:0:
192,192,97254,1,0,0:0:0:0:
64,192,97254,1,0,0:0:0:0:
320,192,97423,1,0,0:0:0:0:
192,192,97507,1,0,0:0:0:0:
64,192,97591,1,0,0:0:0:0:
448,192,97591,1,0,0:0:0:0:
320,192,97591,1,0,0:0:0:0:
192,192,97760,1,0,0:0:0:0:
64,192,97844,1,0,0:0:0:0:
448,192,97928,1,0,0:0:0:0:
192,192,98012,1,0,0:0:0:0:
320,192,98097,1,0,0:0:0:0:
448,192,98097,1,0,0:0:0:0:
320,192,98265,1,0,0:0:0:0:
192,192,98265,1,0,0:0:0:0:
64,192,98265,1,0,0:0:0:0:
448,192,98434,1,0,0:0:0:0:
320,192,98518,1,0,0:0:0:0:
192,192,98602,1,0,0:0:0:0:
64,192,98602,128,0,98771:0:0:0:0:
448,192,98771,1,0,0:0:0:0:
320,192,98939,1,0,0:0:0:0:
64,192,98939,1,0,0:0:0:0:
192,192,98939,1,0,0:0:0:0:
448,192,99108,1,0,0:0:0:0:
64,192,99192,1,0,0:0:0:0:
320,192,99276,1,0,0:0:0:0:
192,192,99361,1,0,0:0:0:0:
448,192,99445,1,0,0:0:0:0:
64,192,99445,1,0,0:0:0:0:
192,192,99614,1,0,0:0:0:0:
320,192,99614,1,0,0:0:0:0:
448,192,99614,1,0,0:0:0:0:
64,192,99782,1,0,0:0:0:0:
448,192,99866,1,0,0:0:0:0:
320,192,99951,1,0,0:0:0:0:
192,192,99951,1,0,0:0:0:0:
64,192,100119,1,0,0:0:0:0:
192,192,100203,1,0,0:0:0:0:
320,192,100288,1,0,0:0:0:0:
448,192,100288,1,0,0:0:0:0:
64,192,100288,1,0,0:0:0:0:
320,192,100456,1,0,0:0:0:0:
192,192,100541,1,0,0:0:0:0:
64,192,100625,1,0,0:0:0:0:
448,192,100709,1,0,0:0:0:0:
320,192,100793,1,0,0:0:0:0:
192,192,100793,1,0,0:0:0:0:
64,192,100793,128,0,100962:0:0:0:0:
448,192,100962,1,0,0:0:0:0:
320,192,100962,1,0,0:0:0:0:
192,192,100962,1,0,0:0:0:0:
64,192,101130,1,0,0:0:0:0:
192,192,101215,1,0,0:0:0:0:
320,192,101299,1,0,0:0:0:0:
448,192,101299,1,0,0:0:0:0:
192,192,101383,1,0,0:0:0:0:
64,192,101467,1,0,0:0:0:0:
448,192,101467,1,0,0:0:0:0:
320,192,101552,1,0,0:0:0:0:
192,192,101636,1,0,0:0:0:0:
64,192,101636,1,0,0:0:0:0:
320,192,101720,1,0,0:0:0:0:
448,192,101805,1,0,0:0:0:0:
64,192,101805,1,0,0:0:0:0:
192,192,101889,1,0,0:0:0:0:
320,192,101973,1,0,0:0:0:0:
448,192,101973,1,0,0:0:0:0:
192,192,102057,1,0,0:0:0:0:
64,192,102142,1,0,0:0:0:0:
448,192,102142,1,0,0:0:0:0:
320,192,102226,1,0,0:0:0:0:
192,192,102310,1,0,0:0:0:0:
64,192,102310,1,0,0:0:0:0:
320,192,102394,1,0,0:0:0:0:
448,192,102479,1,0,0:0:0:0:
64,192,102479,1,0,0:0:0:0:
192,192,102563,1,0,0:0:0:0:
448,192,102647,1,0,0:0:0:0:
320,192,102689,1,0,0:0:0:0:
64,192,102732,1,0,0:0:0:0:
192,192,102816,1,0,0:0:0:0:
448,192,102900,1,0,0:0:0:0:
64,192,102984,1,0,0:0:0:0:
192,192,103026,1,0,0:0:0:0:
448,192,103069,1,0,0:0:0:0:
320,192,103153,1,0,0:0:0:0:
64,192,103237,1,0,0:0:0:0:
448,192,103321,1,0,0:0:0:0:
192,192,103406,1,0,0:0:0:0:
320,192,103490,1,0,0:0:0:0:
64,192,103574,1,0,0:0:0:0:
448,192,103658,1,0,0:0:0:0:
320,192,103658,1,0,0:0:0:0:
192,192,103658,1,0,0:0:0:0:
64,192,103827,1,0,0:0:0:0:
192,192,103911,1,0,0:0:0:0:
320,192,103996,1,0,0:0:0:0:
448,192,103996,1,0,0:0:0:0:
320,192,104164,1,0,0:0:0:0:
448,192,104248,1,0,0:0:0:0:
320,192,104333,1,0,0:0:0:0:
192,192,104333,1,0,0:0:0:0:
64,192,104333,1,0,0:0:0:0:
192,192,104501,1,0,0:0:0:0:
320,192,104585,1,0,0:0:0:0:
448,192,104670,1,0,0:0:0:0:
320,192,104754,1,0,0:0:0:0:
192,192,104838,1,0,0:0:0:0:
64,192,104838,1,0,0:0:0:0:
448,192,105007,1,0,0:0:0:0:
320,192,105007,1,0,0:0:0:0:
192,192,105007,1,0,0:0:0:0:
64,192,105175,1,0,0:0:0:0:
192,192,105260,1,0,0:0:0:0:
320,192,105344,1,0,0:0:0:0:
448,192,105344,1,0,0:0:0:0:
192,192,105512,1,0,0:0:0:0:
64,192,105597,1,0,0:0:0:0:
320,192,105681,1,0,0:0:0:0:
192,192,105681,1,0,0:0:0:0:
448,192,105850,1,0,0:0:0:0:
320,192,105934,1,0,0:0:0:0:
192,192,106018,1,0,0:0:0:0:
64,192,106102,1,0,0:0:0:0:
448,192,106187,1,0,0:0:0:0:
192,192,106187,1,0,0:0:0:0:
192,192,106355,1,0,0:0:0:0:
64,192,106355,1,0,0:0:0:0:
448,192,106524,1,0,0:0:0:0:
64,192,106692,1,0,0:0:0:0:
192,192,106692,1,0,0:0:0:0:
320,192,106692,1,0,0:0:0:0:
192,192,106861,1,0,0:0:0:0:
192,192,107029,1,0,0:0:0:0:
320,192,107029,1,0,0:0:0:0:
448,192,107029,1,0,0:0:0:0:
64,192,107198,1,0,0:0:0:0:
192,192,107282,1,0,0:0:0:0:
320,192,107366,1,0,0:0:0:0:
448,192,107451,1,0,0:0:0:0:
320,192,107535,1,0,0:0:0:0:
64,192,107535,1,0,0:0:0:0:
448,192,107703,1,0,0:0:0:0:
192,192,107703,1,0,0:0:0:0:
320,192,107703,1,0,0:0:0:0:
64,192,107872,1,0,0:0:0:0:
192,192,107956,1,0,0:0:0:0:
320,192,108041,1,0,0:0:0:0:
448,192,108041,1,0,0:0:0:0:
320,192,108209,1,0,0:0:0:0:
192,192,108293,1,0,0:0:0:0:
64,192,108378,1,0,0:0:0:0:
448,192,108378,1,0,0:0:0:0:
320,192,108462,1,0,0:0:0:0:
192,192,108546,1,0,0:0:0:0:
64,192,108546,1,0,0:0:0:0:
448,192,108630,1,0,0:0:0:0:
192,192,108715,1,0,0:0:0:0:
320,192,108799,1,0,0:0:0:0:
64,192,108883,1,0,0:0:0:0:
192,192,108883,1,0,0:0:0:0:
448,192,109052,1,0,0:0:0:0:
320,192,109052,1,0,0:0:0:0:
192,192,109052,1,0,0:0:0:0:
64,192,109136,1,0,0:0:0:0:
448,192,109220,1,0,0:0:0:0:
320,192,109305,1,0,0:0:0:0:
192,192,109389,1,0,0:0:0:0:
64,192,109389,1,0,0:0:0:0:
64,192,109557,1,0,0:0:0:0:
192,192,109726,1,0,0:0:0:0:
448,192,109726,1,0,0:0:0:0:
320,192,109726,1,0,0:0:0:0:
64,192,109810,1,0,0:0:0:0:
320,192,109894,1,0,0:0:0:0:
192,192,109979,1,0,0:0:0:0:
448,192,110063,1,0,0:0:0:0:
320,192,110147,1,0,0:0:0:0:
192,192,110232,1,0,0:0:0:0:
64,192,110232,1,0,0:0:0:0:
448,192,110316,1,0,0:0:0:0:
320,192,110400,1,0,0:0:0:0:
64,192,110400,1,0,0:0:0:0:
320,192,110569,1,0,0:0:0:0:
64,192,110737,1,0,0:0:0:0:
192,192,110737,1,0,0:0:0:0:
448,192,110737,1,0,0:0:0:0:
320,192,110906,1,0,0:0:0:0:
64,192,111074,1,0,0:0:0:0:
448,192,111074,1,0,0:0:0:0:
192,192,111243,1,0,0:0:0:0:
64,192,111243,1,0,0:0:0:0:
448,192,111327,1,0,0:0:0:0:
64,192,111411,1,0,0:0:0:0:
320,192,111496,1,0,0:0:0:0:
192,192,111580,1,0,0:0:0:0:
448,192,111580,1,0,0:0:0:0:
320,192,111748,1,0,0:0:0:0:
448,192,111748,1,0,0:0:0:0:
192,192,111748,1,0,0:0:0:0:
64,192,111917,1,0,0:0:0:0:
448,192,112001,1,0,0:0:0:0:
320,192,112085,1,0,0:0:0:0:
192,192,112085,1,0,0:0:0:0:
320,192,112254,1,0,0:0:0:0:
192,192,112423,1,0,0:0:0:0:
64,192,112423,1,0,0:0:0:0:
448,192,112423,1,0,0:0:0:0:
64,192,112591,1,0,0:0:0:0:
448,192,112675,1,0,0:0:0:0:
192,192,112760,1,0,0:0:0:0:
320,192,112844,1,0,0:0:0:0:
192,192,112928,1,0,0:0:0:0:
64,192,112928,1,0,0:0:0:0:
320,192,113097,1,0,0:0:0:0:
64,192,113097,1,0,0:0:0:0:
448,192,113097,1,0,0:0:0:0:
192,192,113265,1,0,0:0:0:0:
64,192,113350,1,0,0:0:0:0:
192,192,113434,1,0,0:0:0:0:
448,192,113434,1,0,0:0:0:0:
320,192,113602,1,0,0:0:0:0:
448,192,113687,1,0,0:0:0:0:
320,192,113771,1,0,0:0:0:0:
64,192,113771,1,0,0:0:0:0:
192,192,113855,1,0,0:0:0:0:
320,192,113939,1,0,0:0:0:0:
448,192,113939,1,0,0:0:0:0:
64,192,114024,1,0,0:0:0:0:
448,192,114108,1,0,0:0:0:0:
192,192,114192,1,0,0:0:0:0:
320,192,114276,1,0,0:0:0:0:
448,192,114276,1,0,0:0:0:0:
192,192,114445,1,0,0:0:0:0:
448,192,114445,1,0,0:0:0:0:
64,192,114445,1,0,0:0:0:0:
192,192,114614,1,0,0:0:0:0:
64,192,114698,1,0,0:0:0:0:
448,192,114782,1,0,0:0:0:0:
320,192,114782,128,0,114951:0:0:0:0:
192,192,114866,1,0,0:0:0:0:
64,192,114951,1,0,0:0:0:0:
448,192,115035,1,0,0:0:0:0:
320,192,115119,1,0,0:0:0:0:
64,192,115119,1,0,0:0:0:0:
192,192,115203,1,0,0:0:0:0:
320,192,115288,1,0,0:0:0:0:
448,192,115372,1,0,0:0:0:0:
320,192,115456,1,0,0:0:0:0:
64,192,115541,1,0,0:0:0:0:
448,192,115625,1,0,0:0:0:0:
192,192,115625,1,0,0:0:0:0:
320,192,115709,1,0,0:0:0:0:
192,192,115793,1,0,0:0:0:0:
64,192,115793,1,0,0:0:0:0:
320,192,115878,1,0,0:0:0:0:
448,192,115962,1,0,0:0:0:0:
64,192,116046,1,0,0:0:0:0:
192,192,116130,1,0,0:0:0:0:
320,192,116130,1,0,0:0:0:0:
448,192,116215,1,0,0:0:0:0:
64,192,116299,1,0,0:0:0:0:
320,192,116383,1,0,0:0:0:0:
64,192,116467,1,0,0:0:0:0:
192,192,116510,1,0,0:0:0:0:
448,192,116552,1,0,0:0:0:0:
320,192,116594,1,0,0:0:0:0:
64,192,116636,1,0,0:0:0:0:
192,192,116678,1,0,0:0:0:0:
448,192,116720,1,0,0:0:0:0:
320,192,116762,1,0,0:0:0:0:
64,192,116805,1,0,0:0:0:0:
192,192,116847,1,0,0:0:0:0:
448,192,116889,1,0,0:0:0:0:
320,192,116931,1,0,0:0:0:0:
64,192,116973,1,0,0:0:0:0:
192,192,117015,1,0,0:0:0:0:
448,192,117057,1,0,0:0:0:0:
320,192,117100,1,0,0:0:0:0:
64,192,117142,1,0,0:0:0:0:
192,192,117184,1,0,0:0:0:0:
320,192,117226,1,0,0:0:0:0:
448,192,117268,1,0,0:0:0:0:
64,192,117310,1,0,0:0:0:0:
192,192,117352,1,0,0:0:0:0:
320,192,117394,1,0,0:0:0:0:
448,192,117437,1,0,0:0:0:0:
192,192,117479,1,0,0:0:0:0:
64,192,117479,1,0,0:0:0:0:
64,192,117647,1,0,0:0:0:0:
320,192,117816,1,0,0:0:0:0:
192,192,117816,1,0,0:0:0:0:
448,192,117816,1,0,0:0:0:0:
448,192,117984,1,0,0:0:0:0:
320,192,118069,1,0,0:0:0:0:
64,192,118153,1,0,0:0:0:0:
192,192,118237,1,0,0:0:0:0:
64,192,118321,1,0,0:0:0:0:
448,192,118321,1,0,0:0:0:0:
320,192,118321,128,0,118490:0:0:0:0:
64,192,118490,1,0,0:0:0:0:
192,192,118490,1,0,0:0:0:0:
448,192,118658,1,0,0:0:0:0:
192,192,118827,1,0,0:0:0:0:
64,192,118827,1,0,0:0:0:0:
192,192,118996,1,0,0:0:0:0:
320,192,119080,1,0,0:0:0:0:
448,192,119164,1,0,0:0:0:0:
64,192,119164,1,0,0:0:0:0:
192,192,119248,1,0,0:0:0:0:
320,192,119333,1,0,0:0:0:0:
448,192,119333,128,0,119501:0:0:0:0:
64,192,119417,1,0,0:0:0:0:
320,192,119501,1,0,0:0:0:0:
192,192,119585,1,0,0:0:0:0:
448,192,119670,1,0,0:0:0:0:
320,192,119670,128,0,119838:0:0:0:0:
64,192,119838,1,0,0:0:0:0:
192,192,119838,1,0,0:0:0:0:
448,192,119923,1,0,0:0:0:0:
64,192,120007,1,0,0:0:0:0:
192,192,120091,1,0,0:0:0:0:
320,192,120175,1,0,0:0:0:0:
448,192,120175,1,0,0:0:0:0:
448,192,120344,1,0,0:0:0:0:
192,192,120428,1,0,0:0:0:0:
320,192,120512,1,0,0:0:0:0:
64,192,120512,1,0,0:0:0:0:
448,192,120597,1,0,0:0:0:0:
192,192,120681,1,0,0:0:0:0:
320,192,120765,1,0,0:0:0:0:
64,192,120850,1,0,0:0:0:0:
192,192,120934,1,0,0:0:0:0:
320,192,121018,1,0,0:0:0:0:
448,192,121018,1,0,0:0:0:0:
64,192,121102,1,0,0:0:0:0:
192,192,121187,1,0,0:0:0:0:
448,192,121187,1,0,0:0:0:0:
192,192,121355,1,0,0:0:0:0:
64,192,121439,1,0,0:0:0:0:
192,192,121524,1,0,0:0:0:0:
448,192,121524,1,0,0:0:0:0:
320,192,121524,1,0,0:0:0:0:
192,192,121692,1,0,0:0:0:0:
448,192,121861,1,0,0:0:0:0:
64,192,121861,1,0,0:0:0:0:
320,192,121861,1,0,0:0:0:0:
320,192,122029,1,0,0:0:0:0:
448,192,122029,1,0,0:0:0:0:
64,192,122114,1,0,0:0:0:0:
448,192,122198,1,0,0:0:0:0:
192,192,122282,1,0,0:0:0:0:
320,192,122366,1,0,0:0:0:0:
64,192,122366,1,0,0:0:0:0:
192,192,122535,1,0,0:0:0:0:
64,192,122535,1,0,0:0:0:0:
448,192,122535,1,0,0:0:0:0:
448,192,122703,1,0,0:0:0:0:
192,192,122703,1,0,0:0:0:0:
192,192,122872,1,0,0:0:0:0:
320,192,122872,1,0,0:0:0:0:
320,192,123041,1,0,0:0:0:0:
320,192,123209,1,0,0:0:0:0:
448,192,123209,1,0,0:0:0:0:
64,192,123209,1,0,0:0:0:0:
448,192,123378,1,0,0:0:0:0:
64,192,123462,1,0,0:0:0:0:
320,192,123546,1,0,0:0:0:0:
192,192,123630,1,0,0:0:0:0:
320,192,123715,1,0,0:0:0:0:
448,192,123715,1,0,0:0:0:0:
192,192,123883,1,0,0:0:0:0:
448,192,123883,1,0,0:0:0:0:
64,192,123883,1,0,0:0:0:0:
320,192,124052,1,0,0:0:0:0:
448,192,124136,1,0,0:0:0:0:
320,192,124220,1,0,0:0:0:0:
64,192,124220,1,0,0:0:0:0:
192,192,124389,1,0,0:0:0:0:
64,192,124473,1,0,0:0:0:0:
192,192,124557,1,0,0:0:0:0:
448,192,124557,1,0,0:0:0:0:
320,192,124642,1,0,0:0:0:0:
192,192,124726,1,0,0:0:0:0:
64,192,124726,1,0,0:0:0:0:
448,192,124810,1,0,0:0:0:0:
64,192,124894,1,0,0:0:0:0:
320,192,124979,1,0,0:0:0:0:
192,192,125063,1,0,0:0:0:0:
64,192,125063,1,0,0:0:0:0:
448,192,125063,128,0,125232:0:0:0:0:
320,192,125232,1,0,0:0:0:0:
64,192,125232,1,0,0:0:0:0:
192,192,125232,1,0,0:0:0:0:
320,192,125400,1,0,0:0:0:0:
64,192,125569,1,0,0:0:0:0:
192,192,125569,128,0,125737:0:0:0:0:
320,192,125653,1,0,0:0:0:0:
448,192,125737,1,0,0:0:0:0:
64,192,125821,1,0,0:0:0:0:
192,192,125906,1,0,0:0:0:0:
448,192,125906,1,0,0:0:0:0:
320,192,125990,1,0,0:0:0:0:
192,192,126074,1,0,0:0:0:0:
64,192,126158,1,0,0:0:0:0:
192,192,126243,1,0,0:0:0:0:
448,192,126327,1,0,0:0:0:0:
64,192,126411,1,0,0:0:0:0:
320,192,126411,1,0,0:0:0:0:
192,192,126496,1,0,0:0:0:0:
320,192,126580,1,0,0:0:0:0:
448,192,126580,1,0,0:0:0:0:
192,192,126664,1,0,0:0:0:0:
64,192,126748,1,0,0:0:0:0:
448,192,126833,1,0,0:0:0:0:
320,192,126917,1,0,0:0:0:0:
192,192,126917,1,0,0:0:0:0:
64,192,127001,1,0,0:0:0:0:
448,192,127085,1,0,0:0:0:0:
192,192,127170,1,0,0:0:0:0:
448,192,127254,1,0,0:0:0:0:
320,192,127296,1,0,0:0:0:0:
64,192,127338,1,0,0:0:0:0:
192,192,127380,1,0,0:0:0:0:
448,192,127423,1,0,0:0:0:0:
320,192,127465,1,0,0:0:0:0:
64,192,127507,1,0,0:0:0:0:
192,192,127549,1,0,0:0:0:0:
448,192,127591,1,0,0:0:0:0:
320,192,127633,1,0,0:0:0:0:
64,192,127675,1,0,0:0:0:0:
192,192,127717,1,0,0:0:0:0:
448,192,127760,1,0,0:0:0:0:
320,192,127802,1,0,0:0:0:0:
192,192,127844,1,0,0:0:0:0:
64,192,127886,1,0,0:0:0:0:
448,192,127928,1,0,0:0:0:0:
320,192,127970,1,0,0:0:0:0:
192,192,128012,1,0,0:0:0:0:
64,192,128055,1,0,0:0:0:0:
448,192,128097,1,0,0:0:0:0:
320,192,128139,1,0,0:0:0:0:
192,192,128181,1,0,0:0:0:0:
64,192,128223,1,0,0:0:0:0:
320,192,128265,1,0,0:0:0:0:
448,192,128265,1,0,0:0:0:0:
64,192,133658,132,0,134838:0:0:0:0:
448,192,133658,128,0,134838:0:0:0:0:
192,192,133658,1,0,0:0:0:0:
320,192,134838,128,0,136355:0:0:0:0:
448,192,136355,128,0,137535:0:0:0:0:
64,192,137535,128,0,139052:0:0:0:0:
320,192,139052,128,0,140232:0:0:0:0:
448,192,139052,128,0,140232:0:0:0:0:
64,192,140232,128,0,141748:0:0:0:0:
192,192,140232,128,0,141748:0:0:0:0:
320,192,141748,128,0,142423:0:0:0:0:
448,192,142423,128,0,142928:0:0:0:0:
320,192,142928,128,0,144445:0:0:0:0:
64,192,142928,128,0,144445:0:0:0:0:
448,192,144445,128,0,145625:0:0:0:0:
192,192,144445,1,0,0:0:0:0:
192,192,145625,128,0,147142:0:0:0:0:
64,192,145625,1,0,0:0:0:0:
448,192,147142,1,0,0:0:0:0:
64,192,147142,128,0,148321:0:0:0:0:
320,192,148321,128,0,149838:0:0:0:0:
192,192,148321,1,0,0:0:0:0:
448,192,149838,1,0,0:0:0:0:
64,192,149838,128,0,151018:0:0:0:0:
192,192,149838,128,0,151018:0:0:0:0:
320,192,151018,128,0,152535:0:0:0:0:
448,192,151018,128,0,152535:0:0:0:0:
192,192,152535,128,0,153209:0:0:0:0:
64,192,152535,1,0,0:0:0:0:
320,192,153209,128,0,153715:0:0:0:0:
448,192,153209,1,0,0:0:0:0:
64,192,153715,128,0,155232:0:0:0:0:
192,192,153715,1,0,0:0:0:0:
448,192,155232,128,0,155569:0:0:0:0:
192,192,155232,1,0,0:0:0:0:
320,192,155232,1,0,0:0:0:0:
64,192,155569,128,0,155906:0:0:0:0:
192,192,155906,128,0,156243:0:0:0:0:
320,192,156243,128,0,156327:0:0:0:0:
448,192,156327,128,0,156411:0:0:0:0:
64,192,156411,128,0,157423:0:0:0:0:
448,192,157423,128,0,157507:0:0:0:0:
320,192,157507,128,0,157591:0:0:0:0:
192,192,157591,128,0,157928:0:0:0:0:
448,192,157928,128,0,158265:0:0:0:0:
64,192,158265,128,0,158602:0:0:0:0:
320,192,158602,128,0,158771:0:0:0:0:
192,192,158771,128,0,159108:0:0:0:0:
448,192,159108,128,0,159614:0:0:0:0:
320,192,159614,128,0,160288:0:0:0:0:
64,192,160288,128,0,160456:0:0:0:0:
192,192,160456,128,0,160541:0:0:0:0:
320,192,160541,128,0,160625:0:0:0:0:
448,192,160625,128,0,160962:0:0:0:0:
192,192,161215,128,0,161552:0:0:0:0:
320,192,161805,128,0,162142:0:0:0:0:
64,192,162310,128,0,162647:0:0:0:0:
448,192,162647,128,0,163153:0:0:0:0:
320,192,163153,128,0,163237:0:0:0:0:
64,192,163237,128,0,163321:0:0:0:0:
192,192,163321,128,0,163658:0:0:0:0:
320,192,163658,128,0,163996:0:0:0:0:
448,192,163996,128,0,164501:0:0:0:0:
64,192,164501,128,0,165344:0:0:0:0:
192,192,165344,128,0,165681:0:0:0:0:
64,192,165681,128,0,166018:0:0:0:0:
320,192,166018,128,0,166355:0:0:0:0:
448,192,166355,128,0,166692:0:0:0:0:
192,192,166692,128,0,167029:0:0:0:0:
320,192,167029,128,0,167114:0:0:0:0:
448,192,167114,128,0,167198:0:0:0:0:
64,192,167198,128,0,168209:0:0:0:0:
448,192,168209,128,0,168293:0:0:0:0:
320,192,168293,128,0,168378:0:0:0:0:
192,192,168378,128,0,168715:0:0:0:0:
448,192,168715,128,0,169052:0:0:0:0:
192,192,169052,128,0,169389:0:0:0:0:
64,192,169389,128,0,169557:0:0:0:0:
320,192,169557,128,0,169894:0:0:0:0:
448,192,169894,128,0,170400:0:0:0:0:
320,192,170400,128,0,171074:0:0:0:0:
64,192,171074,128,0,171243:0:0:0:0:
192,192,171243,128,0,171327:0:0:0:0:
320,192,171327,128,0,171411:0:0:0:0:
64,192,171411,128,0,171748:0:0:0:0:
448,192,172001,128,0,172338:0:0:0:0:
192,192,172591,128,0,172928:0:0:0:0:
64,192,173097,128,0,173434:0:0:0:0:
448,192,173434,128,0,173939:0:0:0:0:
320,192,173939,128,0,174024:0:0:0:0:
64,192,174024,128,0,174108:0:0:0:0:
192,192,174108,128,0,174445:0:0:0:0:
320,192,174445,128,0,174782:0:0:0:0:
448,192,174782,128,0,175288:0:0:0:0:
64,192,175288,128,0,176130:0:0:0:0:
192,192,176130,128,0,176467:0:0:0:0:
64,192,176467,128,0,176805:0:0:0:0:
448,192,176805,128,0,177142:0:0:0:0:
64,192,177142,128,0,177479:0:0:0:0:
192,192,177479,128,0,177816:0:0:0:0:
320,192,177816,128,0,177900:0:0:0:0:
448,192,177900,128,0,177984:0:0:0:0:
64,192,177984,128,0,178996:0:0:0:0:
192,192,177984,1,0,0:0:0:0:
448,192,178996,128,0,179080:0:0:0:0:
320,192,179080,128,0,179164:0:0:0:0:
192,192,179164,128,0,179501:0:0:0:0:
448,192,179501,128,0,179838:0:0:0:0:
320,192,179501,1,0,0:0:0:0:
64,192,179838,128,0,180175:0:0:0:0:
320,192,180175,128,0,180344:0:0:0:0:
192,192,180344,128,0,180681:0:0:0:0:
448,192,180681,128,0,181187:0:0:0:0:
64,192,180681,1,0,0:0:0:0:
320,192,181187,128,0,181861:0:0:0:0:
64,192,181861,128,0,182029:0:0:0:0:
192,192,182029,128,0,182114:0:0:0:0:
320,192,182114,128,0,182198:0:0:0:0:
448,192,182198,128,0,182535:0:0:0:0:
64,192,182198,1,0,0:0:0:0:
192,192,182788,128,0,183125:0:0:0:0:
320,192,183378,128,0,183715:0:0:0:0:
64,192,183378,1,0,0:0:0:0:
64,192,183883,128,0,184220:0:0:0:0:
448,192,184220,128,0,184726:0:0:0:0:
320,192,184726,128,0,184810:0:0:0:0:
64,192,184810,128,0,184894:0:0:0:0:
192,192,184894,128,0,185232:0:0:0:0:
448,192,184894,1,0,0:0:0:0:
320,192,185232,128,0,185569:0:0:0:0:
448,192,185569,128,0,186074:0:0:0:0:
64,192,186074,128,0,187423:0:0:0:0:
320,192,187423,1,0,0:0:0:0:
448,192,187423,1,0,0:0:0:0:
192,192,187591,1,0,0:0:0:0:
320,192,187591,1,0,0:0:0:0:
64,192,187591,1,0,0:0:0:0:
64,192,192984,132,0,198378:0:0:0:0:
192,192,198378,1,0,0:0:0:0:
320,192,198378,1,0,0:0:0:0:
448,192,198378,1,0,0:0:0:0:
64,192,198546,1,0,0:0:0:0:
448,192,198715,1,0,0:0:0:0:
192,192,198799,1,0,0:0:0:0:
320,192,198883,1,0,0:0:0:0:
64,192,198967,1,0,0:0:0:0:
448,192,199052,1,0,0:0:0:0:
192,192,199220,1,0,0:0:0:0:
320,192,199305,1,0,0:0:0:0:
448,192,199389,1,0,0:0:0:0:
64,192,199473,1,0,0:0:0:0:
320,192,199557,1,0,0:0:0:0:
192,192,199642,1,0,0:0:0:0:
448,192,199726,128,0,199894:0:0:0:0:
64,192,199894,1,0,0:0:0:0:
320,192,200063,1,0,0:0:0:0:
192,192,200147,1,0,0:0:0:0:
448,192,200232,1,0,0:0:0:0:
64,192,200316,1,0,0:0:0:0:
320,192,200400,1,0,0:0:0:0:
192,192,200569,1,0,0:0:0:0:
64,192,200569,1,0,0:0:0:0:
192,192,200737,1,0,0:0:0:0:
320,192,200737,128,0,200906:0:0:0:0:
448,192,200990,1,0,0:0:0:0:
64,192,201074,1,0,0:0:0:0:
192,192,201074,128,0,201243:0:0:0:0:
320,192,201243,128,0,201411:0:0:0:0:
448,192,201243,1,0,0:0:0:0:
64,192,201411,1,0,0:0:0:0:
448,192,201496,1,0,0:0:0:0:
192,192,201580,128,0,201748:0:0:0:0:
64,192,201664,1,0,0:0:0:0:
320,192,201748,1,0,0:0:0:0:
320,192,201917,128,0,202085:0:0:0:0:
448,192,202085,1,0,0:0:0:0:
192,192,202170,1,0,0:0:0:0:
320,192,202254,1,0,0:0:0:0:
448,192,202254,1,0,0:0:0:0:
192,192,202338,1,0,0:0:0:0:
64,192,202423,1,0,0:0:0:0:
448,192,202591,128,0,202760:0:0:0:0:
192,192,202760,1,0,0:0:0:0:
320,192,202928,1,0,0:0:0:0:
64,192,203012,1,0,0:0:0:0:
320,192,203097,1,0,0:0:0:0:
320,192,203265,128,0,203434:0:0:0:0:
64,192,203350,1,0,0:0:0:0:
448,192,203434,128,0,203771:0:0:0:0:
64,192,203602,1,0,0:0:0:0:
192,192,203687,1,0,0:0:0:0:
320,192,203771,1,0,0:0:0:0:
64,192,203771,1,0,0:0:0:0:
192,192,203939,1,0,0:0:0:0:
320,192,204108,1,0,0:0:0:0:
192,192,204192,1,0,0:0:0:0:
448,192,204276,1,0,0:0:0:0:
64,192,204361,1,0,0:0:0:0:
320,192,204445,1,0,0:0:0:0:
448,192,204614,1,0,0:0:0:0:
64,192,204698,1,0,0:0:0:0:
320,192,204782,1,0,0:0:0:0:
64,192,204866,1,0,0:0:0:0:
320,192,204951,1,0,0:0:0:0:
192,192,205035,1,0,0:0:0:0:
320,192,205119,128,0,205288:0:0:0:0:
64,192,205288,1,0,0:0:0:0:
448,192,205456,1,0,0:0:0:0:
192,192,205541,1,0,0:0:0:0:
448,192,205625,1,0,0:0:0:0:
64,192,205709,1,0,0:0:0:0:
320,192,205793,1,0,0:0:0:0:
448,192,205962,1,0,0:0:0:0:
64,192,205962,1,0,0:0:0:0:
448,192,206130,1,0,0:0:0:0:
320,192,206130,1,0,0:0:0:0:
192,192,206299,1,0,0:0:0:0:
448,192,206383,1,0,0:0:0:0:
192,192,206467,1,0,0:0:0:0:
64,192,206467,128,0,206636:0:0:0:0:
320,192,206636,128,0,206805:0:0:0:0:
448,192,206636,1,0,0:0:0:0:
64,192,206805,1,0,0:0:0:0:
448,192,206889,1,0,0:0:0:0:
192,192,206973,128,0,207142:0:0:0:0:
64,192,207057,1,0,0:0:0:0:
320,192,207142,1,0,0:0:0:0:
320,192,207310,128,0,207479:0:0:0:0:
448,192,207479,1,0,0:0:0:0:
192,192,207563,1,0,0:0:0:0:
320,192,207647,1,0,0:0:0:0:
448,192,207647,1,0,0:0:0:0:
192,192,207732,1,0,0:0:0:0:
64,192,207816,128,0,207984:0:0:0:0:
448,192,207984,128,0,208153:0:0:0:0:
192,192,208153,128,0,208321:0:0:0:0:
320,192,208321,1,0,0:0:0:0:
64,192,208406,1,0,0:0:0:0:
320,192,208490,1,0,0:0:0:0:
320,192,208658,128,0,208827:0:0:0:0:
64,192,208743,1,0,0:0:0:0:
448,192,208827,128,0,209164:0:0:0:0:
64,192,208996,1,0,0:0:0:0:
192,192,209080,1,0,0:0:0:0:
320,192,209164,1,0,0:0:0:0:
64,192,209164,1,0,0:0:0:0:
192,192,209333,1,0,0:0:0:0:
448,192,209501,1,0,0:0:0:0:
64,192,209585,1,0,0:0:0:0:
320,192,209670,1,0,0:0:0:0:
192,192,209754,1,0,0:0:0:0:
320,192,209838,1,0,0:0:0:0:
448,192,209838,1,0,0:0:0:0:
64,192,210007,1,0,0:0:0:0:
192,192,210175,1,0,0:0:0:0:
448,192,210260,1,0,0:0:0:0:
192,192,210344,1,0,0:0:0:0:
320,192,210428,1,0,0:0:0:0:
64,192,210512,1,0,0:0:0:0:
192,192,210512,1,0,0:0:0:0:
448,192,210512,1,0,0:0:0:0:
320,192,210681,1,0,0:0:0:0:
448,192,210850,1,0,0:0:0:0:
64,192,210934,1,0,0:0:0:0:
448,192,211018,1,0,0:0:0:0:
192,192,211102,1,0,0:0:0:0:
320,192,211187,1,0,0:0:0:0:
448,192,211187,1,0,0:0:0:0:
64,192,211355,1,0,0:0:0:0:
192,192,211524,1,0,0:0:0:0:
320,192,211608,1,0,0:0:0:0:
64,192,211692,1,0,0:0:0:0:
448,192,211776,1,0,0:0:0:0:
64,192,211861,1,0,0:0:0:0:
192,192,211861,1,0,0:0:0:0:
320,192,211861,1,0,0:0:0:0:
192,192,212029,1,0,0:0:0:0:
64,192,212198,1,0,0:0:0:0:
320,192,212198,1,0,0:0:0:0:
448,192,212198,1,0,0:0:0:0:
320,192,212366,1,0,0:0:0:0:
64,192,212535,1,0,0:0:0:0:
192,192,212535,1,0,0:0:0:0:
448,192,212535,1,0,0:0:0:0:
320,192,212703,1,0,0:0:0:0:
192,192,212872,1,0,0:0:0:0:
320,192,212872,1,0,0:0:0:0:
448,192,212872,1,0,0:0:0:0:
64,192,213041,1,0,0:0:0:0:
64,192,213209,1,0,0:0:0:0:
192,192,213209,1,0,0:0:0:0:
448,192,213209,1,0,0:0:0:0:
320,192,213293,1,0,0:0:0:0:
448,192,213378,1,0,0:0:0:0:
64,192,213378,1,0,0:0:0:0:
192,192,213462,1,0,0:0:0:0:
320,192,213546,1,0,0:0:0:0:
448,192,213546,1,0,0:0:0:0:
64,192,213630,1,0,0:0:0:0:
192,192,213715,1,0,0:0:0:0:
448,192,213715,1,0,0:0:0:0:
320,192,213799,1,0,0:0:0:0:
192,192,213883,1,0,0:0:0:0:
64,192,213883,1,0,0:0:0:0:
448,192,213967,1,0,0:0:0:0:
320,192,214052,1,0,0:0:0:0:
64,192,214052,1,0,0:0:0:0:
192,192,214136,1,0,0:0:0:0:
320,192,214220,1,0,0:0:0:0:
448,192,214220,1,0,0:0:0:0:
192,192,214305,1,0,0:0:0:0:
64,192,214389,1,0,0:0:0:0:
448,192,214389,1,0,0:0:0:0:
320,192,214473,1,0,0:0:0:0:
64,192,214557,1,0,0:0:0:0:
192,192,214557,1,0,0:0:0:0:
448,192,214557,128,0,216243:0:0:0:0:
64,192,216580,128,0,218265:0:0:0:0:
448,192,218265,128,0,218350:0:0:0:0:
192,192,218265,1,0,0:0:0:0:
448,192,218434,128,0,218518:0:0:0:0:
192,192,218434,1,0,0:0:0:0:
64,192,218602,1,0,0:0:0:0:
192,192,218602,1,0,0:0:0:0:
320,192,218602,1,0,0:0:0:0:
320,192,218771,1,0,0:0:0:0:
448,192,218771,1,0,0:0:0:0:
64,192,218939,1,0,0:0:0:0:
448,192,218939,1,0,0:0:0:0:
192,192,219024,1,0,0:0:0:0:
320,192,219108,1,0,0:0:0:0:
448,192,219108,1,0,0:0:0:0:
64,192,219192,1,0,0:0:0:0:
192,192,219276,1,0,0:0:0:0:
448,192,219276,1,0,0:0:0:0:
320,192,219445,1,0,0:0:0:0:
192,192,219445,1,0,0:0:0:0:
64,192,219614,1,0,0:0:0:0:
192,192,219614,1,0,0:0:0:0:
448,192,219614,1,0,0:0:0:0:
320,192,219698,1,0,0:0:0:0:
448,192,219782,1,0,0:0:0:0:
64,192,219782,1,0,0:0:0:0:
320,192,219866,1,0,0:0:0:0:
192,192,219951,1,0,0:0:0:0:
64,192,219951,1,0,0:0:0:0:
192,192,220119,1,0,0:0:0:0:
64,192,220288,1,0,0:0:0:0:
320,192,220288,1,0,0:0:0:0:
448,192,220288,1,0,0:0:0:0:
64,192,220456,1,0,0:0:0:0:
320,192,220456,1,0,0:0:0:0:
192,192,220541,1,0,0:0:0:0:
448,192,220625,1,0,0:0:0:0:
320,192,220709,1,0,0:0:0:0:
192,192,220793,1,0,0:0:0:0:
64,192,220793,1,0,0:0:0:0:
448,192,220878,1,0,0:0:0:0:
320,192,220962,1,0,0:0:0:0:
192,192,220962,1,0,0:0:0:0:
64,192,220962,1,0,0:0:0:0:
192,192,221130,1,0,0:0:0:0:
448,192,221130,1,0,0:0:0:0:
320,192,221215,1,0,0:0:0:0:
192,192,221299,1,0,0:0:0:0:
64,192,221299,1,0,0:0:0:0:
448,192,221299,128,0,221467:0:0:0:0:
320,192,221467,1,0,0:0:0:0:
320,192,221636,1,0,0:0:0:0:
448,192,221636,1,0,0:0:0:0:
64,192,221636,1,0,0:0:0:0:
64,192,221805,1,0,0:0:0:0:
320,192,221805,1,0,0:0:0:0:
192,192,221889,1,0,0:0:0:0:
448,192,221973,1,0,0:0:0:0:
64,192,222057,1,0,0:0:0:0:
192,192,222142,1,0,0:0:0:0:
448,192,222142,1,0,0:0:0:0:
320,192,222310,1,0,0:0:0:0:
192,192,222310,1,0,0:0:0:0:
64,192,222310,1,0,0:0:0:0:
448,192,222479,1,0,0:0:0:0:
192,192,222563,1,0,0:0:0:0:
320,192,222647,1,0,0:0:0:0:
448,192,222647,1,0,0:0:0:0:
192,192,222816,128,0,222984:0:0:0:0:
64,192,222984,1,0,0:0:0:0:
448,192,222984,1,0,0:0:0:0:
320,192,223153,1,0,0:0:0:0:
448,192,223237,1,0,0:0:0:0:
64,192,223321,1,0,0:0:0:0:
320,192,223406,1,0,0:0:0:0:
192,192,223490,1,0,0:0:0:0:
64,192,223490,1,0,0:0:0:0:
192,192,223658,1,0,0:0:0:0:
320,192,223658,1,0,0:0:0:0:
448,192,223658,1,0,0:0:0:0:
64,192,223827,1,0,0:0:0:0:
320,192,223827,1,0,0:0:0:0:
448,192,223911,1,0,0:0:0:0:
320,192,223996,1,0,0:0:0:0:
192,192,223996,1,0,0:0:0:0:
64,192,223996,1,0,0:0:0:0:
192,192,224164,1,0,0:0:0:0:
320,192,224333,1,0,0:0:0:0:
448,192,224333,1,0,0:0:0:0:
64,192,224333,1,0,0:0:0:0:
192,192,224417,1,0,0:0:0:0:
64,192,224501,1,0,0:0:0:0:
448,192,224501,1,0,0:0:0:0:
320,192,224585,1,0,0:0:0:0:
192,192,224670,1,0,0:0:0:0:
64,192,224670,1,0,0:0:0:0:
192,192,224838,1,0,0:0:0:0:
320,192,224838,1,0,0:0:0:0:
448,192,225007,1,0,0:0:0:0:
64,192,225007,1,0,0:0:0:0:
192,192,225007,1,0,0:0:0:0:
320,192,225091,1,0,0:0:0:0:
64,192,225175,1,0,0:0:0:0:
448,192,225175,1,0,0:0:0:0:
192,192,225260,1,0,0:0:0:0:
320,192,225344,1,0,0:0:0:0:
448,192,225344,128,0,225512:0:0:0:0:
64,192,225512,128,0,225681:0:0:0:0:
192,192,225512,1,0,0:0:0:0:
320,192,225681,1,0,0:0:0:0:
448,192,225681,1,0,0:0:0:0:
192,192,225765,1,0,0:0:0:0:
64,192,225850,1,0,0:0:0:0:
448,192,225850,1,0,0:0:0:0:
320,192,225934,1,0,0:0:0:0:
192,192,226018,1,0,0:0:0:0:
64,192,226018,1,0,0:0:0:0:
320,192,226187,1,0,0:0:0:0:
448,192,226187,1,0,0:0:0:0:
64,192,226355,1,0,0:0:0:0:
192,192,226355,1,0,0:0:0:0:
320,192,226355,1,0,0:0:0:0:
448,192,226439,1,0,0:0:0:0:
64,192,226524,1,0,0:0:0:0:
192,192,226608,1,0,0:0:0:0:
320,192,226692,1,0,0:0:0:0:
448,192,226692,128,0,226861:0:0:0:0:
64,192,226861,1,0,0:0:0:0:
192,192,227029,1,0,0:0:0:0:
320,192,227029,1,0,0:0:0:0:
448,192,227029,1,0,0:0:0:0:
64,192,227114,1,0,0:0:0:0:
448,192,227198,1,0,0:0:0:0:
320,192,227282,1,0,0:0:0:0:
192,192,227366,1,0,0:0:0:0:
448,192,227451,1,0,0:0:0:0:
64,192,227535,1,0,0:0:0:0:
320,192,227535,1,0,0:0:0:0:
192,192,227703,1,0,0:0:0:0:
320,192,227703,1,0,0:0:0:0:
448,192,227703,1,0,0:0:0:0:
64,192,227872,1,0,0:0:0:0:
448,192,227956,1,0,0:0:0:0:
192,192,228041,1,0,0:0:0:0:
320,192,228041,1,0,0:0:0:0:
64,192,228209,1,0,0:0:0:0:
320,192,228378,1,0,0:0:0:0:
192,192,228378,1,0,0:0:0:0:
64,192,228378,1,0,0:0:0:0:
448,192,228546,1,0,0:0:0:0:
64,192,228630,1,0,0:0:0:0:
320,192,228715,1,0,0:0:0:0:
192,192,228799,1,0,0:0:0:0:
320,192,228883,1,0,0:0:0:0:
448,192,228883,1,0,0:0:0:0:
64,192,229052,1,0,0:0:0:0:
192,192,229052,1,0,0:0:0:0:
320,192,229052,1,0,0:0:0:0:
448,192,229136,1,0,0:0:0:0:
320,192,229220,1,0,0:0:0:0:
192,192,229305,1,0,0:0:0:0:
320,192,229389,1,0,0:0:0:0:
448,192,229389,1,0,0:0:0:0:
64,192,229389,128,0,229557:0:0:0:0:
192,192,229557,1,0,0:0:0:0:
320,192,229726,1,0,0:0:0:0:
448,192,229726,1,0,0:0:0:0:
64,192,229726,1,0,0:0:0:0:
192,192,229810,1,0,0:0:0:0:
64,192,229894,1,0,0:0:0:0:
448,192,229894,1,0,0:0:0:0:
320,192,229979,1,0,0:0:0:0:
192,192,230063,1,0,0:0:0:0:
64,192,230063,1,0,0:0:0:0:
192,192,230232,1,0,0:0:0:0:
320,192,230232,1,0,0:0:0:0:
320,192,230400,1,0,0:0:0:0:
448,192,230400,1,0,0:0:0:0:
64,192,230400,1,0,0:0:0:0:
192,192,230484,1,0,0:0:0:0:
320,192,230569,1,0,0:0:0:0:
448,192,230569,1,0,0:0:0:0:
64,192,230653,1,0,0:0:0:0:
192,192,230737,1,0,0:0:0:0:
448,192,230737,1,0,0:0:0:0:
320,192,230906,128,0,231074:0:0:0:0:
64,192,231074,1,0,0:0:0:0:
448,192,231074,1,0,0:0:0:0:
192,192,231074,1,0,0:0:0:0:
192,192,231243,1,0,0:0:0:0:
448,192,231327,1,0,0:0:0:0:
64,192,231411,1,0,0:0:0:0:
320,192,231496,1,0,0:0:0:0:
192,192,231580,1,0,0:0:0:0:
64,192,231580,1,0,0:0:0:0:
448,192,231664,1,0,0:0:0:0:
192,192,231748,1,0,0:0:0:0:
320,192,231748,1,0,0:0:0:0:
64,192,231748,1,0,0:0:0:0:
448,192,231833,1,0,0:0:0:0:
64,192,231917,1,0,0:0:0:0:
320,192,232001,1,0,0:0:0:0:
192,192,232085,1,0,0:0:0:0:
64,192,232085,1,0,0:0:0:0:
448,192,232254,1,0,0:0:0:0:
64,192,232338,1,0,0:0:0:0:
192,192,232423,1,0,0:0:0:0:
320,192,232423,1,0,0:0:0:0:
448,192,232423,1,0,0:0:0:0:
64,192,232591,1,0,0:0:0:0:
448,192,232675,1,0,0:0:0:0:
192,192,232760,1,0,0:0:0:0:
320,192,232844,1,0,0:0:0:0:
448,192,232928,1,0,0:0:0:0:
64,192,232928,1,0,0:0:0:0:
320,192,233097,1,0,0:0:0:0:
64,192,233097,1,0,0:0:0:0:
448,192,233097,1,0,0:0:0:0:
192,192,233265,1,0,0:0:0:0:
64,192,233350,1,0,0:0:0:0:
448,192,233434,1,0,0:0:0:0:
320,192,233434,1,0,0:0:0:0:
192,192,233602,128,0,233771:0:0:0:0:
320,192,233771,1,0,0:0:0:0:
64,192,233771,1,0,0:0:0:0:
448,192,233939,1,0,0:0:0:0:
320,192,234024,1,0,0:0:0:0:
64,192,234024,1,0,0:0:0:0:
192,192,234108,1,0,0:0:0:0:
64,192,234192,1,0,0:0:0:0:
448,192,234192,1,0,0:0:0:0:
192,192,234276,1,0,0:0:0:0:
320,192,234276,1,0,0:0:0:0:
64,192,234445,1,0,0:0:0:0:
448,192,234445,1,0,0:0:0:0:
320,192,234445,1,0,0:0:0:0:
192,192,234614,1,0,0:0:0:0:
64,192,234698,1,0,0:0:0:0:
320,192,234782,1,0,0:0:0:0:
448,192,234782,1,0,0:0:0:0:
192,192,234782,1,0,0:0:0:0:
64,192,234951,128,0,235119:0:0:0:0:
192,192,235035,1,0,0:0:0:0:
320,192,235119,1,0,0:0:0:0:
448,192,235119,1,0,0:0:0:0:
192,192,235203,1,0,0:0:0:0:
64,192,235288,1,0,0:0:0:0:
192,192,235372,1,0,0:0:0:0:
320,192,235456,1,0,0:0:0:0:
64,192,235541,1,0,0:0:0:0:
320,192,235625,1,0,0:0:0:0:
448,192,235625,1,0,0:0:0:0:
192,192,235709,1,0,0:0:0:0:
64,192,235793,1,0,0:0:0:0:
448,192,235793,1,0,0:0:0:0:
320,192,235878,1,0,0:0:0:0:
192,192,235962,1,0,0:0:0:0:
320,192,236046,1,0,0:0:0:0:
448,192,236130,1,0,0:0:0:0:
64,192,236130,1,0,0:0:0:0:
192,192,236215,1,0,0:0:0:0:
320,192,236299,1,0,0:0:0:0:
448,192,236383,1,0,0:0:0:0:
320,192,236467,1,0,0:0:0:0:
192,192,236467,1,0,0:0:0:0:
64,192,236467,1,0,0:0:0:0:
448,192,236552,1,0,0:0:0:0:
64,192,236636,1,0,0:0:0:0:
192,192,236720,1,0,0:0:0:0:
64,192,236805,1,0,0:0:0:0:
448,192,236889,1,0,0:0:0:0:
320,192,236973,1,0,0:0:0:0:
192,192,236973,1,0,0:0:0:0:
64,192,237057,1,0,0:0:0:0:
192,192,237142,1,0,0:0:0:0:
320,192,237142,1,0,0:0:0:0:
448,192,237142,1,0,0:0:0:0:
64,192,237226,1,0,0:0:0:0:
448,192,237310,1,0,0:0:0:0:
320,192,237394,1,0,0:0:0:0:
192,192,237479,1,0,0:0:0:0:
64,192,237479,1,0,0:0:0:0:
320,192,237647,1,0,0:0:0:0:
448,192,237732,1,0,0:0:0:0:
64,192,237816,1,0,0:0:0:0:
192,192,237816,1,0,0:0:0:0:
320,192,237816,1,0,0:0:0:0:
448,192,237984,1,0,0:0:0:0:
320,192,238069,1,0,0:0:0:0:
192,192,238153,1,0,0:0:0:0:
320,192,238237,1,0,0:0:0:0:
448,192,238321,1,0,0:0:0:0:
64,192,238321,1,0,0:0:0:0:
192,192,238406,1,0,0:0:0:0:
320,192,238490,1,0,0:0:0:0:
448,192,238490,1,0,0:0:0:0:
64,192,238574,1,0,0:0:0:0:
192,192,238658,1,0,0:0:0:0:
320,192,238743,1,0,0:0:0:0:
448,192,238827,1,0,0:0:0:0:
64,192,238827,1,0,0:0:0:0:
192,192,238996,128,0,239164:0:0:0:0:
64,192,239164,1,0,0:0:0:0:
320,192,239164,1,0,0:0:0:0:
448,192,239164,1,0,0:0:0:0:
192,192,239333,1,0,0:0:0:0:
320,192,239417,1,0,0:0:0:0:
448,192,239501,1,0,0:0:0:0:
64,192,239501,1,0,0:0:0:0:
192,192,239585,1,0,0:0:0:0:
320,192,239670,1,0,0:0:0:0:
448,192,239670,1,0,0:0:0:0:
192,192,239838,1,0,0:0:0:0:
320,192,239838,1,0,0:0:0:0:
64,192,239838,128,0,240007:0:0:0:0:
448,192,240007,128,0,240175:0:0:0:0:
64,192,240175,1,0,0:0:0:0:
192,192,240175,1,0,0:0:0:0:
320,192,240260,1,0,0:0:0:0:
192,192,240344,1,0,0:0:0:0:
64,192,240428,1,0,0:0:0:0:
192,192,240512,1,0,0:0:0:0:
448,192,240512,1,0,0:0:0:0:
320,192,240512,1,0,0:0:0:0:
320,192,240681,1,0,0:0:0:0:
448,192,240765,1,0,0:0:0:0:
64,192,240850,1,0,0:0:0:0:
320,192,240934,1,0,0:0:0:0:
192,192,241018,1,0,0:0:0:0:
64,192,241018,1,0,0:0:0:0:
192,192,241187,1,0,0:0:0:0:
320,192,241187,1,0,0:0:0:0:
448,192,241187,1,0,0:0:0:0:
64,192,241355,1,0,0:0:0:0:
320,192,241524,1,0,0:0:0:0:
448,192,241524,1,0,0:0:0:0:
192,192,241608,1,0,0:0:0:0:
64,192,241692,1,0,0:0:0:0:
448,192,241776,1,0,0:0:0:0:
192,192,241861,1,0,0:0:0:0:
320,192,241861,1,0,0:0:0:0:
64,192,241861,1,0,0:0:0:0:
192,192,242029,1,0,0:0:0:0:
448,192,242114,1,0,0:0:0:0:
320,192,242198,1,0,0:0:0:0:
192,192,242282,1,0,0:0:0:0:
64,192,242366,1,0,0:0:0:0:
448,192,242366,1,0,0:0:0:0:
192,192,242535,1,0,0:0:0:0:
320,192,242535,1,0,0:0:0:0:
448,192,242535,1,0,0:0:0:0:
64,192,242703,1,0,0:0:0:0:
320,192,242872,1,0,0:0:0:0:
448,192,242872,128,0,243041:0:0:0:0:
192,192,242956,1,0,0:0:0:0:
64,192,243041,1,0,0:0:0:0:
192,192,243125,1,0,0:0:0:0:
320,192,243209,1,0,0:0:0:0:
448,192,243209,1,0,0:0:0:0:
192,192,243378,1,0,0:0:0:0:
448,192,243462,1,0,0:0:0:0:
64,192,243546,1,0,0:0:0:0:
192,192,243630,1,0,0:0:0:0:
320,192,243715,1,0,0:0:0:0:
448,192,243715,1,0,0:0:0:0:
64,192,243883,1,0,0:0:0:0:
192,192,243883,1,0,0:0:0:0:
448,192,243883,1,0,0:0:0:0:
320,192,244052,1,0,0:0:0:0:
192,192,244220,1,0,0:0:0:0:
448,192,244220,1,0,0:0:0:0:
64,192,244305,1,0,0:0:0:0:
320,192,244389,128,0,244557:0:0:0:0:
192,192,244389,1,0,0:0:0:0:
448,192,244473,1,0,0:0:0:0:
64,192,244557,128,0,244726:0:0:0:0:
192,192,244557,1,0,0:0:0:0:
192,192,244726,1,0,0:0:0:0:
320,192,244810,1,0,0:0:0:0:
448,192,244894,1,0,0:0:0:0:
192,192,244894,128,0,245232:0:0:0:0:
64,192,244979,1,0,0:0:0:0:
320,192,245063,1,0,0:0:0:0:
448,192,245063,1,0,0:0:0:0:
64,192,245232,1,0,0:0:0:0:
320,192,245232,1,0,0:0:0:0:
448,192,245400,1,0,0:0:0:0:
192,192,245569,1,0,0:0:0:0:
64,192,245569,1,0,0:0:0:0:
320,192,245653,1,0,0:0:0:0:
448,192,245737,1,0,0:0:0:0:
192,192,245821,1,0,0:0:0:0:
320,192,245906,1,0,0:0:0:0:
448,192,245906,1,0,0:0:0:0:
192,192,246074,1,0,0:0:0:0:
64,192,246158,1,0,0:0:0:0:
448,192,246243,1,0,0:0:0:0:
320,192,246327,1,0,0:0:0:0:
192,192,246411,1,0,0:0:0:0:
64,192,246411,1,0,0:0:0:0:
192,192,246580,1,0,0:0:0:0:
320,192,246580,1,0,0:0:0:0:
448,192,246580,1,0,0:0:0:0:
64,192,246748,1,0,0:0:0:0:
320,192,246917,1,0,0:0:0:0:
448,192,246917,1,0,0:0:0:0:
64,192,247001,1,0,0:0:0:0:
192,192,247085,1,0,0:0:0:0:
448,192,247170,1,0,0:0:0:0:
64,192,247254,1,0,0:0:0:0:
320,192,247254,1,0,0:0:0:0:
192,192,247423,1,0,0:0:0:0:
320,192,247507,1,0,0:0:0:0:
192,192,247591,1,0,0:0:0:0:
320,192,247675,1,0,0:0:0:0:
448,192,247760,1,0,0:0:0:0:
64,192,247760,1,0,0:0:0:0:
64,192,247928,1,0,0:0:0:0:
192,192,247928,1,0,0:0:0:0:
320,192,247928,1,0,0:0:0:0:
320,192,248097,1,0,0:0:0:0:
448,192,248265,128,0,248434:0:0:0:0:
192,192,248265,1,0,0:0:0:0:
320,192,248350,1,0,0:0:0:0:
64,192,248434,1,0,0:0:0:0:
192,192,248518,1,0,0:0:0:0:
320,192,248602,1,0,0:0:0:0:
448,192,248602,1,0,0:0:0:0:
64,192,248602,1,0,0:0:0:0:
192,192,248771,1,0,0:0:0:0:
320,192,248855,1,0,0:0:0:0:
192,192,248939,1,0,0:0:0:0:
448,192,249024,1,0,0:0:0:0:
64,192,249108,1,0,0:0:0:0:
320,192,249108,1,0,0:0:0:0:
192,192,249276,1,0,0:0:0:0:
320,192,249276,1,0,0:0:0:0:
448,192,249276,1,0,0:0:0:0:
64,192,249445,1,0,0:0:0:0:
192,192,249614,1,0,0:0:0:0:
320,192,249614,1,0,0:0:0:0:
64,192,249782,128,0,249951:0:0:0:0:
448,192,249951,128,0,250288:0:0:0:0:
64,192,250288,128,0,250625:0:0:0:0:
192,192,250625,128,0,250962:0:0:0:0:
320,192,250962,1,0,0:0:0:0:
448,192,250962,1,0,0:0:0:0:
64,192,251046,1,0,0:0:0:0:
320,192,251130,1,0,0:0:0:0:
64,192,251215,1,0,0:0:0:0:
192,192,251299,1,0,0:0:0:0:
448,192,251299,1,0,0:0:0:0:
320,192,251467,1,0,0:0:0:0:
192,192,251552,1,0,0:0:0:0:
64,192,251636,1,0,0:0:0:0:
448,192,251720,1,0,0:0:0:0:
320,192,251805,1,0,0:0:0:0:
192,192,251805,1,0,0:0:0:0:
64,192,251973,1,0,0:0:0:0:
192,192,251973,1,0,0:0:0:0:
448,192,251973,1,0,0:0:0:0:
320,192,252142,1,0,0:0:0:0:
64,192,252310,1,0,0:0:0:0:
448,192,252310,1,0,0:0:0:0:
192,192,252394,1,0,0:0:0:0:
320,192,252479,1,0,0:0:0:0:
192,192,252563,1,0,0:0:0:0:
448,192,252647,1,0,0:0:0:0:
64,192,252647,1,0,0:0:0:0:
320,192,252647,1,0,0:0:0:0:
192,192,252816,1,0,0:0:0:0:
64,192,252900,1,0,0:0:0:0:
320,192,252984,1,0,0:0:0:0:
64,192,253069,1,0,0:0:0:0:
192,192,253153,1,0,0:0:0:0:
448,192,253153,1,0,0:0:0:0:
320,192,253321,1,0,0:0:0:0:
192,192,253321,1,0,0:0:0:0:
64,192,253321,1,0,0:0:0:0:
448,192,253490,1,0,0:0:0:0:
192,192,253658,1,0,0:0:0:0:
64,192,253658,128,0,253827:0:0:0:0:
320,192,253743,1,0,0:0:0:0:
448,192,253827,1,0,0:0:0:0:
192,192,253911,1,0,0:0:0:0:
64,192,253996,1,0,0:0:0:0:
448,192,253996,1,0,0:0:0:0:
320,192,254164,1,0,0:0:0:0:
192,192,254248,1,0,0:0:0:0:
64,192,254333,1,0,0:0:0:0:
448,192,254417,1,0,0:0:0:0:
320,192,254501,1,0,0:0:0:0:
192,192,254501,1,0,0:0:0:0:
64,192,254670,1,0,0:0:0:0:
192,192,254670,1,0,0:0:0:0:
448,192,254670,1,0,0:0:0:0:
320,192,254838,1,0,0:0:0:0:
64,192,255007,1,0,0:0:0:0:
448,192,255007,1,0,0:0:0:0:
320,192,255091,1,0,0:0:0:0:
64,192,255175,128,0,255681:0:0:0:0:
192,192,255175,1,0,0:0:0:0:
320,192,255344,1,0,0:0:0:0:
448,192,255344,1,0,0:0:0:0:
192,192,255512,1,0,0:0:0:0:
320,192,255597,1,0,0:0:0:0:
448,192,255681,1,0,0:0:0:0:
192,192,255681,128,0,256018:0:0:0:0:
320,192,255765,1,0,0:0:0:0:
64,192,255850,1,0,0:0:0:0:
448,192,255934,1,0,0:0:0:0:
320,192,256018,1,0,0:0:0:0:
64,192,256102,1,0,0:0:0:0:
192,192,256187,1,0,0:0:0:0:
448,192,256187,1,0,0:0:0:0:
320,192,256271,1,0,0:0:0:0:
192,192,256355,1,0,0:0:0:0:
64,192,256355,1,0,0:0:0:0:
320,192,256439,1,0,0:0:0:0:
448,192,256524,1,0,0:0:0:0:
64,192,256608,1,0,0:0:0:0:
320,192,256692,1,0,0:0:0:0:
192,192,256692,1,0,0:0:0:0:
448,192,256692,1,0,0:0:0:0:
64,192,256861,1,0,0:0:0:0:
192,192,256945,1,0,0:0:0:0:
320,192,257029,1,0,0:0:0:0:
448,192,257114,1,0,0:0:0:0:
64,192,257198,1,0,0:0:0:0:
192,192,257198,1,0,0:0:0:0:
192,192,257366,1,0,0:0:0:0:
320,192,257366,1,0,0:0:0:0:
448,192,257366,1,0,0:0:0:0:
64,192,257535,1,0,0:0:0:0:
320,192,257703,1,0,0:0:0:0:
192,192,257703,1,0,0:0:0:0:
448,192,257788,1,0,0:0:0:0:
64,192,257872,1,0,0:0:0:0:
192,192,257956,1,0,0:0:0:0:
320,192,258041,1,0,0:0:0:0:
448,192,258041,1,0,0:0:0:0:
320,192,258209,1,0,0:0:0:0:
192,192,258293,1,0,0:0:0:0:
320,192,258378,1,0,0:0:0:0:
64,192,258462,1,0,0:0:0:0:
448,192,258546,1,0,0:0:0:0:
320,192,258546,1,0,0:0:0:0:
64,192,258715,1,0,0:0:0:0:
192,192,258715,1,0,0:0:0:0:
448,192,258715,1,0,0:0:0:0:
320,192,258883,1,0,0:0:0:0:
320,192,259052,1,0,0:0:0:0:
64,192,259052,128,0,259220:0:0:0:0:
448,192,259052,1,0,0:0:0:0:
192,192,259136,1,0,0:0:0:0:
320,192,259220,1,0,0:0:0:0:
448,192,259305,1,0,0:0:0:0:
64,192,259389,1,0,0:0:0:0:
192,192,259389,1,0,0:0:0:0:
320,192,259557,1,0,0:0:0:0:
448,192,259642,1,0,0:0:0:0:
192,192,259726,1,0,0:0:0:0:
64,192,259810,1,0,0:0:0:0:
320,192,259894,1,0,0:0:0:0:
448,192,259894,1,0,0:0:0:0:
64,192,260063,1,0,0:0:0:0:
192,192,260063,1,0,0:0:0:0:
448,192,260063,1,0,0:0:0:0:
320,192,260232,1,0,0:0:0:0:
448,192,260400,1,0,0:0:0:0:
320,192,260400,1,0,0:0:0:0:
64,192,260569,128,0,261074:0:0:0:0:
192,192,261074,128,0,261411:0:0:0:0:
320,192,261411,128,0,261748:0:0:0:0:
64,192,261748,1,0,0:0:0:0:
448,192,261748,1,0,0:0:0:0:
320,192,261917,1,0,0:0:0:0:
192,192,262085,1,0,0:0:0:0:
320,192,262085,1,0,0:0:0:0:
64,192,262085,1,0,0:0:0:0:
64,192,262254,1,0,0:0:0:0:
192,192,262338,1,0,0:0:0:0:
320,192,262423,1,0,0:0:0:0:
448,192,262507,1,0,0:0:0:0:
320,192,262591,1,0,0:0:0:0:
64,192,262591,1,0,0:0:0:0:
448,192,262760,1,0,0:0:0:0:
192,192,262760,1,0,0:0:0:0:
320,192,262760,1,0,0:0:0:0:
64,192,262928,1,0,0:0:0:0:
320,192,263097,1,0,0:0:0:0:
448,192,263097,1,0,0:0:0:0:
64,192,263181,1,0,0:0:0:0:
320,192,263265,1,0,0:0:0:0:
192,192,263350,1,0,0:0:0:0:
64,192,263434,1,0,0:0:0:0:
448,192,263434,1,0,0:0:0:0:
320,192,263518,1,0,0:0:0:0:
192,192,263602,1,0,0:0:0:0:
64,192,263602,1,0,0:0:0:0:
448,192,263687,1,0,0:0:0:0:
192,192,263771,1,0,0:0:0:0:
320,192,263855,1,0,0:0:0:0:
64,192,263939,1,0,0:0:0:0:
192,192,263939,1,0,0:0:0:0:
448,192,264108,1,0,0:0:0:0:
320,192,264108,1,0,0:0:0:0:
192,192,264108,1,0,0:0:0:0:
448,192,264276,1,0,0:0:0:0:
320,192,264361,1,0,0:0:0:0:
192,192,264445,1,0,0:0:0:0:
64,192,264445,1,0,0:0:0:0:
448,192,264529,1,0,0:0:0:0:
64,192,264614,1,0,0:0:0:0:
320,192,264698,1,0,0:0:0:0:
192,192,264782,1,0,0:0:0:0:
448,192,264782,1,0,0:0:0:0:
64,192,264866,1,0,0:0:0:0:
320,192,264951,1,0,0:0:0:0:
192,192,265035,1,0,0:0:0:0:
448,192,265119,1,0,0:0:0:0:
320,192,265203,1,0,0:0:0:0:
192,192,265288,1,0,0:0:0:0:
64,192,265288,1,0,0:0:0:0:
448,192,265372,1,0,0:0:0:0:
320,192,265456,1,0,0:0:0:0:
64,192,265456,1,0,0:0:0:0:
192,192,265541,1,0,0:0:0:0:
320,192,265625,1,0,0:0:0:0:
448,192,265709,1,0,0:0:0:0:
320,192,265793,1,0,0:0:0:0:
64,192,265793,1,0,0:0:0:0:
192,192,265793,1,0,0:0:0:0:
320,192,265962,1,0,0:0:0:0:
192,192,266046,1,0,0:0:0:0:
64,192,266130,1,0,0:0:0:0:
448,192,266130,1,0,0:0:0:0:
320,192,266215,1,0,0:0:0:0:
192,192,266299,1,0,0:0:0:0:
64,192,266299,1,0,0:0:0:0:
448,192,266383,1,0,0:0:0:0:
64,192,266467,1,0,0:0:0:0:
320,192,266552,1,0,0:0:0:0:
192,192,266636,1,0,0:0:0:0:
448,192,266636,1,0,0:0:0:0:
64,192,266720,1,0,0:0:0:0:
320,192,266805,1,0,0:0:0:0:
448,192,266805,1,0,0:0:0:0:
192,192,266805,1,0,0:0:0:0:
192,192,266973,1,0,0:0:0:0:
448,192,267142,1,0,0:0:0:0:
320,192,267142,1,0,0:0:0:0:
64,192,267142,1,0,0:0:0:0:
320,192,267310,1,0,0:0:0:0:
192,192,267479,1,0,0:0:0:0:
64,192,267479,1,0,0:0:0:0:
448,192,267479,1,0,0:0:0:0:
64,192,267647,1,0,0:0:0:0:
448,192,267732,1,0,0:0:0:0:
192,192,267816,1,0,0:0:0:0:
320,192,267900,1,0,0:0:0:0:
192,192,267984,1,0,0:0:0:0:
64,192,267984,1,0,0:0:0:0:
320,192,268153,1,0,0:0:0:0:
64,192,268153,1,0,0:0:0:0:
448,192,268153,1,0,0:0:0:0:
192,192,268321,1,0,0:0:0:0:
64,192,268406,1,0,0:0:0:0:
192,192,268490,1,0,0:0:0:0:
448,192,268490,1,0,0:0:0:0:
320,192,268658,1,0,0:0:0:0:
448,192,268743,1,0,0:0:0:0:
320,192,268827,1,0,0:0:0:0:
64,192,268827,1,0,0:0:0:0:
192,192,268911,1,0,0:0:0:0:
320,192,268996,1,0,0:0:0:0:
448,192,268996,1,0,0:0:0:0:
64,192,269080,1,0,0:0:0:0:
448,192,269164,1,0,0:0:0:0:
192,192,269248,1,0,0:0:0:0:
320,192,269333,1,0,0:0:0:0:
448,192,269333,1,0,0:0:0:0:
64,192,269417,1,0,0:0:0:0:
192,192,269501,1,0,0:0:0:0:
448,192,269501,1,0,0:0:0:0:
320,192,269585,1,0,0:0:0:0:
192,192,269670,1,0,0:0:0:0:
64,192,269754,1,0,0:0:0:0:
448,192,269838,1,0,0:0:0:0:
320,192,269838,128,0,270007:0:0:0:0:
192,192,269923,1,0,0:0:0:0:
64,192,270007,1,0,0:0:0:0:
448,192,270091,1,0,0:0:0:0:
320,192,270175,1,0,0:0:0:0:
64,192,270175,1,0,0:0:0:0:
192,192,270260,1,0,0:0:0:0:
320,192,270344,1,0,0:0:0:0:
448,192,270428,1,0,0:0:0:0:
320,192,270512,1,0,0:0:0:0:
64,192,270597,1,0,0:0:0:0:
448,192,270681,1,0,0:0:0:0:
192,192,270681,1,0,0:0:0:0:
320,192,270765,1,0,0:0:0:0:
192,192,270850,1,0,0:0:0:0:
64,192,270850,1,0,0:0:0:0:
320,192,270934,1,0,0:0:0:0:
448,192,271018,1,0,0:0:0:0:
64,192,271102,1,0,0:0:0:0:
192,192,271187,1,0,0:0:0:0:
320,192,271187,1,0,0:0:0:0:
448,192,271271,1,0,0:0:0:0:
64,192,271355,1,0,0:0:0:0:
320,192,271439,1,0,0:0:0:0:
64,192,271524,1,0,0:0:0:0:
192,192,271566,1,0,0:0:0:0:
448,192,271608,1,0,0:0:0:0:
320,192,271650,1,0,0:0:0:0:
64,192,271692,1,0,0:0:0:0:
192,192,271734,1,0,0:0:0:0:
448,192,271776,1,0,0:0:0:0:
320,192,271819,1,0,0:0:0:0:
64,192,271861,1,0,0:0:0:0:
192,192,271903,1,0,0:0:0:0:
448,192,271945,1,0,0:0:0:0:
320,192,271987,1,0,0:0:0:0:
64,192,272029,1,0,0:0:0:0:
192,192,272071,1,0,0:0:0:0:
320,192,272114,1,0,0:0:0:0:
448,192,272156,1,0,0:0:0:0:
64,192,272198,1,0,0:0:0:0:
192,192,272240,1,0,0:0:0:0:
320,192,272282,1,0,0:0:0:0:
448,192,272324,1,0,0:0:0:0:
64,192,272366,1,0,0:0:0:0:
192,192,272408,1,0,0:0:0:0:
320,192,272451,1,0,0:0:0:0:
448,192,272493,1,0,0:0:0:0:
192,192,272535,1,0,0:0:0:0:
64,192,272535,1,0,0:0:0:0:
64,192,272703,1,0,0:0:0:0:
320,192,272872,1,0,0:0:0:0:
192,192,272872,1,0,0:0:0:0:
448,192,272872,1,0,0:0:0:0:
448,192,273041,1,0,0:0:0:0:
320,192,273125,1,0,0:0:0:0:
64,192,273209,1,0,0:0:0:0:
192,192,273293,1,0,0:0:0:0:
64,192,273378,1,0,0:0:0:0:
448,192,273378,1,0,0:0:0:0:
320,192,273378,128,0,273546:0:0:0:0:
64,192,273546,1,0,0:0:0:0:
192,192,273546,1,0,0:0:0:0:
448,192,273715,1,0,0:0:0:0:
192,192,273883,1,0,0:0:0:0:
64,192,273883,1,0,0:0:0:0:
192,192,274052,1,0,0:0:0:0:
320,192,274136,1,0,0:0:0:0:
448,192,274220,1,0,0:0:0:0:
64,192,274220,1,0,0:0:0:0:
192,192,274305,1,0,0:0:0:0:
320,192,274389,1,0,0:0:0:0:
448,192,274389,128,0,274557:0:0:0:0:
64,192,274473,1,0,0:0:0:0:
320,192,274557,1,0,0:0:0:0:
192,192,274642,1,0,0:0:0:0:
448,192,274726,1,0,0:0:0:0:
320,192,274726,128,0,274894:0:0:0:0:
64,192,274894,1,0,0:0:0:0:
192,192,274894,1,0,0:0:0:0:
448,192,274979,1,0,0:0:0:0:
64,192,275063,1,0,0:0:0:0:
192,192,275147,1,0,0:0:0:0:
320,192,275232,1,0,0:0:0:0:
448,192,275232,1,0,0:0:0:0:
64,192,275316,1,0,0:0:0:0:
448,192,275400,1,0,0:0:0:0:
192,192,275484,1,0,0:0:0:0:
320,192,275569,1,0,0:0:0:0:
64,192,275569,1,0,0:0:0:0:
448,192,275653,1,0,0:0:0:0:
192,192,275737,1,0,0:0:0:0:
320,192,275821,1,0,0:0:0:0:
64,192,275906,1,0,0:0:0:0:
192,192,275990,1,0,0:0:0:0:
320,192,276074,1,0,0:0:0:0:
448,192,276074,1,0,0:0:0:0:
64,192,276158,1,0,0:0:0:0:
192,192,276243,1,0,0:0:0:0:
448,192,276243,1,0,0:0:0:0:
320,192,276327,1,0,0:0:0:0:
192,192,276411,1,0,0:0:0:0:
64,192,276496,1,0,0:0:0:0:
192,192,276580,1,0,0:0:0:0:
448,192,276580,1,0,0:0:0:0:
320,192,276580,1,0,0:0:0:0:
64,192,276664,1,0,0:0:0:0:
192,192,276748,1,0,0:0:0:0:
320,192,276833,1,0,0:0:0:0:
448,192,276917,1,0,0:0:0:0:
64,192,276917,1,0,0:0:0:0:
192,192,276917,1,0,0:0:0:0:
320,192,277085,1,0,0:0:0:0:
448,192,277085,1,0,0:0:0:0:
64,192,277170,1,0,0:0:0:0:
448,192,277254,1,0,0:0:0:0:
192,192,277338,1,0,0:0:0:0:
320,192,277423,1,0,0:0:0:0:
64,192,277423,1,0,0:0:0:0:
448,192,277507,1,0,0:0:0:0:
192,192,277591,1,0,0:0:0:0:
64,192,277591,1,0,0:0:0:0:
320,192,277591,1,0,0:0:0:0:
448,192,277760,1,0,0:0:0:0:
192,192,277760,1,0,0:0:0:0:
192,192,277928,1,0,0:0:0:0:
320,192,277928,1,0,0:0:0:0:
320,192,278097,1,0,0:0:0:0:
320,192,278265,1,0,0:0:0:0:
448,192,278265,1,0,0:0:0:0:
64,192,278265,1,0,0:0:0:0:
448,192,278434,1,0,0:0:0:0:
64,192,278518,1,0,0:0:0:0:
320,192,278602,1,0,0:0:0:0:
192,192,278687,1,0,0:0:0:0:
320,192,278771,1,0,0:0:0:0:
448,192,278771,1,0,0:0:0:0:
64,192,278855,1,0,0:0:0:0:
192,192,278939,1,0,0:0:0:0:
448,192,278939,1,0,0:0:0:0:
320,192,278939,1,0,0:0:0:0:
320,192,279108,1,0,0:0:0:0:
448,192,279192,1,0,0:0:0:0:
320,192,279276,1,0,0:0:0:0:
64,192,279276,1,0,0:0:0:0:
192,192,279445,1,0,0:0:0:0:
64,192,279529,1,0,0:0:0:0:
192,192,279614,1,0,0:0:0:0:
448,192,279614,1,0,0:0:0:0:
320,192,279698,1,0,0:0:0:0:
192,192,279782,1,0,0:0:0:0:
64,192,279782,1,0,0:0:0:0:
448,192,279866,1,0,0:0:0:0:
64,192,279951,1,0,0:0:0:0:
320,192,280035,1,0,0:0:0:0:
192,192,280119,1,0,0:0:0:0:
64,192,280119,1,0,0:0:0:0:
448,192,280203,1,0,0:0:0:0:
320,192,280288,1,0,0:0:0:0:
64,192,280288,1,0,0:0:0:0:
192,192,280372,1,0,0:0:0:0:
320,192,280456,1,0,0:0:0:0:
448,192,280541,1,0,0:0:0:0:
64,192,280625,1,0,0:0:0:0:
192,192,280625,128,0,280793:0:0:0:0:
320,192,280709,1,0,0:0:0:0:
448,192,280793,1,0,0:0:0:0:
64,192,280878,1,0,0:0:0:0:
192,192,280962,1,0,0:0:0:0:
448,192,280962,1,0,0:0:0:0:
320,192,281046,1,0,0:0:0:0:
192,192,281130,1,0,0:0:0:0:
64,192,281215,1,0,0:0:0:0:
192,192,281299,1,0,0:0:0:0:
448,192,281383,1,0,0:0:0:0:
64,192,281467,1,0,0:0:0:0:
320,192,281467,1,0,0:0:0:0:
192,192,281552,1,0,0:0:0:0:
320,192,281636,1,0,0:0:0:0:
448,192,281636,1,0,0:0:0:0:
192,192,281720,1,0,0:0:0:0:
64,192,281805,1,0,0:0:0:0:
448,192,281889,1,0,0:0:0:0:
320,192,281973,1,0,0:0:0:0:
192,192,281973,1,0,0:0:0:0:
64,192,282057,1,0,0:0:0:0:
448,192,282142,1,0,0:0:0:0:
192,192,282226,1,0,0:0:0:0:
448,192,282310,1,0,0:0:0:0:
320,192,282352,1,0,0:0:0:0:
64,192,282394,1,0,0:0:0:0:
192,192,282437,1,0,0:0:0:0:
448,192,282479,1,0,0:0:0:0:
320,192,282521,1,0,0:0:0:0:
64,192,282563,1,0,0:0:0:0:
192,192,282605,1,0,0:0:0:0:
448,192,282647,1,0,0:0:0:0:
320,192,282689,1,0,0:0:0:0:
64,192,282732,1,0,0:0:0:0:
192,192,282774,1,0,0:0:0:0:
448,192,282816,1,0,0:0:0:0:
320,192,282816,128,0,284333:0:0:0:0:
448,192,284333,128,0,284417:0:0:0:0:
64,192,284333,128,0,284417:0:0:0:0:
448,192,284670,1,0,0:0:0:0:
320,192,284670,1,0,0:0:0:0:
64,192,284670,1,0,0:0:0:0:
192,192,284838,1,0,0:0:0:0:
320,192,284923,1,0,0:0:0:0:
448,192,285007,1,0,0:0:0:0:
64,192,285007,1,0,0:0:0:0:
192,192,285007,1,0,0:0:0:0:
320,192,285175,1,0,0:0:0:0:
192,192,285260,1,0,0:0:0:0:
64,192,285344,1,0,0:0:0:0:
448,192,285428,1,0,0:0:0:0:
320,192,285512,1,0,0:0:0:0:
192,192,285512,1,0,0:0:0:0:
192,192,285681,1,0,0:0:0:0:
64,192,285681,1,0,0:0:0:0:
448,192,285681,1,0,0:0:0:0:
320,192,285850,1,0,0:0:0:0:
448,192,285934,1,0,0:0:0:0:
192,192,286018,1,0,0:0:0:0:
64,192,286018,1,0,0:0:0:0:
320,192,286187,1,0,0:0:0:0:
192,192,286271,1,0,0:0:0:0:
64,192,286355,1,0,0:0:0:0:
448,192,286355,1,0,0:0:0:0:
320,192,286355,1,0,0:0:0:0:
192,192,286524,1,0,0:0:0:0:
64,192,286608,1,0,0:0:0:0:
448,192,286692,1,0,0:0:0:0:
192,192,286776,1,0,0:0:0:0:
320,192,286861,1,0,0:0:0:0:
448,192,286861,1,0,0:0:0:0:
320,192,287029,1,0,0:0:0:0:
192,192,287029,1,0,0:0:0:0:
64,192,287029,1,0,0:0:0:0:
448,192,287198,1,0,0:0:0:0:
320,192,287282,1,0,0:0:0:0:
192,192,287366,1,0,0:0:0:0:
64,192,287366,128,0,287535:0:0:0:0:
448,192,287535,1,0,0:0:0:0:
320,192,287703,1,0,0:0:0:0:
64,192,287703,1,0,0:0:0:0:
192,192,287703,1,0,0:0:0:0:
448,192,287872,1,0,0:0:0:0:
64,192,287956,1,0,0:0:0:0:
320,192,288041,1,0,0:0:0:0:
192,192,288125,1,0,0:0:0:0:
448,192,288209,1,0,0:0:0:0:
64,192,288209,1,0,0:0:0:0:
192,192,288378,1,0,0:0:0:0:
320,192,288378,1,0,0:0:0:0:
448,192,288378,1,0,0:0:0:0:
64,192,288546,1,0,0:0:0:0:
448,192,288630,1,0,0:0:0:0:
320,192,288715,1,0,0:0:0:0:
192,192,288715,1,0,0:0:0:0:
64,192,288883,1,0,0:0:0:0:
192,192,288967,1,0,0:0:0:0:
320,192,289052,1,0,0:0:0:0:
448,192,289052,1,0,0:0:0:0:
64,192,289052,1,0,0:0:0:0:
320,192,289220,1,0,0:0:0:0:
192,192,289305,1,0,0:0:0:0:
64,192,289389,1,0,0:0:0:0:
448,192,289473,1,0,0:0:0:0:
320,192,289557,1,0,0:0:0:0:
192,192,289557,1,0,0:0:0:0:
64,192,289557,128,0,289726:0:0:0:0:
448,192,289726,1,0,0:0:0:0:
320,192,289726,1,0,0:0:0:0:
192,192,289726,1,0,0:0:0:0:
64,192,289894,1,0,0:0:0:0:
192,192,289979,1,0,0:0:0:0:
320,192,290063,1,0,0:0:0:0:
448,192,290063,1,0,0:0:0:0:
192,192,290147,1,0,0:0:0:0:
64,192,290232,1,0,0:0:0:0:
448,192,290232,1,0,0:0:0:0:
320,192,290316,1,0,0:0:0:0:
192,192,290400,1,0,0:0:0:0:
64,192,290400,1,0,0:0:0:0:
320,192,290484,1,0,0:0:0:0:
448,192,290569,1,0,0:0:0:0:
64,192,290569,1,0,0:0:0:0:
192,192,290653,1,0,0:0:0:0:
320,192,290737,1,0,0:0:0:0:
448,192,290737,1,0,0:0:0:0:
192,192,290821,1,0,0:0:0:0:
64,192,290906,1,0,0:0:0:0:
448,192,290906,1,0,0:0:0:0:
320,192,290990,1,0,0:0:0:0:
192,192,291074,1,0,0:0:0:0:
64,192,291074,1,0,0:0:0:0:
320,192,291158,1,0,0:0:0:0:
448,192,291243,1,0,0:0:0:0:
64,192,291243,1,0,0:0:0:0:
192,192,291327,1,0,0:0:0:0:
448,192,291411,1,0,0:0:0:0:
320,192,291453,1,0,0:0:0:0:
192,192,291496,1,0,0:0:0:0:
64,192,291580,1,0,0:0:0:0:
320,192,291664,1,0,0:0:0:0:
64,192,291748,1,0,0:0:0:0:
192,192,291791,1,0,0:0:0:0:
320,192,291833,1,0,0:0:0:0:
448,192,291917,1,0,0:0:0:0:
192,192,292001,1,0,0:0:0:0:
448,192,292085,1,0,0:0:0:0:
192,192,292170,1,0,0:0:0:0:
320,192,292254,1,0,0:0:0:0:
64,192,292338,1,0,0:0:0:0:
448,192,292423,1,0,0:0:0:0:
320,192,292423,1,0,0:0:0:0:
192,192,292423,1,0,0:0:0:0:
64,192,292591,1,0,0:0:0:0:
192,192,292675,1,0,0:0:0:0:
320,192,292760,1,0,0:0:0:0:
448,192,292760,1,0,0:0:0:0:
320,192,292928,1,0,0:0:0:0:
448,192,293012,1,0,0:0:0:0:
320,192,293097,1,0,0:0:0:0:
192,192,293097,1,0,0:0:0:0:
64,192,293097,1,0,0:0:0:0:
192,192,293265,1,0,0:0:0:0:
320,192,293350,1,0,0:0:0:0:
448,192,293434,1,0,0:0:0:0:
320,192,293518,1,0,0:0:0:0:
192,192,293602,1,0,0:0:0:0:
64,192,293602,1,0,0:0:0:0:
448,192,293771,1,0,0:0:0:0:
320,192,293771,1,0,0:0:0:0:
192,192,293771,1,0,0:0:0:0:
64,192,293939,1,0,0:0:0:0:
192,192,294024,1,0,0:0:0:0:
320,192,294108,1,0,0:0:0:0:
448,192,294108,1,0,0:0:0:0:
192,192,294276,1,0,0:0:0:0:
64,192,294361,1,0,0:0:0:0:
320,192,294445,1,0,0:0:0:0:
192,192,294445,1,0,0:0:0:0:
448,192,294614,1,0,0:0:0:0:
320,192,294698,1,0,0:0:0:0:
192,192,294782,1,0,0:0:0:0:
64,192,294866,1,0,0:0:0:0:
448,192,294951,1,0,0:0:0:0:
192,192,294951,1,0,0:0:0:0:
320,192,295119,1,0,0:0:0:0:
192,192,295119,1,0,0:0:0:0:
64,192,295119,1,0,0:0:0:0:
448,192,295288,1,0,0:0:0:0:
320,192,295372,1,0,0:0:0:0:
192,192,295456,1,0,0:0:0:0:
64,192,295456,1,0,0:0:0:0:
320,192,295625,1,0,0:0:0:0:
192,192,295709,1,0,0:0:0:0:
64,192,295793,1,0,0:0:0:0:
448,192,295793,1,0,0:0:0:0:
320,192,295793,1,0,0:0:0:0:
192,192,295962,1,0,0:0:0:0:
320,192,296046,1,0,0:0:0:0:
448,192,296130,1,0,0:0:0:0:
64,192,296215,1,0,0:0:0:0:
192,192,296299,1,0,0:0:0:0:
320,192,296299,1,0,0:0:0:0:
320,192,296467,1,0,0:0:0:0:
448,192,296467,1,0,0:0:0:0:
64,192,296467,1,0,0:0:0:0:
192,192,296636,1,0,0:0:0:0:
64,192,296720,1,0,0:0:0:0:
320,192,296805,1,0,0:0:0:0:
448,192,296805,1,0,0:0:0:0:
192,192,296973,1,0,0:0:0:0:
320,192,297057,1,0,0:0:0:0:
448,192,297142,1,0,0:0:0:0:
64,192,297142,1,0,0:0:0:0:
192,192,297142,1,0,0:0:0:0:
320,192,297310,1,0,0:0:0:0:
448,192,297394,1,0,0:0:0:0:
64,192,297479,1,0,0:0:0:0:
320,192,297563,1,0,0:0:0:0:
192,192,297647,1,0,0:0:0:0:
64,192,297647,1,0,0:0:0:0:
192,192,297816,1,0,0:0:0:0:
320,192,297816,1,0,0:0:0:0:
448,192,297816,1,0,0:0:0:0:
64,192,297984,1,0,0:0:0:0:
192,192,298069,1,0,0:0:0:0:
320,192,298153,1,0,0:0:0:0:
448,192,298153,128,0,298321:0:0:0:0:
64,192,298321,1,0,0:0:0:0:
192,192,298490,1,0,0:0:0:0:
448,192,298490,1,0,0:0:0:0:
320,192,298490,1,0,0:0:0:0:
64,192,298658,1,0,0:0:0:0:
448,192,298743,1,0,0:0:0:0:
192,192,298827,1,0,0:0:0:0:
320,192,298911,1,0,0:0:0:0:
64,192,298996,1,0,0:0:0:0:
448,192,298996,1,0,0:0:0:0:
320,192,299164,1,0,0:0:0:0:
192,192,299164,1,0,0:0:0:0:
64,192,299164,1,0,0:0:0:0:
448,192,299333,1,0,0:0:0:0:
64,192,299417,1,0,0:0:0:0:
192,192,299501,1,0,0:0:0:0:
320,192,299501,1,0,0:0:0:0:
448,192,299670,1,0,0:0:0:0:
320,192,299754,1,0,0:0:0:0:
192,192,299838,1,0,0:0:0:0:
64,192,299838,1,0,0:0:0:0:
448,192,299838,1,0,0:0:0:0:
192,192,300007,1,0,0:0:0:0:
320,192,300091,1,0,0:0:0:0:
448,192,300175,1,0,0:0:0:0:
64,192,300260,1,0,0:0:0:0:
192,192,300344,1,0,0:0:0:0:
320,192,300344,1,0,0:0:0:0:
448,192,300344,128,0,300512:0:0:0:0:
64,192,300512,1,0,0:0:0:0:
192,192,300512,1,0,0:0:0:0:
320,192,300512,1,0,0:0:0:0:
448,192,300681,1,0,0:0:0:0:
320,192,300765,1,0,0:0:0:0:
192,192,300850,1,0,0:0:0:0:
64,192,300850,1,0,0:0:0:0:
320,192,300934,1,0,0:0:0:0:
448,192,301018,1,0,0:0:0:0:
64,192,301018,1,0,0:0:0:0:
192,192,301102,1,0,0:0:0:0:
320,192,301187,1,0,0:0:0:0:
448,192,301187,1,0,0:0:0:0:
192,192,301271,1,0,0:0:0:0:
64,192,301355,1,0,0:0:0:0:
448,192,301355,1,0,0:0:0:0:
320,192,301439,1,0,0:0:0:0:
192,192,301524,1,0,0:0:0:0:
64,192,301524,1,0,0:0:0:0:
320,192,301608,1,0,0:0:0:0:
448,192,301692,1,0,0:0:0:0:
64,192,301692,1,0,0:0:0:0:
192,192,301776,1,0,0:0:0:0:
320,192,301861,1,0,0:0:0:0:
448,192,301861,1,0,0:0:0:0:
192,192,301945,1,0,0:0:0:0:
64,192,302029,1,0,0:0:0:0:
448,192,302029,1,0,0:0:0:0:
320,192,302114,1,0,0:0:0:0:
64,192,302198,1,0,0:0:0:0:
192,192,302240,1,0,0:0:0:0:
448,192,302282,1,0,0:0:0:0:
320,192,302366,1,0,0:0:0:0:
64,192,302451,1,0,0:0:0:0:
448,192,302535,1,0,0:0:0:0:
320,192,302577,1,0,0:0:0:0:
64,192,302619,1,0,0:0:0:0:
192,192,302703,1,0,0:0:0:0:
448,192,302788,1,0,0:0:0:0:
64,192,302872,1,0,0:0:0:0:
320,192,302956,1,0,0:0:0:0:
192,192,303041,1,0,0:0:0:0:
448,192,303125,1,0,0:0:0:0:
64,192,303209,1,0,0:0:0:0:
192,192,303209,1,0,0:0:0:0:
320,192,303209,1,0,0:0:0:0:
448,192,303378,1,0,0:0:0:0:
320,192,303462,1,0,0:0:0:0:
192,192,303546,1,0,0:0:0:0:
64,192,303546,1,0,0:0:0:0:
192,192,303715,1,0,0:0:0:0:
64,192,303799,1,0,0:0:0:0:
192,192,303883,1,0,0:0:0:0:
320,192,303883,1,0,0:0:0:0:
448,192,303883,1,0,0:0:0:0:
320,192,304052,1,0,0:0:0:0:
192,192,304136,1,0,0:0:0:0:
64,192,304220,1,0,0:0:0:0:
192,192,304305,1,0,0:0:0:0:
320,192,304389,1,0,0:0:0:0:
448,192,304389,1,0,0:0:0:0:
64,192,304557,1,0,0:0:0:0:
192,192,304557,1,0,0:0:0:0:
320,192,304557,1,0,0:0:0:0:
448,192,304726,1,0,0:0:0:0:
320,192,304810,1,0,0:0:0:0:
192,192,304894,1,0,0:0:0:0:
64,192,304894,1,0,0:0:0:0:
320,192,305063,1,0,0:0:0:0:
448,192,305147,1,0,0:0:0:0:
192,192,305232,1,0,0:0:0:0:
320,192,305232,1,0,0:0:0:0:
64,192,305400,1,0,0:0:0:0:
192,192,305484,1,0,0:0:0:0:
320,192,305569,1,0,0:0:0:0:
448,192,305653,1,0,0:0:0:0:
64,192,305737,1,0,0:0:0:0:
320,192,305737,1,0,0:0:0:0:
320,192,305906,1,0,0:0:0:0:
448,192,305906,1,0,0:0:0:0:
64,192,306074,1,0,0:0:0:0:
448,192,306243,1,0,0:0:0:0:
320,192,306243,1,0,0:0:0:0:
192,192,306243,1,0,0:0:0:0:
64,192,306327,1,0,0:0:0:0:
320,192,306411,1,0,0:0:0:0:
448,192,306496,1,0,0:0:0:0:
64,192,306580,1,0,0:0:0:0:
192,192,306580,1,0,0:0:0:0:
320,192,306748,1,0,0:0:0:0:
448,192,306833,1,0,0:0:0:0:
64,192,306917,1,0,0:0:0:0:
320,192,307001,1,0,0:0:0:0:
192,192,307085,1,0,0:0:0:0:
64,192,307085,1,0,0:0:0:0:
192,192,307254,1,0,0:0:0:0:
320,192,307254,1,0,0:0:0:0:
448,192,307254,1,0,0:0:0:0:
64,192,307423,1,0,0:0:0:0:
320,192,307591,1,0,0:0:0:0:
448,192,307591,1,0,0:0:0:0:
192,192,307675,1,0,0:0:0:0:
64,192,307760,1,0,0:0:0:0:
448,192,307844,1,0,0:0:0:0:
192,192,307928,1,0,0:0:0:0:
320,192,307928,1,0,0:0:0:0:
64,192,307928,1,0,0:0:0:0:
192,192,308097,1,0,0:0:0:0:
448,192,308181,1,0,0:0:0:0:
320,192,308265,1,0,0:0:0:0:
192,192,308350,1,0,0:0:0:0:
64,192,308434,1,0,0:0:0:0:
448,192,308434,1,0,0:0:0:0:
192,192,308602,1,0,0:0:0:0:
320,192,308602,1,0,0:0:0:0:
448,192,308602,1,0,0:0:0:0:
64,192,308771,1,0,0:0:0:0:
320,192,308939,1,0,0:0:0:0:
448,192,308939,128,0,309108:0:0:0:0:
64,192,309024,1,0,0:0:0:0:
192,192,309108,1,0,0:0:0:0:
320,192,309192,1,0,0:0:0:0:
448,192,309276,1,0,0:0:0:0:
64,192,309276,1,0,0:0:0:0:
192,192,309445,1,0,0:0:0:0:
448,192,309529,1,0,0:0:0:0:
64,192,309614,1,0,0:0:0:0:
192,192,309698,1,0,0:0:0:0:
320,192,309782,1,0,0:0:0:0:
448,192,309782,1,0,0:0:0:0:
64,192,309951,1,0,0:0:0:0:
192,192,309951,1,0,0:0:0:0:
448,192,309951,1,0,0:0:0:0:
320,192,310119,1,0,0:0:0:0:
192,192,310288,1,0,0:0:0:0:
448,192,310288,1,0,0:0:0:0:
64,192,310372,1,0,0:0:0:0:
320,192,310456,128,0,310625:0:0:0:0:
192,192,310456,1,0,0:0:0:0:
64,192,310625,128,0,310793:0:0:0:0:
448,192,310625,1,0,0:0:0:0:
192,192,310793,1,0,0:0:0:0:
320,192,310878,1,0,0:0:0:0:
448,192,310962,1,0,0:0:0:0:
192,192,310962,128,0,311299:0:0:0:0:
64,192,311046,1,0,0:0:0:0:
320,192,311130,1,0,0:0:0:0:
448,192,311130,1,0,0:0:0:0:
64,192,311299,1,0,0:0:0:0:
320,192,311299,1,0,0:0:0:0:
448,192,311467,1,0,0:0:0:0:
64,192,311636,1,0,0:0:0:0:
448,192,311636,1,0,0:0:0:0:
320,192,311720,1,0,0:0:0:0:
192,192,311805,1,0,0:0:0:0:
320,192,311889,1,0,0:0:0:0:
448,192,311973,1,0,0:0:0:0:
64,192,311973,1,0,0:0:0:0:
192,192,312142,1,0,0:0:0:0:
64,192,312226,1,0,0:0:0:0:
448,192,312310,1,0,0:0:0:0:
320,192,312394,1,0,0:0:0:0:
192,192,312479,1,0,0:0:0:0:
64,192,312479,1,0,0:0:0:0:
192,192,312647,1,0,0:0:0:0:
320,192,312647,1,0,0:0:0:0:
448,192,312647,1,0,0:0:0:0:
64,192,312816,1,0,0:0:0:0:
320,192,312984,1,0,0:0:0:0:
448,192,312984,1,0,0:0:0:0:
64,192,313069,1,0,0:0:0:0:
192,192,313153,1,0,0:0:0:0:
448,192,313237,1,0,0:0:0:0:
64,192,313321,1,0,0:0:0:0:
320,192,313321,1,0,0:0:0:0:
192,192,313321,1,0,0:0:0:0:
448,192,313490,1,0,0:0:0:0:
320,192,313574,1,0,0:0:0:0:
192,192,313658,1,0,0:0:0:0:
320,192,313743,1,0,0:0:0:0:
448,192,313827,1,0,0:0:0:0:
64,192,313827,1,0,0:0:0:0:
64,192,313996,1,0,0:0:0:0:
192,192,313996,1,0,0:0:0:0:
320,192,313996,1,0,0:0:0:0:
320,192,314164,1,0,0:0:0:0:
448,192,314333,128,0,314501:0:0:0:0:
192,192,314333,1,0,0:0:0:0:
64,192,314417,1,0,0:0:0:0:
320,192,314501,1,0,0:0:0:0:
192,192,314585,1,0,0:0:0:0:
320,192,314670,1,0,0:0:0:0:
448,192,314670,1,0,0:0:0:0:
64,192,314670,1,0,0:0:0:0:
192,192,314838,1,0,0:0:0:0:
320,192,314923,1,0,0:0:0:0:
192,192,315007,1,0,0:0:0:0:
448,192,315091,1,0,0:0:0:0:
64,192,315175,1,0,0:0:0:0:
320,192,315175,1,0,0:0:0:0:
192,192,315344,1,0,0:0:0:0:
320,192,315344,1,0,0:0:0:0:
448,192,315344,1,0,0:0:0:0:
64,192,315512,1,0,0:0:0:0:
192,192,315681,1,0,0:0:0:0:
320,192,315681,1,0,0:0:0:0:
64,192,315850,128,0,316018:0:0:0:0:
448,192,316018,128,0,316355:0:0:0:0:
64,192,316355,128,0,316692:0:0:0:0:
192,192,316692,128,0,317029:0:0:0:0:
320,192,317029,1,0,0:0:0:0:
448,192,317029,1,0,0:0:0:0:
64,192,317114,1,0,0:0:0:0:
192,192,317198,1,0,0:0:0:0:
320,192,317282,1,0,0:0:0:0:
192,192,317366,1,0,0:0:0:0:
448,192,317366,1,0,0:0:0:0:
64,192,317366,1,0,0:0:0:0:
320,192,317535,1,0,0:0:0:0:
192,192,317619,1,0,0:0:0:0:
64,192,317703,1,0,0:0:0:0:
448,192,317788,1,0,0:0:0:0:
320,192,317872,1,0,0:0:0:0:
192,192,317872,1,0,0:0:0:0:
64,192,318041,1,0,0:0:0:0:
192,192,318041,1,0,0:0:0:0:
448,192,318041,1,0,0:0:0:0:
320,192,318209,1,0,0:0:0:0:
64,192,318378,1,0,0:0:0:0:
448,192,318378,1,0,0:0:0:0:
320,192,318462,1,0,0:0:0:0:
192,192,318546,1,0,0:0:0:0:
320,192,318630,1,0,0:0:0:0:
448,192,318715,1,0,0:0:0:0:
64,192,318715,1,0,0:0:0:0:
192,192,318715,1,0,0:0:0:0:
320,192,318883,1,0,0:0:0:0:
192,192,318967,1,0,0:0:0:0:
320,192,319052,1,0,0:0:0:0:
64,192,319136,1,0,0:0:0:0:
192,192,319220,1,0,0:0:0:0:
448,192,319220,1,0,0:0:0:0:
320,192,319389,1,0,0:0:0:0:
192,192,319389,1,0,0:0:0:0:
64,192,319389,1,0,0:0:0:0:
448,192,319557,1,0,0:0:0:0:
192,192,319726,1,0,0:0:0:0:
64,192,319726,128,0,319894:0:0:0:0:
320,192,319726,1,0,0:0:0:0:
448,192,319810,1,0,0:0:0:0:
320,192,319894,1,0,0:0:0:0:
192,192,319979,1,0,0:0:0:0:
64,192,320063,1,0,0:0:0:0:
448,192,320063,1,0,0:0:0:0:
320,192,320063,1,0,0:0:0:0:
320,192,320232,1,0,0:0:0:0:
192,192,320316,1,0,0:0:0:0:
64,192,320400,1,0,0:0:0:0:
448,192,320484,1,0,0:0:0:0:
320,192,320569,1,0,0:0:0:0:
192,192,320569,1,0,0:0:0:0:
64,192,320737,1,0,0:0:0:0:
192,192,320737,1,0,0:0:0:0:
448,192,320737,1,0,0:0:0:0:
320,192,320906,1,0,0:0:0:0:
64,192,321074,1,0,0:0:0:0:
448,192,321074,1,0,0:0:0:0:
320,192,321158,1,0,0:0:0:0:
64,192,321243,128,0,321748:0:0:0:0:
192,192,321243,1,0,0:0:0:0:
320,192,321411,1,0,0:0:0:0:
448,192,321411,1,0,0:0:0:0:
192,192,321580,1,0,0:0:0:0:
320,192,321664,1,0,0:0:0:0:
448,192,321748,1,0,0:0:0:0:
192,192,321748,128,0,322085:0:0:0:0:
320,192,321833,1,0,0:0:0:0:
64,192,321917,1,0,0:0:0:0:
448,192,322001,1,0,0:0:0:0:
320,192,322085,1,0,0:0:0:0:
192,192,322254,1,0,0:0:0:0:
192,192,322423,1,0,0:0:0:0:
64,192,322423,1,0,0:0:0:0:
320,192,322423,1,0,0:0:0:0:
448,192,322507,1,0,0:0:0:0:
320,192,322591,1,0,0:0:0:0:
192,192,322675,1,0,0:0:0:0:
320,192,322760,1,0,0:0:0:0:
448,192,322760,1,0,0:0:0:0:
64,192,322760,1,0,0:0:0:0:
64,192,322928,1,0,0:0:0:0:
192,192,323012,1,0,0:0:0:0:
320,192,323097,1,0,0:0:0:0:
448,192,323181,1,0,0:0:0:0:
64,192,323265,1,0,0:0:0:0:
192,192,323265,1,0,0:0:0:0:
192,192,323434,1,0,0:0:0:0:
320,192,323434,1,0,0:0:0:0:
448,192,323434,1,0,0:0:0:0:
64,192,323602,1,0,0:0:0:0:
320,192,323771,1,0,0:0:0:0:
192,192,323771,1,0,0:0:0:0:
448,192,323855,1,0,0:0:0:0:
64,192,323939,1,0,0:0:0:0:
192,192,324024,1,0,0:0:0:0:
320,192,324108,1,0,0:0:0:0:
448,192,324108,1,0,0:0:0:0:
320,192,324276,1,0,0:0:0:0:
192,192,324361,1,0,0:0:0:0:
320,192,324445,1,0,0:0:0:0:
64,192,324529,1,0,0:0:0:0:
448,192,324614,1,0,0:0:0:0:
320,192,324614,1,0,0:0:0:0:
64,192,324782,1,0,0:0:0:0:
192,192,324782,1,0,0:0:0:0:
448,192,324782,1,0,0:0:0:0:
320,192,324951,1,0,0:0:0:0:
320,192,325119,1,0,0:0:0:0:
64,192,325119,128,0,325288:0:0:0:0:
448,192,325119,1,0,0:0:0:0:
192,192,325203,1,0,0:0:0:0:
320,192,325288,1,0,0:0:0:0:
448,192,325372,1,0,0:0:0:0:
64,192,325456,1,0,0:0:0:0:
192,192,325456,1,0,0:0:0:0:
320,192,325625,1,0,0:0:0:0:
448,192,325709,1,0,0:0:0:0:
192,192,325793,1,0,0:0:0:0:
64,192,325878,1,0,0:0:0:0:
320,192,325962,1,0,0:0:0:0:
448,192,325962,1,0,0:0:0:0:
64,192,326130,1,0,0:0:0:0:
192,192,326130,1,0,0:0:0:0:
448,192,326130,1,0,0:0:0:0:
320,192,326299,1,0,0:0:0:0:
448,192,326467,1,0,0:0:0:0:
320,192,326467,1,0,0:0:0:0:
64,192,326636,128,0,327732:0:0:0:0:
192,192,326805,128,0,327732:0:0:0:0:
320,192,327142,128,0,327732:0:0:0:0:
448,192,327479,128,0,327732:0:0:0:0:
448,192,327816,1,0,0:0:0:0:
320,192,327816,1,0,0:0:0:0:
192,192,327816,128,0,327900:0:0:0:0:
64,192,327900,1,0,0:0:0:0:
320,192,327984,1,0,0:0:0:0:
448,192,328069,1,0,0:0:0:0:
64,192,328153,1,0,0:0:0:0:
192,192,328153,1,0,0:0:0:0:
448,192,328321,1,0,0:0:0:0:
320,192,328406,1,0,0:0:0:0:
64,192,328490,1,0,0:0:0:0:
320,192,328574,1,0,0:0:0:0:
192,192,328658,1,0,0:0:0:0:
64,192,328658,1,0,0:0:0:0:
192,192,328827,1,0,0:0:0:0:
320,192,328827,1,0,0:0:0:0:
448,192,328827,1,0,0:0:0:0:
64,192,328996,1,0,0:0:0:0:
320,192,329164,1,0,0:0:0:0:
448,192,329164,1,0,0:0:0:0:
192,192,329248,1,0,0:0:0:0:
64,192,329333,1,0,0:0:0:0:
448,192,329417,1,0,0:0:0:0:
192,192,329501,1,0,0:0:0:0:
320,192,329501,1,0,0:0:0:0:
64,192,329501,1,0,0:0:0:0:
192,192,329670,1,0,0:0:0:0:
448,192,329754,1,0,0:0:0:0:
320,192,329838,1,0,0:0:0:0:
192,192,329923,1,0,0:0:0:0:
64,192,330007,1,0,0:0:0:0:
448,192,330007,1,0,0:0:0:0:
192,192,330175,1,0,0:0:0:0:
320,192,330175,1,0,0:0:0:0:
448,192,330175,1,0,0:0:0:0:
64,192,330344,1,0,0:0:0:0:
320,192,330512,1,0,0:0:0:0:
448,192,330512,1,0,0:0:0:0:
64,192,330597,1,0,0:0:0:0:
192,192,330681,1,0,0:0:0:0:
320,192,330765,1,0,0:0:0:0:
448,192,330850,1,0,0:0:0:0:
64,192,330850,1,0,0:0:0:0:
192,192,331018,1,0,0:0:0:0:
448,192,331102,1,0,0:0:0:0:
64,192,331187,1,0,0:0:0:0:
192,192,331271,1,0,0:0:0:0:
320,192,331355,1,0,0:0:0:0:
448,192,331355,1,0,0:0:0:0:
64,192,331524,1,0,0:0:0:0:
192,192,331524,1,0,0:0:0:0:
448,192,331524,1,0,0:0:0:0:
320,192,331692,1,0,0:0:0:0:
192,192,331861,1,0,0:0:0:0:
448,192,331861,1,0,0:0:0:0:
64,192,331945,1,0,0:0:0:0:
192,192,332029,1,0,0:0:0:0:
320,192,332114,1,0,0:0:0:0:
448,192,332198,1,0,0:0:0:0:
64,192,332198,1,0,0:0:0:0:
192,192,332366,1,0,0:0:0:0:
320,192,332451,1,0,0:0:0:0:
448,192,332535,1,0,0:0:0:0:
192,192,332535,1,0,0:0:0:0:
64,192,332619,1,0,0:0:0:0:
320,192,332703,1,0,0:0:0:0:
448,192,332703,1,0,0:0:0:0:
64,192,332872,1,0,0:0:0:0:
320,192,332872,1,0,0:0:0:0:
192,192,332956,1,0,0:0:0:0:
448,192,333041,1,0,0:0:0:0:
320,192,333125,1,0,0:0:0:0:
448,192,333209,1,0,0:0:0:0:
64,192,333209,128,0,333293:0:0:0:0:
192,192,333293,1,0,0:0:0:0:
320,192,333378,1,0,0:0:0:0:
192,192,333462,1,0,0:0:0:0:
448,192,333546,1,0,0:0:0:0:
64,192,333546,1,0,0:0:0:0:
320,192,333546,1,0,0:0:0:0:
192,192,333715,128,0,333799:0:0:0:0:
64,192,333799,1,0,0:0:0:0:
448,192,333883,1,0,0:0:0:0:
320,192,333967,1,0,0:0:0:0:
192,192,334052,1,0,0:0:0:0:
64,192,334052,1,0,0:0:0:0:
192,192,334220,1,0,0:0:0:0:
320,192,334220,1,0,0:0:0:0:
448,192,334220,1,0,0:0:0:0:
64,192,334389,1,0,0:0:0:0:
320,192,334557,1,0,0:0:0:0:
448,192,334557,1,0,0:0:0:0:
64,192,334642,1,0,0:0:0:0:
192,192,334726,1,0,0:0:0:0:
448,192,334810,1,0,0:0:0:0:
64,192,334894,1,0,0:0:0:0:
320,192,334894,1,0,0:0:0:0:
192,192,334894,1,0,0:0:0:0:
448,192,335063,1,0,0:0:0:0:
320,192,335147,1,0,0:0:0:0:
192,192,335232,1,0,0:0:0:0:
320,192,335316,1,0,0:0:0:0:
448,192,335400,1,0,0:0:0:0:
64,192,335400,1,0,0:0:0:0:
64,192,335569,1,0,0:0:0:0:
192,192,335569,1,0,0:0:0:0:
320,192,335569,1,0,0:0:0:0:
320,192,335737,1,0,0:0:0:0:
192,192,335906,1,0,0:0:0:0:
448,192,335906,1,0,0:0:0:0:
64,192,335990,1,0,0:0:0:0:
320,192,336074,1,0,0:0:0:0:
192,192,336158,1,0,0:0:0:0:
320,192,336243,1,0,0:0:0:0:
448,192,336243,1,0,0:0:0:0:
64,192,336243,1,0,0:0:0:0:
192,192,336411,1,0,0:0:0:0:
320,192,336496,1,0,0:0:0:0:
192,192,336580,1,0,0:0:0:0:
448,192,336664,1,0,0:0:0:0:
64,192,336748,1,0,0:0:0:0:
320,192,336748,1,0,0:0:0:0:
192,192,336917,1,0,0:0:0:0:
320,192,336917,1,0,0:0:0:0:
448,192,336917,1,0,0:0:0:0:
64,192,337085,1,0,0:0:0:0:
192,192,337254,1,0,0:0:0:0:
320,192,337254,1,0,0:0:0:0:
448,192,337338,1,0,0:0:0:0:
64,192,337423,1,0,0:0:0:0:
192,192,337507,1,0,0:0:0:0:
320,192,337591,1,0,0:0:0:0:
448,192,337591,1,0,0:0:0:0:
64,192,337760,1,0,0:0:0:0:
192,192,337844,1,0,0:0:0:0:
320,192,337928,1,0,0:0:0:0:
448,192,338012,1,0,0:0:0:0:
64,192,338097,1,0,0:0:0:0:
192,192,338097,1,0,0:0:0:0:
192,192,338265,1,0,0:0:0:0:
320,192,338265,1,0,0:0:0:0:
448,192,338265,1,0,0:0:0:0:
64,192,338350,1,0,0:0:0:0:
192,192,338434,1,0,0:0:0:0:
320,192,338518,1,0,0:0:0:0:
448,192,338602,1,0,0:0:0:0:
192,192,338602,1,0,0:0:0:0:
320,192,338771,1,0,0:0:0:0:
192,192,338939,1,0,0:0:0:0:
448,192,338939,1,0,0:0:0:0:
64,192,338939,1,0,0:0:0:0:
320,192,339108,1,0,0:0:0:0:
192,192,339192,1,0,0:0:0:0:
64,192,339276,1,0,0:0:0:0:
448,192,339361,1,0,0:0:0:0:
320,192,339445,1,0,0:0:0:0:
192,192,339445,1,0,0:0:0:0:
64,192,339614,1,0,0:0:0:0:
192,192,339614,1,0,0:0:0:0:
448,192,339614,1,0,0:0:0:0:
320,192,339782,1,0,0:0:0:0:
192,192,339866,1,0,0:0:0:0:
64,192,339951,1,0,0:0:0:0:
448,192,339951,1,0,0:0:0:0:
320,192,340035,1,0,0:0:0:0:
192,192,340119,1,0,0:0:0:0:
320,192,340203,1,0,0:0:0:0:
448,192,340288,1,0,0:0:0:0:
64,192,340288,1,0,0:0:0:0:
192,192,340288,1,0,0:0:0:0:
320,192,340456,1,0,0:0:0:0:
192,192,340541,1,0,0:0:0:0:
320,192,340625,1,0,0:0:0:0:
64,192,340709,1,0,0:0:0:0:
192,192,340793,1,0,0:0:0:0:
448,192,340793,1,0,0:0:0:0:
320,192,340962,1,0,0:0:0:0:
192,192,340962,1,0,0:0:0:0:
64,192,340962,1,0,0:0:0:0:
448,192,341130,1,0,0:0:0:0:
192,192,341299,1,0,0:0:0:0:
320,192,341299,1,0,0:0:0:0:
448,192,341383,1,0,0:0:0:0:
320,192,341467,1,0,0:0:0:0:
192,192,341552,1,0,0:0:0:0:
64,192,341636,1,0,0:0:0:0:
448,192,341636,1,0,0:0:0:0:
320,192,341636,1,0,0:0:0:0:
320,192,341805,1,0,0:0:0:0:
192,192,341889,1,0,0:0:0:0:
64,192,341973,1,0,0:0:0:0:
448,192,342057,1,0,0:0:0:0:
320,192,342142,1,0,0:0:0:0:
192,192,342142,1,0,0:0:0:0:
64,192,342310,1,0,0:0:0:0:
192,192,342310,1,0,0:0:0:0:
448,192,342310,1,0,0:0:0:0:
320,192,342479,1,0,0:0:0:0:
64,192,342647,1,0,0:0:0:0:
448,192,342647,1,0,0:0:0:0:
320,192,342732,1,0,0:0:0:0:
192,192,342816,1,0,0:0:0:0:
64,192,342900,1,0,0:0:0:0:
320,192,342984,1,0,0:0:0:0:
448,192,342984,1,0,0:0:0:0:
192,192,343153,1,0,0:0:0:0:
320,192,343237,1,0,0:0:0:0:
448,192,343321,1,0,0:0:0:0:
320,192,343406,1,0,0:0:0:0:
64,192,343490,1,0,0:0:0:0:
192,192,343490,1,0,0:0:0:0:
320,192,343658,1,0,0:0:0:0:
448,192,343658,1,0,0:0:0:0:
192,192,343658,1,0,0:0:0:0:
64,192,343743,1,0,0:0:0:0:
192,192,343827,1,0,0:0:0:0:
448,192,343911,1,0,0:0:0:0:
192,192,343996,1,0,0:0:0:0:
64,192,343996,1,0,0:0:0:0:
320,192,343996,1,0,0:0:0:0:
448,192,344164,1,0,0:0:0:0:
320,192,344333,1,0,0:0:0:0:
448,192,344333,1,0,0:0:0:0:
64,192,344333,1,0,0:0:0:0:
64,192,344501,1,0,0:0:0:0:
192,192,344585,1,0,0:0:0:0:
320,192,344670,1,0,0:0:0:0:
448,192,344754,1,0,0:0:0:0:
64,192,344838,1,0,0:0:0:0:
192,192,344838,1,0,0:0:0:0:
192,192,345007,1,0,0:0:0:0:
320,192,345007,1,0,0:0:0:0:
448,192,345007,1,0,0:0:0:0:
64,192,345175,1,0,0:0:0:0:
192,192,345260,1,0,0:0:0:0:
320,192,345344,1,0,0:0:0:0:
448,192,345344,1,0,0:0:0:0:
192,192,345428,1,0,0:0:0:0:
64,192,345512,1,0,0:0:0:0:
192,192,345597,1,0,0:0:0:0:
320,192,345681,1,0,0:0:0:0:
448,192,345681,1,0,0:0:0:0:
64,192,345850,1,0,0:0:0:0:
192,192,345934,1,0,0:0:0:0:
320,192,346018,1,0,0:0:0:0:
64,192,346102,1,0,0:0:0:0:
448,192,346187,1,0,0:0:0:0:
320,192,346187,1,0,0:0:0:0:
64,192,346355,1,0,0:0:0:0:
192,192,346355,1,0,0:0:0:0:
448,192,346355,1,0,0:0:0:0:
320,192,346524,1,0,0:0:0:0:
320,192,346692,1,0,0:0:0:0:
448,192,346692,1,0,0:0:0:0:
192,192,346776,1,0,0:0:0:0:
320,192,346861,1,0,0:0:0:0:
448,192,346945,1,0,0:0:0:0:
64,192,347029,1,0,0:0:0:0:
192,192,347029,1,0,0:0:0:0:
320,192,347198,1,0,0:0:0:0:
448,192,347282,1,0,0:0:0:0:
192,192,347366,1,0,0:0:0:0:
64,192,347451,1,0,0:0:0:0:
320,192,347535,1,0,0:0:0:0:
448,192,347535,1,0,0:0:0:0:
64,192,347703,1,0,0:0:0:0:
192,192,347703,1,0,0:0:0:0:
448,192,347703,1,0,0:0:0:0:
320,192,347872,1,0,0:0:0:0:
448,192,348041,1,0,0:0:0:0:
320,192,348041,1,0,0:0:0:0:
192,192,348125,1,0,0:0:0:0:
320,192,348209,1,0,0:0:0:0:
192,192,348293,1,0,0:0:0:0:
64,192,348378,1,0,0:0:0:0:
448,192,348378,1,0,0:0:0:0:
320,192,348546,1,0,0:0:0:0:
192,192,348630,1,0,0:0:0:0:
320,192,348715,1,0,0:0:0:0:
448,192,348799,1,0,0:0:0:0:
320,192,348883,1,0,0:0:0:0:
64,192,348883,1,0,0:0:0:0:
192,192,349052,1,0,0:0:0:0:
320,192,349052,1,0,0:0:0:0:
448,192,349052,1,0,0:0:0:0:
64,192,349136,1,0,0:0:0:0:
448,192,349220,1,0,0:0:0:0:
320,192,349305,1,0,0:0:0:0:
192,192,349389,1,0,0:0:0:0:
64,192,349389,1,0,0:0:0:0:
320,192,349473,1,0,0:0:0:0:
448,192,349557,1,0,0:0:0:0:
64,192,349557,1,0,0:0:0:0:
192,192,349642,1,0,0:0:0:0:
320,192,349726,1,0,0:0:0:0:
448,192,349726,1,0,0:0:0:0:
64,192,349894,1,0,0:0:0:0:
448,192,349894,1,0,0:0:0:0:
320,192,349979,1,0,0:0:0:0:
192,192,350063,1,0,0:0:0:0:
64,192,350063,1,0,0:0:0:0:
448,192,350147,1,0,0:0:0:0:
320,192,350232,1,0,0:0:0:0:
64,192,350232,1,0,0:0:0:0:
320,192,350400,1,0,0:0:0:0:
448,192,350400,1,0,0:0:0:0:
192,192,350400,1,0,0:0:0:0:
64,192,350569,1,0,0:0:0:0:
448,192,350653,1,0,0:0:0:0:
320,192,350737,1,0,0:0:0:0:
192,192,350737,1,0,0:0:0:0:
64,192,350821,1,0,0:0:0:0:
192,192,350906,1,0,0:0:0:0:
448,192,350906,1,0,0:0:0:0:
320,192,350990,1,0,0:0:0:0:
192,192,351074,1,0,0:0:0:0:
64,192,351074,1,0,0:0:0:0:
448,192,351243,1,0,0:0:0:0:
64,192,351243,1,0,0:0:0:0:
320,192,351327,1,0,0:0:0:0:
192,192,351411,1,0,0:0:0:0:
64,192,351411,1,0,0:0:0:0:
448,192,351496,1,0,0:0:0:0:
320,192,351580,1,0,0:0:0:0:
64,192,351580,1,0,0:0:0:0:
192,192,351748,1,0,0:0:0:0:
64,192,351748,1,0,0:0:0:0:
448,192,351748,1,0,0:0:0:0:
192,192,351917,1,0,0:0:0:0:
320,192,352085,1,0,0:0:0:0:
448,192,352085,1,0,0:0:0:0:
192,192,352170,1,0,0:0:0:0:
64,192,352254,1,0,0:0:0:0:
448,192,352254,1,0,0:0:0:0:
320,192,352338,1,0,0:0:0:0:
192,192,352423,1,0,0:0:0:0:
64,192,352423,1,0,0:0:0:0:
448,192,352591,1,0,0:0:0:0:
320,192,352675,1,0,0:0:0:0:
192,192,352760,1,0,0:0:0:0:
64,192,352760,1,0,0:0:0:0:
320,192,352844,1,0,0:0:0:0:
448,192,352928,1,0,0:0:0:0:
64,192,352928,1,0,0:0:0:0:
192,192,353097,1,0,0:0:0:0:
320,192,353097,1,0,0:0:0:0:
448,192,353097,1,0,0:0:0:0:
64,192,353265,1,0,0:0:0:0:
448,192,353350,1,0,0:0:0:0:
320,192,353434,1,0,0:0:0:0:
192,192,353434,1,0,0:0:0:0:
64,192,353518,1,0,0:0:0:0:
192,192,353602,1,0,0:0:0:0:
320,192,353687,1,0,0:0:0:0:
448,192,353771,1,0,0:0:0:0:
64,192,353771,1,0,0:0:0:0:
192,192,353771,1,0,0:0:0:0:
320,192,353939,1,0,0:0:0:0:
192,192,354024,1,0,0:0:0:0:
448,192,354108,1,0,0:0:0:0:
64,192,354192,1,0,0:0:0:0:
192,192,354276,1,0,0:0:0:0:
320,192,354276,1,0,0:0:0:0:
64,192,354445,1,0,0:0:0:0:
448,192,354445,1,0,0:0:0:0:
192,192,354445,1,0,0:0:0:0:
320,192,354529,1,0,0:0:0:0:
448,192,354614,1,0,0:0:0:0:
192,192,354698,1,0,0:0:0:0:
64,192,354782,1,0,0:0:0:0:
320,192,354782,1,0,0:0:0:0:
448,192,354866,1,0,0:0:0:0:
192,192,354951,1,0,0:0:0:0:
64,192,355035,1,0,0:0:0:0:
320,192,355119,1,0,0:0:0:0:
448,192,355119,1,0,0:0:0:0:
192,192,355119,1,0,0:0:0:0:
64,192,355288,1,0,0:0:0:0:
448,192,355372,1,0,0:0:0:0:
192,192,355456,1,0,0:0:0:0:
320,192,355541,1,0,0:0:0:0:
192,192,355625,1,0,0:0:0:0:
64,192,355625,1,0,0:0:0:0:
320,192,355793,1,0,0:0:0:0:
448,192,355793,1,0,0:0:0:0:
64,192,355793,1,0,0:0:0:0:
192,192,355962,1,0,0:0:0:0:
320,192,356046,1,0,0:0:0:0:
448,192,356130,1,0,0:0:0:0:
64,192,356130,1,0,0:0:0:0:
192,192,356215,1,0,0:0:0:0:
320,192,356299,1,0,0:0:0:0:
448,192,356383,1,0,0:0:0:0:
192,192,356467,1,0,0:0:0:0:
64,192,356467,1,0,0:0:0:0:
320,192,356636,1,0,0:0:0:0:
192,192,356720,1,0,0:0:0:0:
448,192,356805,1,0,0:0:0:0:
64,192,356889,1,0,0:0:0:0:
320,192,356973,1,0,0:0:0:0:
192,192,356973,1,0,0:0:0:0:
320,192,357142,1,0,0:0:0:0:
448,192,357142,1,0,0:0:0:0:
64,192,357142,1,0,0:0:0:0:
192,192,357226,1,0,0:0:0:0:
64,192,357310,1,0,0:0:0:0:
192,192,357394,1,0,0:0:0:0:
320,192,357479,1,0,0:0:0:0:
448,192,357479,1,0,0:0:0:0:
192,192,357563,1,0,0:0:0:0:
64,192,357647,1,0,0:0:0:0:
448,192,357647,1,0,0:0:0:0:
320,192,357732,1,0,0:0:0:0:
192,192,357816,1,0,0:0:0:0:
64,192,357816,1,0,0:0:0:0:
448,192,357984,1,0,0:0:0:0:
64,192,358069,1,0,0:0:0:0:
320,192,358153,1,0,0:0:0:0:
192,192,358237,1,0,0:0:0:0:
64,192,358321,1,0,0:0:0:0:
448,192,358321,1,0,0:0:0:0:
64,192,358490,1,0,0:0:0:0:
192,192,358490,1,0,0:0:0:0:
320,192,358490,1,0,0:0:0:0:
192,192,358658,1,0,0:0:0:0:
320,192,358743,1,0,0:0:0:0:
192,192,358827,1,0,0:0:0:0:
64,192,358827,128,0,360091:0:0:0:0:
448,192,358827,128,0,360091:0:0:0:0:
64,192,360175,1,0,0:0:0:0:
192,192,360175,1,0,0:0:0:0:
320,192,360175,1,0,0:0:0:0:
448,192,360175,1,0,0:0:0:0:
