osu file format v14

[General]
AudioFilename: Everybody Lost.mp3
AudioLeadIn: 2
PreviewTime: 30000
Countdown: 0
SampleSet: None
StackLeniency: 0.7
Mode: 3
LetterboxInBreaks: 0
SpecialStyle: 0
WidescreenStoryboard: 0

[Editor]
DistanceSpacing: 0.8
BeatDivisor: 4
GridSize: 8
TimelineZoom: 1

[Metadata]
Title:Everybody Lost
TitleUnicode:Everybody Lost
Artist:Jerico
ArtistUnicode:Jerico
Creator:LoliXn-
Version:Challenge
Source:Stepmania
Tags:Stepmania
BeatmapID:981733
BeatmapSetID:458130

[Difficulty]
HPDrainRate:5
CircleSize:4
OverallDifficulty:7
ApproachRate:10
SliderMultiplier:1.4
SliderTickRate:1

[Events]
//Background and Video events
0,0,"background.jpg",0,0
//Break Periods
//Storyboard Layer 0 (Background)
//Storyboard Layer 1 (Fail)
//Storyboard Layer 2 (Pass)
//Storyboard Layer 3 (Foreground)
//Storyboard Sound Samples

[TimingPoints]
1110,342.8571,4,1,0,15,1,0

[HitObjects]
64,192,1452,5,0,0:0:0:0:
320,192,1452,1,0,0:0:0:0:
448,192,1452,1,0,0:0:0:0:
192,192,1624,1,0,0:0:0:0:
320,192,1795,1,0,0:0:0:0:
448,192,1795,1,0,0:0:0:0:
64,192,2138,1,0,0:0:0:0:
320,192,2138,1,0,0:0:0:0:
448,192,2138,1,0,0:0:0:0:
192,192,2310,1,0,0:0:0:0:
320,192,2481,1,0,0:0:0:0:
448,192,2481,1,0,0:0:0:0:
64,192,2824,1,0,0:0:0:0:
320,192,2824,1,0,0:0:0:0:
448,192,2824,1,0,0:0:0:0:
192,192,2995,1,0,0:0:0:0:
320,192,3167,1,0,0:0:0:0:
448,192,3167,1,0,0:0:0:0:
64,192,3509,1,0,0:0:0:0:
320,192,3509,1,0,0:0:0:0:
448,192,3509,1,0,0:0:0:0:
192,192,3681,1,0,0:0:0:0:
320,192,3852,1,0,0:0:0:0:
448,192,3852,1,0,0:0:0:0:
64,192,4195,1,0,0:0:0:0:
320,192,4195,1,0,0:0:0:0:
448,192,4195,1,0,0:0:0:0:
192,192,4367,1,0,0:0:0:0:
320,192,4538,1,0,0:0:0:0:
448,192,4538,1,0,0:0:0:0:
64,192,4881,1,0,0:0:0:0:
320,192,4881,1,0,0:0:0:0:
448,192,4881,1,0,0:0:0:0:
192,192,5052,1,0,0:0:0:0:
320,192,5224,1,0,0:0:0:0:
448,192,5224,1,0,0:0:0:0:
64,192,5567,1,0,0:0:0:0:
320,192,5567,1,0,0:0:0:0:
448,192,5567,1,0,0:0:0:0:
192,192,5738,1,0,0:0:0:0:
320,192,5910,1,0,0:0:0:0:
448,192,5910,1,0,0:0:0:0:
64,192,6252,1,0,0:0:0:0:
320,192,6252,1,0,0:0:0:0:
448,192,6252,1,0,0:0:0:0:
192,192,6424,1,0,0:0:0:0:
448,192,6424,1,0,0:0:0:0:
64,192,6595,1,0,0:0:0:0:
448,192,6595,1,0,0:0:0:0:
320,192,6681,1,0,0:0:0:0:
192,192,6767,1,0,0:0:0:0:
448,192,6767,1,0,0:0:0:0:
320,192,6852,1,0,0:0:0:0:
64,192,6938,1,0,0:0:0:0:
192,192,6938,1,0,0:0:0:0:
320,192,7110,1,0,0:0:0:0:
64,192,7281,1,0,0:0:0:0:
192,192,7281,1,0,0:0:0:0:
448,192,7281,1,0,0:0:0:0:
320,192,7452,1,0,0:0:0:0:
64,192,7624,1,0,0:0:0:0:
192,192,7624,1,0,0:0:0:0:
320,192,7795,1,0,0:0:0:0:
64,192,7967,1,0,0:0:0:0:
192,192,7967,1,0,0:0:0:0:
448,192,7967,1,0,0:0:0:0:
320,192,8138,1,0,0:0:0:0:
64,192,8310,1,0,0:0:0:0:
192,192,8310,1,0,0:0:0:0:
320,192,8481,1,0,0:0:0:0:
64,192,8652,1,0,0:0:0:0:
192,192,8652,1,0,0:0:0:0:
448,192,8652,1,0,0:0:0:0:
320,192,8824,1,0,0:0:0:0:
64,192,8995,1,0,0:0:0:0:
192,192,8995,1,0,0:0:0:0:
320,192,9167,1,0,0:0:0:0:
64,192,9338,1,0,0:0:0:0:
192,192,9338,1,0,0:0:0:0:
448,192,9338,1,0,0:0:0:0:
320,192,9510,1,0,0:0:0:0:
320,192,9681,1,0,0:0:0:0:
448,192,9681,1,0,0:0:0:0:
192,192,9767,1,0,0:0:0:0:
320,192,9852,1,0,0:0:0:0:
192,192,9938,1,0,0:0:0:0:
320,192,10024,1,0,0:0:0:0:
320,192,10195,1,0,0:0:0:0:
448,192,10195,1,0,0:0:0:0:
64,192,10281,1,0,0:0:0:0:
192,192,10367,1,0,0:0:0:0:
64,192,10452,1,0,0:0:0:0:
320,192,10709,1,0,0:0:0:0:
448,192,10709,1,0,0:0:0:0:
64,192,10795,1,0,0:0:0:0:
192,192,10881,1,0,0:0:0:0:
448,192,10967,1,0,0:0:0:0:
64,192,11052,1,0,0:0:0:0:
192,192,11052,1,0,0:0:0:0:
320,192,11052,1,0,0:0:0:0:
64,192,11738,1,0,0:0:0:0:
192,192,11738,1,0,0:0:0:0:
320,192,11738,1,0,0:0:0:0:
448,192,11738,1,0,0:0:0:0:
320,192,12081,1,0,0:0:0:0:
192,192,12167,1,0,0:0:0:0:
320,192,12252,1,0,0:0:0:0:
192,192,12338,1,0,0:0:0:0:
64,192,12424,1,0,0:0:0:0:
320,192,12424,1,0,0:0:0:0:
448,192,12424,1,0,0:0:0:0:
320,192,12595,1,0,0:0:0:0:
64,192,12767,1,0,0:0:0:0:
192,192,12767,1,0,0:0:0:0:
320,192,12767,1,0,0:0:0:0:
448,192,12767,1,0,0:0:0:0:
448,192,12938,1,0,0:0:0:0:
192,192,13024,1,0,0:0:0:0:
448,192,13195,1,0,0:0:0:0:
64,192,13281,1,0,0:0:0:0:
64,192,13452,1,0,0:0:0:0:
320,192,13452,1,0,0:0:0:0:
448,192,13452,1,0,0:0:0:0:
64,192,13624,1,0,0:0:0:0:
192,192,13624,1,0,0:0:0:0:
320,192,13624,1,0,0:0:0:0:
448,192,13624,1,0,0:0:0:0:
64,192,13795,1,0,0:0:0:0:
320,192,13795,1,0,0:0:0:0:
448,192,13795,1,0,0:0:0:0:
320,192,13967,1,0,0:0:0:0:
64,192,14138,1,0,0:0:0:0:
192,192,14138,1,0,0:0:0:0:
320,192,14138,1,0,0:0:0:0:
448,192,14138,1,0,0:0:0:0:
320,192,14309,1,0,0:0:0:0:
192,192,14395,1,0,0:0:0:0:
448,192,14481,1,0,0:0:0:0:
320,192,14567,1,0,0:0:0:0:
192,192,14652,1,0,0:0:0:0:
64,192,14738,1,0,0:0:0:0:
448,192,14824,1,0,0:0:0:0:
320,192,14909,1,0,0:0:0:0:
192,192,14995,1,0,0:0:0:0:
64,192,15081,1,0,0:0:0:0:
192,192,15167,1,0,0:0:0:0:
320,192,15167,1,0,0:0:0:0:
448,192,15167,1,0,0:0:0:0:
320,192,15338,1,0,0:0:0:0:
64,192,15509,1,0,0:0:0:0:
192,192,15509,1,0,0:0:0:0:
320,192,15509,1,0,0:0:0:0:
448,192,15509,1,0,0:0:0:0:
448,192,15681,1,0,0:0:0:0:
64,192,15767,1,0,0:0:0:0:
64,192,15938,1,0,0:0:0:0:
448,192,16024,1,0,0:0:0:0:
64,192,16195,1,0,0:0:0:0:
320,192,16195,1,0,0:0:0:0:
448,192,16195,1,0,0:0:0:0:
64,192,16367,1,0,0:0:0:0:
192,192,16367,1,0,0:0:0:0:
320,192,16367,1,0,0:0:0:0:
448,192,16367,1,0,0:0:0:0:
64,192,16538,1,0,0:0:0:0:
320,192,16538,1,0,0:0:0:0:
448,192,16538,1,0,0:0:0:0:
320,192,16709,1,0,0:0:0:0:
64,192,16881,1,0,0:0:0:0:
192,192,16881,1,0,0:0:0:0:
320,192,16881,1,0,0:0:0:0:
448,192,16881,1,0,0:0:0:0:
448,192,17052,1,0,0:0:0:0:
64,192,17138,1,0,0:0:0:0:
448,192,17224,1,0,0:0:0:0:
320,192,17309,1,0,0:0:0:0:
192,192,17395,1,0,0:0:0:0:
64,192,17481,1,0,0:0:0:0:
448,192,17567,1,0,0:0:0:0:
320,192,17652,1,0,0:0:0:0:
192,192,17738,1,0,0:0:0:0:
64,192,17824,1,0,0:0:0:0:
192,192,17909,1,0,0:0:0:0:
320,192,17909,1,0,0:0:0:0:
448,192,17909,1,0,0:0:0:0:
320,192,18081,1,0,0:0:0:0:
64,192,18252,1,0,0:0:0:0:
192,192,18252,1,0,0:0:0:0:
320,192,18252,1,0,0:0:0:0:
448,192,18252,1,0,0:0:0:0:
320,192,18424,1,0,0:0:0:0:
192,192,18509,1,0,0:0:0:0:
448,192,18681,1,0,0:0:0:0:
64,192,18767,1,0,0:0:0:0:
64,192,18938,1,0,0:0:0:0:
320,192,18938,1,0,0:0:0:0:
448,192,18938,1,0,0:0:0:0:
64,192,19109,1,0,0:0:0:0:
192,192,19109,1,0,0:0:0:0:
320,192,19109,1,0,0:0:0:0:
448,192,19109,1,0,0:0:0:0:
64,192,19281,1,0,0:0:0:0:
320,192,19281,1,0,0:0:0:0:
448,192,19281,1,0,0:0:0:0:
320,192,19452,1,0,0:0:0:0:
64,192,19624,1,0,0:0:0:0:
192,192,19624,1,0,0:0:0:0:
320,192,19624,1,0,0:0:0:0:
448,192,19624,1,0,0:0:0:0:
320,192,19795,1,0,0:0:0:0:
192,192,19881,1,0,0:0:0:0:
448,192,19967,1,0,0:0:0:0:
320,192,20052,1,0,0:0:0:0:
192,192,20138,1,0,0:0:0:0:
64,192,20224,1,0,0:0:0:0:
448,192,20309,1,0,0:0:0:0:
320,192,20395,1,0,0:0:0:0:
192,192,20481,1,0,0:0:0:0:
64,192,20567,1,0,0:0:0:0:
192,192,20652,1,0,0:0:0:0:
320,192,20652,1,0,0:0:0:0:
448,192,20652,1,0,0:0:0:0:
64,192,20909,1,0,0:0:0:0:
192,192,20909,1,0,0:0:0:0:
192,192,20995,1,0,0:0:0:0:
320,192,20995,1,0,0:0:0:0:
448,192,20995,1,0,0:0:0:0:
64,192,21252,1,0,0:0:0:0:
192,192,21252,1,0,0:0:0:0:
192,192,21338,1,0,0:0:0:0:
320,192,21338,1,0,0:0:0:0:
448,192,21338,1,0,0:0:0:0:
192,192,21510,1,0,0:0:0:0:
320,192,21510,1,0,0:0:0:0:
448,192,21510,1,0,0:0:0:0:
320,192,21595,1,0,0:0:0:0:
448,192,21595,1,0,0:0:0:0:
192,192,21681,1,0,0:0:0:0:
320,192,21681,1,0,0:0:0:0:
448,192,21681,1,0,0:0:0:0:
192,192,22024,1,0,0:0:0:0:
320,192,22024,1,0,0:0:0:0:
448,192,22024,1,0,0:0:0:0:
192,192,22195,1,0,0:0:0:0:
320,192,22195,1,0,0:0:0:0:
448,192,22195,1,0,0:0:0:0:
320,192,22281,1,0,0:0:0:0:
448,192,22281,1,0,0:0:0:0:
192,192,22367,1,0,0:0:0:0:
320,192,22367,1,0,0:0:0:0:
448,192,22367,1,0,0:0:0:0:
192,192,22538,1,0,0:0:0:0:
320,192,22538,1,0,0:0:0:0:
448,192,22538,1,0,0:0:0:0:
192,192,22710,1,0,0:0:0:0:
320,192,22710,1,0,0:0:0:0:
448,192,22710,1,0,0:0:0:0:
64,192,22795,1,0,0:0:0:0:
448,192,22795,1,0,0:0:0:0:
192,192,22881,1,0,0:0:0:0:
320,192,22881,1,0,0:0:0:0:
448,192,22881,1,0,0:0:0:0:
64,192,22967,1,0,0:0:0:0:
448,192,22967,1,0,0:0:0:0:
64,192,23052,1,0,0:0:0:0:
320,192,23052,1,0,0:0:0:0:
192,192,23138,1,0,0:0:0:0:
448,192,23138,1,0,0:0:0:0:
64,192,23224,1,0,0:0:0:0:
320,192,23224,1,0,0:0:0:0:
192,192,23310,1,0,0:0:0:0:
448,192,23310,1,0,0:0:0:0:
64,192,23395,1,0,0:0:0:0:
192,192,23395,1,0,0:0:0:0:
320,192,23395,1,0,0:0:0:0:
64,192,26138,1,0,0:0:0:0:
448,192,26138,1,0,0:0:0:0:
192,192,26224,1,0,0:0:0:0:
320,192,26310,1,0,0:0:0:0:
448,192,26310,1,0,0:0:0:0:
64,192,26395,1,0,0:0:0:0:
192,192,26481,1,0,0:0:0:0:
320,192,26567,1,0,0:0:0:0:
448,192,26652,1,0,0:0:0:0:
320,192,26738,1,0,0:0:0:0:
192,192,26824,1,0,0:0:0:0:
64,192,26910,1,0,0:0:0:0:
192,192,26995,1,0,0:0:0:0:
64,192,27081,1,0,0:0:0:0:
192,192,27167,1,0,0:0:0:0:
448,192,27167,1,0,0:0:0:0:
320,192,27252,1,0,0:0:0:0:
448,192,27338,1,0,0:0:0:0:
320,192,27424,1,0,0:0:0:0:
64,192,27510,1,0,0:0:0:0:
448,192,27510,1,0,0:0:0:0:
192,192,27595,1,0,0:0:0:0:
320,192,27681,1,0,0:0:0:0:
448,192,27681,1,0,0:0:0:0:
64,192,27767,1,0,0:0:0:0:
192,192,27852,1,0,0:0:0:0:
320,192,27938,1,0,0:0:0:0:
448,192,28024,1,0,0:0:0:0:
320,192,28110,1,0,0:0:0:0:
192,192,28195,1,0,0:0:0:0:
64,192,28281,1,0,0:0:0:0:
192,192,28367,1,0,0:0:0:0:
64,192,28452,1,0,0:0:0:0:
192,192,28538,1,0,0:0:0:0:
448,192,28538,1,0,0:0:0:0:
320,192,28624,1,0,0:0:0:0:
448,192,28710,1,0,0:0:0:0:
320,192,28795,1,0,0:0:0:0:
64,192,28881,1,0,0:0:0:0:
448,192,28881,1,0,0:0:0:0:
192,192,28967,1,0,0:0:0:0:
320,192,29052,1,0,0:0:0:0:
448,192,29052,1,0,0:0:0:0:
64,192,29138,1,0,0:0:0:0:
192,192,29224,1,0,0:0:0:0:
320,192,29310,1,0,0:0:0:0:
448,192,29395,1,0,0:0:0:0:
320,192,29481,1,0,0:0:0:0:
192,192,29567,1,0,0:0:0:0:
448,192,29567,1,0,0:0:0:0:
64,192,29652,1,0,0:0:0:0:
192,192,29738,1,0,0:0:0:0:
64,192,29824,1,0,0:0:0:0:
192,192,29910,1,0,0:0:0:0:
448,192,29910,1,0,0:0:0:0:
320,192,29995,1,0,0:0:0:0:
448,192,30081,1,0,0:0:0:0:
320,192,30167,1,0,0:0:0:0:
64,192,30252,1,0,0:0:0:0:
448,192,30252,1,0,0:0:0:0:
192,192,30338,1,0,0:0:0:0:
320,192,30424,1,0,0:0:0:0:
448,192,30424,1,0,0:0:0:0:
64,192,30510,1,0,0:0:0:0:
448,192,30510,1,0,0:0:0:0:
192,192,30595,1,0,0:0:0:0:
320,192,30681,1,0,0:0:0:0:
448,192,30681,1,0,0:0:0:0:
64,192,30767,1,0,0:0:0:0:
448,192,30852,1,0,0:0:0:0:
64,192,30938,1,0,0:0:0:0:
448,192,30938,1,0,0:0:0:0:
192,192,31024,1,0,0:0:0:0:
320,192,31110,1,0,0:0:0:0:
448,192,31110,1,0,0:0:0:0:
64,192,31195,1,0,0:0:0:0:
448,192,31195,1,0,0:0:0:0:
192,192,31281,1,0,0:0:0:0:
320,192,31367,1,0,0:0:0:0:
448,192,31367,1,0,0:0:0:0:
64,192,31452,1,0,0:0:0:0:
448,192,31538,1,0,0:0:0:0:
64,192,31624,1,0,0:0:0:0:
448,192,31624,1,0,0:0:0:0:
192,192,31710,1,0,0:0:0:0:
320,192,31795,1,0,0:0:0:0:
448,192,31795,1,0,0:0:0:0:
64,192,31881,1,0,0:0:0:0:
448,192,31881,1,0,0:0:0:0:
192,192,31967,1,0,0:0:0:0:
320,192,32052,1,0,0:0:0:0:
448,192,32052,1,0,0:0:0:0:
64,192,32138,1,0,0:0:0:0:
192,192,32224,1,0,0:0:0:0:
448,192,32224,1,0,0:0:0:0:
64,192,32310,1,0,0:0:0:0:
320,192,32310,1,0,0:0:0:0:
448,192,32310,1,0,0:0:0:0:
192,192,32395,1,0,0:0:0:0:
320,192,32481,1,0,0:0:0:0:
192,192,32567,1,0,0:0:0:0:
64,192,32652,1,0,0:0:0:0:
192,192,32738,1,0,0:0:0:0:
320,192,32824,1,0,0:0:0:0:
192,192,32910,1,0,0:0:0:0:
64,192,32995,1,0,0:0:0:0:
448,192,32995,1,0,0:0:0:0:
192,192,33081,1,0,0:0:0:0:
320,192,33167,1,0,0:0:0:0:
448,192,33167,1,0,0:0:0:0:
64,192,33252,1,0,0:0:0:0:
448,192,33252,1,0,0:0:0:0:
192,192,33338,1,0,0:0:0:0:
320,192,33424,1,0,0:0:0:0:
448,192,33424,1,0,0:0:0:0:
64,192,33510,1,0,0:0:0:0:
192,192,33595,1,0,0:0:0:0:
448,192,33595,1,0,0:0:0:0:
64,192,33681,1,0,0:0:0:0:
320,192,33681,1,0,0:0:0:0:
448,192,33681,1,0,0:0:0:0:
192,192,33767,1,0,0:0:0:0:
320,192,33852,1,0,0:0:0:0:
192,192,33938,1,0,0:0:0:0:
64,192,34024,1,0,0:0:0:0:
192,192,34110,1,0,0:0:0:0:
320,192,34195,1,0,0:0:0:0:
192,192,34281,1,0,0:0:0:0:
64,192,34367,1,0,0:0:0:0:
448,192,34367,1,0,0:0:0:0:
192,192,34452,1,0,0:0:0:0:
320,192,34538,1,0,0:0:0:0:
448,192,34538,1,0,0:0:0:0:
64,192,34624,1,0,0:0:0:0:
448,192,34624,1,0,0:0:0:0:
192,192,34710,1,0,0:0:0:0:
320,192,34795,1,0,0:0:0:0:
448,192,34795,1,0,0:0:0:0:
64,192,34881,1,0,0:0:0:0:
192,192,34967,1,0,0:0:0:0:
448,192,34967,1,0,0:0:0:0:
64,192,35052,1,0,0:0:0:0:
320,192,35052,1,0,0:0:0:0:
448,192,35052,1,0,0:0:0:0:
192,192,35138,1,0,0:0:0:0:
320,192,35224,1,0,0:0:0:0:
192,192,35310,1,0,0:0:0:0:
64,192,35395,1,0,0:0:0:0:
192,192,35481,1,0,0:0:0:0:
320,192,35567,1,0,0:0:0:0:
192,192,35652,1,0,0:0:0:0:
64,192,35738,1,0,0:0:0:0:
448,192,35738,1,0,0:0:0:0:
192,192,35824,1,0,0:0:0:0:
320,192,35910,1,0,0:0:0:0:
448,192,35910,1,0,0:0:0:0:
64,192,35995,1,0,0:0:0:0:
448,192,35995,1,0,0:0:0:0:
192,192,36081,1,0,0:0:0:0:
320,192,36167,1,0,0:0:0:0:
448,192,36167,1,0,0:0:0:0:
64,192,36252,1,0,0:0:0:0:
448,192,36338,1,0,0:0:0:0:
64,192,36424,1,0,0:0:0:0:
320,192,36424,1,0,0:0:0:0:
192,192,36510,1,0,0:0:0:0:
448,192,36510,1,0,0:0:0:0:
64,192,36595,1,0,0:0:0:0:
320,192,36595,1,0,0:0:0:0:
192,192,36681,1,0,0:0:0:0:
448,192,36681,1,0,0:0:0:0:
64,0,36767,128,0,36938:1:0:0:0:
320,0,36767,128,0,36938:1:0:0:0:
448,0,36767,128,0,36938:1:0:0:0:
64,192,37110,1,0,0:0:0:0:
448,192,37110,1,0,0:0:0:0:
192,192,37195,1,0,0:0:0:0:
320,192,37281,1,0,0:0:0:0:
448,192,37281,1,0,0:0:0:0:
64,192,37367,1,0,0:0:0:0:
448,192,37367,1,0,0:0:0:0:
192,192,37452,1,0,0:0:0:0:
320,192,37538,1,0,0:0:0:0:
448,192,37538,1,0,0:0:0:0:
64,192,37624,1,0,0:0:0:0:
192,192,37710,1,0,0:0:0:0:
448,192,37710,1,0,0:0:0:0:
64,192,37795,1,0,0:0:0:0:
320,192,37795,1,0,0:0:0:0:
448,192,37795,1,0,0:0:0:0:
192,192,37881,1,0,0:0:0:0:
320,192,37967,1,0,0:0:0:0:
192,192,38052,1,0,0:0:0:0:
64,192,38138,1,0,0:0:0:0:
192,192,38224,1,0,0:0:0:0:
320,192,38310,1,0,0:0:0:0:
192,192,38395,1,0,0:0:0:0:
64,192,38481,1,0,0:0:0:0:
448,192,38481,1,0,0:0:0:0:
192,192,38567,1,0,0:0:0:0:
320,192,38652,1,0,0:0:0:0:
448,192,38652,1,0,0:0:0:0:
64,192,38738,1,0,0:0:0:0:
448,192,38738,1,0,0:0:0:0:
192,192,38824,1,0,0:0:0:0:
320,192,38910,1,0,0:0:0:0:
448,192,38910,1,0,0:0:0:0:
64,192,38995,1,0,0:0:0:0:
192,192,39081,1,0,0:0:0:0:
448,192,39081,1,0,0:0:0:0:
64,192,39167,1,0,0:0:0:0:
320,192,39167,1,0,0:0:0:0:
448,192,39167,1,0,0:0:0:0:
192,192,39252,1,0,0:0:0:0:
320,192,39338,1,0,0:0:0:0:
192,192,39424,1,0,0:0:0:0:
64,192,39510,1,0,0:0:0:0:
192,192,39595,1,0,0:0:0:0:
320,192,39681,1,0,0:0:0:0:
192,192,39767,1,0,0:0:0:0:
64,192,39852,1,0,0:0:0:0:
448,192,39852,1,0,0:0:0:0:
192,192,39938,1,0,0:0:0:0:
320,192,40024,1,0,0:0:0:0:
448,192,40024,1,0,0:0:0:0:
64,192,40110,1,0,0:0:0:0:
448,192,40110,1,0,0:0:0:0:
192,192,40195,1,0,0:0:0:0:
320,192,40281,1,0,0:0:0:0:
448,192,40281,1,0,0:0:0:0:
64,192,40367,1,0,0:0:0:0:
192,192,40452,1,0,0:0:0:0:
448,192,40452,1,0,0:0:0:0:
64,192,40538,1,0,0:0:0:0:
320,192,40538,1,0,0:0:0:0:
448,192,40538,1,0,0:0:0:0:
192,192,40624,1,0,0:0:0:0:
320,192,40710,1,0,0:0:0:0:
192,192,40795,1,0,0:0:0:0:
64,192,40881,1,0,0:0:0:0:
192,192,40967,1,0,0:0:0:0:
320,192,41052,1,0,0:0:0:0:
192,192,41138,1,0,0:0:0:0:
64,192,41224,1,0,0:0:0:0:
448,192,41224,1,0,0:0:0:0:
192,192,41310,1,0,0:0:0:0:
320,192,41395,1,0,0:0:0:0:
448,192,41395,1,0,0:0:0:0:
64,192,41481,1,0,0:0:0:0:
448,192,41481,1,0,0:0:0:0:
192,192,41567,1,0,0:0:0:0:
320,192,41652,1,0,0:0:0:0:
448,192,41652,1,0,0:0:0:0:
64,192,41738,1,0,0:0:0:0:
448,192,41824,1,0,0:0:0:0:
64,192,41910,1,0,0:0:0:0:
320,192,41910,1,0,0:0:0:0:
192,192,41995,1,0,0:0:0:0:
448,192,41995,1,0,0:0:0:0:
64,192,42081,1,0,0:0:0:0:
320,192,42081,1,0,0:0:0:0:
192,192,42167,1,0,0:0:0:0:
448,192,42167,1,0,0:0:0:0:
64,0,42252,128,0,42510:1:0:0:0:
320,0,42252,128,0,42510:1:0:0:0:
448,0,42252,128,0,42510:1:0:0:0:
64,192,42595,1,0,0:0:0:0:
192,192,42595,1,0,0:0:0:0:
448,192,42595,1,0,0:0:0:0:
320,192,42681,1,0,0:0:0:0:
192,192,42767,1,0,0:0:0:0:
448,192,42767,1,0,0:0:0:0:
64,192,42852,1,0,0:0:0:0:
448,192,42852,1,0,0:0:0:0:
192,192,42938,1,0,0:0:0:0:
320,192,43024,1,0,0:0:0:0:
448,192,43024,1,0,0:0:0:0:
64,192,43110,1,0,0:0:0:0:
448,192,43110,1,0,0:0:0:0:
192,192,43195,1,0,0:0:0:0:
320,192,43281,1,0,0:0:0:0:
448,192,43281,1,0,0:0:0:0:
64,192,43367,1,0,0:0:0:0:
192,192,43452,1,0,0:0:0:0:
320,192,43538,1,0,0:0:0:0:
448,192,43624,1,0,0:0:0:0:
320,192,43710,1,0,0:0:0:0:
192,192,43795,1,0,0:0:0:0:
64,192,43881,1,0,0:0:0:0:
64,192,43967,1,0,0:0:0:0:
192,192,43967,1,0,0:0:0:0:
448,192,43967,1,0,0:0:0:0:
320,192,44052,1,0,0:0:0:0:
192,192,44138,1,0,0:0:0:0:
448,192,44138,1,0,0:0:0:0:
64,192,44224,1,0,0:0:0:0:
448,192,44224,1,0,0:0:0:0:
192,192,44310,1,0,0:0:0:0:
320,192,44395,1,0,0:0:0:0:
448,192,44395,1,0,0:0:0:0:
64,192,44481,1,0,0:0:0:0:
448,192,44481,1,0,0:0:0:0:
192,192,44567,1,0,0:0:0:0:
320,192,44653,1,0,0:0:0:0:
448,192,44653,1,0,0:0:0:0:
64,192,44738,1,0,0:0:0:0:
192,192,44824,1,0,0:0:0:0:
320,192,44910,1,0,0:0:0:0:
448,192,44995,1,0,0:0:0:0:
320,192,45081,1,0,0:0:0:0:
192,192,45167,1,0,0:0:0:0:
64,192,45253,1,0,0:0:0:0:
64,192,45338,1,0,0:0:0:0:
192,192,45338,1,0,0:0:0:0:
448,192,45338,1,0,0:0:0:0:
320,192,45424,1,0,0:0:0:0:
192,192,45510,1,0,0:0:0:0:
448,192,45510,1,0,0:0:0:0:
64,192,45595,1,0,0:0:0:0:
448,192,45595,1,0,0:0:0:0:
192,192,45681,1,0,0:0:0:0:
320,192,45767,1,0,0:0:0:0:
448,192,45767,1,0,0:0:0:0:
64,192,45853,1,0,0:0:0:0:
448,192,45853,1,0,0:0:0:0:
192,192,45938,1,0,0:0:0:0:
320,192,46024,1,0,0:0:0:0:
448,192,46024,1,0,0:0:0:0:
64,192,46110,1,0,0:0:0:0:
192,192,46195,1,0,0:0:0:0:
320,192,46281,1,0,0:0:0:0:
448,192,46367,1,0,0:0:0:0:
320,192,46453,1,0,0:0:0:0:
192,192,46538,1,0,0:0:0:0:
64,192,46624,1,0,0:0:0:0:
64,192,46710,1,0,0:0:0:0:
192,192,46710,1,0,0:0:0:0:
448,192,46710,1,0,0:0:0:0:
320,192,46795,1,0,0:0:0:0:
192,192,46881,1,0,0:0:0:0:
448,192,46881,1,0,0:0:0:0:
64,192,46967,1,0,0:0:0:0:
448,192,46967,1,0,0:0:0:0:
192,192,47053,1,0,0:0:0:0:
320,192,47138,1,0,0:0:0:0:
448,192,47138,1,0,0:0:0:0:
64,192,47224,1,0,0:0:0:0:
448,192,47224,1,0,0:0:0:0:
320,192,47310,1,0,0:0:0:0:
192,192,47395,1,0,0:0:0:0:
448,192,47395,1,0,0:0:0:0:
64,192,47481,1,0,0:0:0:0:
320,192,47481,1,0,0:0:0:0:
192,192,47567,1,0,0:0:0:0:
448,192,47567,1,0,0:0:0:0:
64,192,47653,1,0,0:0:0:0:
320,192,47653,1,0,0:0:0:0:
64,0,47738,128,0,47910:1:0:0:0:
320,0,47738,128,0,47910:1:0:0:0:
448,0,47738,128,0,47910:1:0:0:0:
64,192,48081,1,0,0:0:0:0:
320,192,48081,1,0,0:0:0:0:
448,192,48081,1,0,0:0:0:0:
192,192,48167,1,0,0:0:0:0:
320,192,48253,1,0,0:0:0:0:
448,192,48253,1,0,0:0:0:0:
64,192,48338,1,0,0:0:0:0:
448,192,48338,1,0,0:0:0:0:
192,192,48424,1,0,0:0:0:0:
320,192,48510,1,0,0:0:0:0:
448,192,48510,1,0,0:0:0:0:
64,192,48595,1,0,0:0:0:0:
448,192,48595,1,0,0:0:0:0:
192,192,48681,1,0,0:0:0:0:
320,192,48767,1,0,0:0:0:0:
448,192,48767,1,0,0:0:0:0:
64,192,48853,1,0,0:0:0:0:
192,192,48938,1,0,0:0:0:0:
320,192,49024,1,0,0:0:0:0:
448,192,49110,1,0,0:0:0:0:
320,192,49195,1,0,0:0:0:0:
192,192,49281,1,0,0:0:0:0:
64,192,49367,1,0,0:0:0:0:
64,192,49453,1,0,0:0:0:0:
320,192,49453,1,0,0:0:0:0:
448,192,49453,1,0,0:0:0:0:
192,192,49538,1,0,0:0:0:0:
320,192,49624,1,0,0:0:0:0:
448,192,49624,1,0,0:0:0:0:
64,192,49710,1,0,0:0:0:0:
448,192,49710,1,0,0:0:0:0:
192,192,49795,1,0,0:0:0:0:
320,192,49881,1,0,0:0:0:0:
448,192,49881,1,0,0:0:0:0:
64,192,49967,1,0,0:0:0:0:
448,192,49967,1,0,0:0:0:0:
192,192,50053,1,0,0:0:0:0:
320,192,50138,1,0,0:0:0:0:
448,192,50138,1,0,0:0:0:0:
64,192,50224,1,0,0:0:0:0:
192,192,50310,1,0,0:0:0:0:
320,192,50395,1,0,0:0:0:0:
448,192,50481,1,0,0:0:0:0:
320,192,50567,1,0,0:0:0:0:
192,192,50653,1,0,0:0:0:0:
64,192,50738,1,0,0:0:0:0:
64,192,50824,1,0,0:0:0:0:
320,192,50824,1,0,0:0:0:0:
448,192,50824,1,0,0:0:0:0:
192,192,50910,1,0,0:0:0:0:
320,192,50995,1,0,0:0:0:0:
448,192,50995,1,0,0:0:0:0:
64,192,51081,1,0,0:0:0:0:
448,192,51081,1,0,0:0:0:0:
192,192,51167,1,0,0:0:0:0:
320,192,51253,1,0,0:0:0:0:
448,192,51253,1,0,0:0:0:0:
64,192,51338,1,0,0:0:0:0:
448,192,51338,1,0,0:0:0:0:
192,192,51424,1,0,0:0:0:0:
320,192,51510,1,0,0:0:0:0:
448,192,51510,1,0,0:0:0:0:
64,192,51595,1,0,0:0:0:0:
192,192,51681,1,0,0:0:0:0:
320,192,51767,1,0,0:0:0:0:
448,192,51853,1,0,0:0:0:0:
320,192,51938,1,0,0:0:0:0:
192,192,52024,1,0,0:0:0:0:
64,192,52110,1,0,0:0:0:0:
64,192,52195,1,0,0:0:0:0:
320,192,52195,1,0,0:0:0:0:
448,192,52195,1,0,0:0:0:0:
192,192,52281,1,0,0:0:0:0:
320,192,52367,1,0,0:0:0:0:
448,192,52367,1,0,0:0:0:0:
64,192,52453,1,0,0:0:0:0:
448,192,52453,1,0,0:0:0:0:
192,192,52538,1,0,0:0:0:0:
320,192,52624,1,0,0:0:0:0:
448,192,52624,1,0,0:0:0:0:
64,192,52710,1,0,0:0:0:0:
192,192,52795,1,0,0:0:0:0:
320,192,52881,1,0,0:0:0:0:
448,192,52881,1,0,0:0:0:0:
64,192,52967,1,0,0:0:0:0:
192,192,52967,1,0,0:0:0:0:
320,192,53053,1,0,0:0:0:0:
448,192,53053,1,0,0:0:0:0:
64,192,53138,1,0,0:0:0:0:
192,192,53138,1,0,0:0:0:0:
64,0,53224,128,0,53395:1:0:0:0:
320,0,53224,128,0,53395:1:0:0:0:
448,0,53224,128,0,53395:1:0:0:0:
64,192,53567,1,0,0:0:0:0:
192,192,53567,1,0,0:0:0:0:
320,192,53567,1,0,0:0:0:0:
448,192,53567,1,0,0:0:0:0:
64,192,53910,1,0,0:0:0:0:
192,192,53910,1,0,0:0:0:0:
320,192,53910,1,0,0:0:0:0:
192,192,54167,1,0,0:0:0:0:
320,192,54167,1,0,0:0:0:0:
448,192,54167,1,0,0:0:0:0:
192,192,54424,1,0,0:0:0:0:
320,192,54424,1,0,0:0:0:0:
448,192,54424,1,0,0:0:0:0:
192,192,54681,1,0,0:0:0:0:
320,192,54681,1,0,0:0:0:0:
448,192,54681,1,0,0:0:0:0:
64,192,54853,1,0,0:0:0:0:
192,192,54853,1,0,0:0:0:0:
448,192,54853,1,0,0:0:0:0:
64,192,55024,1,0,0:0:0:0:
192,192,55024,1,0,0:0:0:0:
320,192,55110,1,0,0:0:0:0:
448,192,55110,1,0,0:0:0:0:
64,192,55195,1,0,0:0:0:0:
192,192,55195,1,0,0:0:0:0:
320,192,55281,1,0,0:0:0:0:
448,192,55281,1,0,0:0:0:0:
64,192,55367,1,0,0:0:0:0:
192,192,55367,1,0,0:0:0:0:
192,192,55453,1,0,0:0:0:0:
320,192,55453,1,0,0:0:0:0:
448,192,55453,1,0,0:0:0:0:
192,192,55881,1,0,0:0:0:0:
320,192,55881,1,0,0:0:0:0:
448,192,55881,1,0,0:0:0:0:
192,192,56053,1,0,0:0:0:0:
320,192,56053,1,0,0:0:0:0:
448,192,56053,1,0,0:0:0:0:
192,192,56224,1,0,0:0:0:0:
320,192,56224,1,0,0:0:0:0:
448,192,56224,1,0,0:0:0:0:
192,192,56310,1,0,0:0:0:0:
320,192,56310,1,0,0:0:0:0:
448,192,56310,1,0,0:0:0:0:
192,192,56481,1,0,0:0:0:0:
320,192,56481,1,0,0:0:0:0:
448,192,56481,1,0,0:0:0:0:
192,192,56567,1,0,0:0:0:0:
320,192,56567,1,0,0:0:0:0:
448,192,56567,1,0,0:0:0:0:
192,192,56738,1,0,0:0:0:0:
320,192,56738,1,0,0:0:0:0:
448,192,56738,1,0,0:0:0:0:
192,192,56824,1,0,0:0:0:0:
320,192,56824,1,0,0:0:0:0:
448,192,56824,1,0,0:0:0:0:
192,192,56910,1,0,0:0:0:0:
320,192,56910,1,0,0:0:0:0:
448,192,56910,1,0,0:0:0:0:
192,192,56995,1,0,0:0:0:0:
320,192,56995,1,0,0:0:0:0:
448,192,56995,1,0,0:0:0:0:
192,192,57081,1,0,0:0:0:0:
320,192,57081,1,0,0:0:0:0:
448,192,57081,1,0,0:0:0:0:
192,192,57167,1,0,0:0:0:0:
320,192,57167,1,0,0:0:0:0:
448,192,57167,1,0,0:0:0:0:
192,192,57253,1,0,0:0:0:0:
320,192,57253,1,0,0:0:0:0:
448,192,57253,1,0,0:0:0:0:
192,192,57338,1,0,0:0:0:0:
320,192,57338,1,0,0:0:0:0:
448,192,57338,1,0,0:0:0:0:
192,192,57424,1,0,0:0:0:0:
320,192,57424,1,0,0:0:0:0:
448,192,57424,1,0,0:0:0:0:
192,192,57510,1,0,0:0:0:0:
320,192,57510,1,0,0:0:0:0:
448,192,57510,1,0,0:0:0:0:
192,192,57595,1,0,0:0:0:0:
320,192,57595,1,0,0:0:0:0:
448,192,57595,1,0,0:0:0:0:
192,192,57681,1,0,0:0:0:0:
320,192,57681,1,0,0:0:0:0:
448,192,57681,1,0,0:0:0:0:
64,192,58367,1,0,0:0:0:0:
192,192,58367,1,0,0:0:0:0:
320,192,58367,1,0,0:0:0:0:
448,192,58367,1,0,0:0:0:0:
64,192,59053,1,0,0:0:0:0:
192,192,59053,1,0,0:0:0:0:
320,192,59053,1,0,0:0:0:0:
448,192,59053,1,0,0:0:0:0:
64,192,59224,1,0,0:0:0:0:
192,192,59395,1,0,0:0:0:0:
320,192,59395,1,0,0:0:0:0:
448,192,59395,1,0,0:0:0:0:
64,192,59567,1,0,0:0:0:0:
192,192,59738,1,0,0:0:0:0:
320,192,59738,1,0,0:0:0:0:
64,192,59910,1,0,0:0:0:0:
192,192,60081,1,0,0:0:0:0:
320,192,60081,1,0,0:0:0:0:
448,192,60081,1,0,0:0:0:0:
64,192,60253,1,0,0:0:0:0:
192,192,60424,1,0,0:0:0:0:
320,192,60424,1,0,0:0:0:0:
64,192,60595,1,0,0:0:0:0:
192,192,60767,1,0,0:0:0:0:
320,192,60767,1,0,0:0:0:0:
448,192,60767,1,0,0:0:0:0:
64,192,60938,1,0,0:0:0:0:
192,192,61110,1,0,0:0:0:0:
320,192,61110,1,0,0:0:0:0:
64,192,61281,1,0,0:0:0:0:
320,192,61281,1,0,0:0:0:0:
64,192,61453,1,0,0:0:0:0:
192,192,61453,1,0,0:0:0:0:
448,192,61453,1,0,0:0:0:0:
320,192,61624,1,0,0:0:0:0:
64,192,61795,1,0,0:0:0:0:
192,192,61795,1,0,0:0:0:0:
448,192,61795,1,0,0:0:0:0:
64,192,61967,1,0,0:0:0:0:
192,192,62138,1,0,0:0:0:0:
320,192,62138,1,0,0:0:0:0:
448,192,62138,1,0,0:0:0:0:
64,192,62310,1,0,0:0:0:0:
192,192,62481,1,0,0:0:0:0:
320,192,62481,1,0,0:0:0:0:
64,192,62653,1,0,0:0:0:0:
192,192,62824,1,0,0:0:0:0:
320,192,62824,1,0,0:0:0:0:
448,192,62824,1,0,0:0:0:0:
64,192,62995,1,0,0:0:0:0:
192,192,63167,1,0,0:0:0:0:
320,192,63167,1,0,0:0:0:0:
64,192,63338,1,0,0:0:0:0:
192,192,63510,1,0,0:0:0:0:
320,192,63510,1,0,0:0:0:0:
448,192,63510,1,0,0:0:0:0:
64,192,63681,1,0,0:0:0:0:
192,192,63853,1,0,0:0:0:0:
320,192,63853,1,0,0:0:0:0:
64,192,64024,1,0,0:0:0:0:
320,192,64024,1,0,0:0:0:0:
64,192,64195,1,0,0:0:0:0:
192,192,64195,1,0,0:0:0:0:
448,192,64195,1,0,0:0:0:0:
320,192,64367,1,0,0:0:0:0:
64,192,64538,1,0,0:0:0:0:
192,192,64538,1,0,0:0:0:0:
448,192,64538,1,0,0:0:0:0:
64,192,64710,1,0,0:0:0:0:
192,192,64881,1,0,0:0:0:0:
320,192,64881,1,0,0:0:0:0:
448,192,64881,1,0,0:0:0:0:
64,192,65053,1,0,0:0:0:0:
192,192,65224,1,0,0:0:0:0:
320,192,65224,1,0,0:0:0:0:
64,192,65395,1,0,0:0:0:0:
192,192,65567,1,0,0:0:0:0:
320,192,65567,1,0,0:0:0:0:
448,192,65567,1,0,0:0:0:0:
64,192,65738,1,0,0:0:0:0:
192,192,65910,1,0,0:0:0:0:
320,192,65910,1,0,0:0:0:0:
64,192,66081,1,0,0:0:0:0:
192,192,66253,1,0,0:0:0:0:
320,192,66253,1,0,0:0:0:0:
448,192,66253,1,0,0:0:0:0:
64,192,66424,1,0,0:0:0:0:
192,192,66596,1,0,0:0:0:0:
320,192,66596,1,0,0:0:0:0:
448,192,66596,1,0,0:0:0:0:
64,192,66767,1,0,0:0:0:0:
320,192,66767,1,0,0:0:0:0:
64,192,66938,1,0,0:0:0:0:
192,192,66938,1,0,0:0:0:0:
448,192,66938,1,0,0:0:0:0:
320,192,67110,1,0,0:0:0:0:
64,192,67281,1,0,0:0:0:0:
192,192,67281,1,0,0:0:0:0:
448,192,67281,1,0,0:0:0:0:
64,192,67453,1,0,0:0:0:0:
192,192,67624,1,0,0:0:0:0:
320,192,67624,1,0,0:0:0:0:
448,192,67624,1,0,0:0:0:0:
64,192,67796,1,0,0:0:0:0:
192,192,67967,1,0,0:0:0:0:
320,192,67967,1,0,0:0:0:0:
64,192,68138,1,0,0:0:0:0:
192,192,68310,1,0,0:0:0:0:
320,192,68310,1,0,0:0:0:0:
448,192,68310,1,0,0:0:0:0:
64,192,68481,1,0,0:0:0:0:
192,192,68653,1,0,0:0:0:0:
320,192,68653,1,0,0:0:0:0:
64,192,68824,1,0,0:0:0:0:
192,192,68996,1,0,0:0:0:0:
320,192,68996,1,0,0:0:0:0:
448,192,68996,1,0,0:0:0:0:
64,192,69167,1,0,0:0:0:0:
192,192,69338,1,0,0:0:0:0:
320,192,69338,1,0,0:0:0:0:
448,192,69338,1,0,0:0:0:0:
64,192,69510,1,0,0:0:0:0:
320,192,69510,1,0,0:0:0:0:
64,192,69681,1,0,0:0:0:0:
192,192,69681,1,0,0:0:0:0:
448,192,69681,1,0,0:0:0:0:
320,192,69853,1,0,0:0:0:0:
448,192,69853,1,0,0:0:0:0:
64,192,70024,1,0,0:0:0:0:
192,192,70024,1,0,0:0:0:0:
320,192,70024,1,0,0:0:0:0:
448,192,70024,1,0,0:0:0:0:
192,192,70196,1,0,0:0:0:0:
320,192,70196,1,0,0:0:0:0:
448,192,70196,1,0,0:0:0:0:
192,192,70367,1,0,0:0:0:0:
320,192,70367,1,0,0:0:0:0:
448,192,70367,1,0,0:0:0:0:
64,192,70538,1,0,0:0:0:0:
320,192,70538,1,0,0:0:0:0:
448,192,70538,1,0,0:0:0:0:
192,192,70710,1,0,0:0:0:0:
320,192,70710,1,0,0:0:0:0:
448,192,70710,1,0,0:0:0:0:
64,192,70881,1,0,0:0:0:0:
192,192,70881,1,0,0:0:0:0:
448,192,70881,1,0,0:0:0:0:
192,192,71053,1,0,0:0:0:0:
320,192,71053,1,0,0:0:0:0:
448,192,71053,1,0,0:0:0:0:
64,192,71224,1,0,0:0:0:0:
320,192,71224,1,0,0:0:0:0:
448,192,71224,1,0,0:0:0:0:
192,192,71396,1,0,0:0:0:0:
320,192,71396,1,0,0:0:0:0:
448,192,71396,1,0,0:0:0:0:
64,192,71567,1,0,0:0:0:0:
192,192,71567,1,0,0:0:0:0:
320,192,71567,1,0,0:0:0:0:
448,192,71567,1,0,0:0:0:0:
192,192,71738,1,0,0:0:0:0:
320,192,71738,1,0,0:0:0:0:
448,192,71738,1,0,0:0:0:0:
64,192,71910,1,0,0:0:0:0:
320,192,71910,1,0,0:0:0:0:
448,192,71910,1,0,0:0:0:0:
64,192,72081,1,0,0:0:0:0:
192,192,72081,1,0,0:0:0:0:
320,192,72081,1,0,0:0:0:0:
448,192,72081,1,0,0:0:0:0:
64,192,72253,1,0,0:0:0:0:
448,192,72253,1,0,0:0:0:0:
320,192,72338,1,0,0:0:0:0:
64,192,72424,1,0,0:0:0:0:
192,192,72424,1,0,0:0:0:0:
448,192,72424,1,0,0:0:0:0:
192,192,72595,1,0,0:0:0:0:
320,192,72595,1,0,0:0:0:0:
64,192,72767,1,0,0:0:0:0:
192,192,72767,1,0,0:0:0:0:
320,192,72767,1,0,0:0:0:0:
448,192,72767,1,0,0:0:0:0:
192,192,72938,1,0,0:0:0:0:
320,192,72938,1,0,0:0:0:0:
448,192,72938,1,0,0:0:0:0:
192,192,73110,1,0,0:0:0:0:
320,192,73110,1,0,0:0:0:0:
448,192,73110,1,0,0:0:0:0:
64,192,73281,1,0,0:0:0:0:
320,192,73281,1,0,0:0:0:0:
448,192,73281,1,0,0:0:0:0:
192,192,73453,1,0,0:0:0:0:
320,192,73453,1,0,0:0:0:0:
448,192,73453,1,0,0:0:0:0:
64,192,73624,1,0,0:0:0:0:
192,192,73624,1,0,0:0:0:0:
448,192,73624,1,0,0:0:0:0:
192,192,73795,1,0,0:0:0:0:
320,192,73795,1,0,0:0:0:0:
448,192,73795,1,0,0:0:0:0:
64,192,73967,1,0,0:0:0:0:
320,192,73967,1,0,0:0:0:0:
448,192,73967,1,0,0:0:0:0:
192,192,74138,1,0,0:0:0:0:
320,192,74138,1,0,0:0:0:0:
448,192,74138,1,0,0:0:0:0:
64,192,74310,1,0,0:0:0:0:
192,192,74310,1,0,0:0:0:0:
320,192,74310,1,0,0:0:0:0:
448,192,74310,1,0,0:0:0:0:
192,192,74481,1,0,0:0:0:0:
320,192,74481,1,0,0:0:0:0:
448,192,74481,1,0,0:0:0:0:
64,192,74653,1,0,0:0:0:0:
320,192,74653,1,0,0:0:0:0:
448,192,74653,1,0,0:0:0:0:
64,192,74824,1,0,0:0:0:0:
192,192,74824,1,0,0:0:0:0:
320,192,74824,1,0,0:0:0:0:
448,192,74824,1,0,0:0:0:0:
192,192,74995,1,0,0:0:0:0:
448,192,74995,1,0,0:0:0:0:
320,192,75081,1,0,0:0:0:0:
64,192,75167,1,0,0:0:0:0:
192,192,75167,1,0,0:0:0:0:
448,192,75167,1,0,0:0:0:0:
64,192,75510,1,0,0:0:0:0:
192,192,75510,1,0,0:0:0:0:
320,192,75510,1,0,0:0:0:0:
448,192,75510,1,0,0:0:0:0:
64,192,75681,1,0,0:0:0:0:
192,192,75853,1,0,0:0:0:0:
320,192,75853,1,0,0:0:0:0:
448,192,75853,1,0,0:0:0:0:
64,192,76024,1,0,0:0:0:0:
192,192,76195,1,0,0:0:0:0:
320,192,76195,1,0,0:0:0:0:
64,192,76367,1,0,0:0:0:0:
192,192,76538,1,0,0:0:0:0:
320,192,76538,1,0,0:0:0:0:
448,192,76538,1,0,0:0:0:0:
64,192,76710,1,0,0:0:0:0:
192,192,76881,1,0,0:0:0:0:
320,192,76881,1,0,0:0:0:0:
64,192,77053,1,0,0:0:0:0:
192,192,77224,1,0,0:0:0:0:
320,192,77224,1,0,0:0:0:0:
448,192,77224,1,0,0:0:0:0:
64,192,77395,1,0,0:0:0:0:
192,192,77567,1,0,0:0:0:0:
320,192,77567,1,0,0:0:0:0:
64,192,77738,1,0,0:0:0:0:
320,192,77738,1,0,0:0:0:0:
64,192,77910,1,0,0:0:0:0:
192,192,77910,1,0,0:0:0:0:
448,192,77910,1,0,0:0:0:0:
320,192,78081,1,0,0:0:0:0:
64,192,78253,1,0,0:0:0:0:
192,192,78253,1,0,0:0:0:0:
448,192,78253,1,0,0:0:0:0:
64,192,78424,1,0,0:0:0:0:
192,192,78595,1,0,0:0:0:0:
320,192,78595,1,0,0:0:0:0:
448,192,78595,1,0,0:0:0:0:
64,192,78767,1,0,0:0:0:0:
192,192,78938,1,0,0:0:0:0:
320,192,78938,1,0,0:0:0:0:
64,192,79110,1,0,0:0:0:0:
192,192,79281,1,0,0:0:0:0:
320,192,79281,1,0,0:0:0:0:
448,192,79281,1,0,0:0:0:0:
64,192,79453,1,0,0:0:0:0:
192,192,79624,1,0,0:0:0:0:
320,192,79624,1,0,0:0:0:0:
64,192,79795,1,0,0:0:0:0:
192,192,79967,1,0,0:0:0:0:
320,192,79967,1,0,0:0:0:0:
448,192,79967,1,0,0:0:0:0:
64,192,80138,1,0,0:0:0:0:
192,192,80310,1,0,0:0:0:0:
320,192,80310,1,0,0:0:0:0:
448,192,80310,1,0,0:0:0:0:
192,192,80481,1,0,0:0:0:0:
448,192,80481,1,0,0:0:0:0:
64,192,80653,1,0,0:0:0:0:
192,192,80653,1,0,0:0:0:0:
448,192,80653,1,0,0:0:0:0:
192,192,80824,1,0,0:0:0:0:
320,192,80824,1,0,0:0:0:0:
64,192,80995,1,0,0:0:0:0:
192,192,80995,1,0,0:0:0:0:
320,192,80995,1,0,0:0:0:0:
448,192,80995,1,0,0:0:0:0:
192,192,81167,1,0,0:0:0:0:
320,192,81167,1,0,0:0:0:0:
448,192,81167,1,0,0:0:0:0:
192,192,81338,1,0,0:0:0:0:
320,192,81338,1,0,0:0:0:0:
448,192,81338,1,0,0:0:0:0:
64,192,81510,1,0,0:0:0:0:
320,192,81510,1,0,0:0:0:0:
448,192,81510,1,0,0:0:0:0:
192,192,81681,1,0,0:0:0:0:
320,192,81681,1,0,0:0:0:0:
448,192,81681,1,0,0:0:0:0:
64,192,81853,1,0,0:0:0:0:
192,192,81853,1,0,0:0:0:0:
448,192,81853,1,0,0:0:0:0:
192,192,82024,1,0,0:0:0:0:
320,192,82024,1,0,0:0:0:0:
448,192,82024,1,0,0:0:0:0:
64,192,82195,1,0,0:0:0:0:
320,192,82195,1,0,0:0:0:0:
448,192,82195,1,0,0:0:0:0:
192,192,82367,1,0,0:0:0:0:
320,192,82367,1,0,0:0:0:0:
448,192,82367,1,0,0:0:0:0:
64,192,82538,1,0,0:0:0:0:
192,192,82538,1,0,0:0:0:0:
320,192,82538,1,0,0:0:0:0:
448,192,82538,1,0,0:0:0:0:
192,192,82710,1,0,0:0:0:0:
320,192,82710,1,0,0:0:0:0:
448,192,82710,1,0,0:0:0:0:
64,192,82881,1,0,0:0:0:0:
320,192,82881,1,0,0:0:0:0:
448,192,82881,1,0,0:0:0:0:
64,192,83053,1,0,0:0:0:0:
192,192,83053,1,0,0:0:0:0:
320,192,83053,1,0,0:0:0:0:
448,192,83053,1,0,0:0:0:0:
64,192,83224,1,0,0:0:0:0:
448,192,83224,1,0,0:0:0:0:
320,192,83310,1,0,0:0:0:0:
64,192,83395,1,0,0:0:0:0:
192,192,83395,1,0,0:0:0:0:
448,192,83395,1,0,0:0:0:0:
192,192,83567,1,0,0:0:0:0:
320,192,83567,1,0,0:0:0:0:
64,192,83738,1,0,0:0:0:0:
192,192,83738,1,0,0:0:0:0:
320,192,83738,1,0,0:0:0:0:
448,192,83738,1,0,0:0:0:0:
192,192,83910,1,0,0:0:0:0:
320,192,83910,1,0,0:0:0:0:
448,192,83910,1,0,0:0:0:0:
192,192,84081,1,0,0:0:0:0:
320,192,84081,1,0,0:0:0:0:
448,192,84081,1,0,0:0:0:0:
64,192,84253,1,0,0:0:0:0:
320,192,84253,1,0,0:0:0:0:
448,192,84253,1,0,0:0:0:0:
192,192,84424,1,0,0:0:0:0:
320,192,84424,1,0,0:0:0:0:
448,192,84424,1,0,0:0:0:0:
64,192,84595,1,0,0:0:0:0:
192,192,84595,1,0,0:0:0:0:
448,192,84595,1,0,0:0:0:0:
192,192,84767,1,0,0:0:0:0:
320,192,84767,1,0,0:0:0:0:
448,192,84767,1,0,0:0:0:0:
64,192,84938,1,0,0:0:0:0:
320,192,84938,1,0,0:0:0:0:
448,192,84938,1,0,0:0:0:0:
192,192,85110,1,0,0:0:0:0:
320,192,85110,1,0,0:0:0:0:
448,192,85110,1,0,0:0:0:0:
64,192,85281,1,0,0:0:0:0:
192,192,85281,1,0,0:0:0:0:
320,192,85281,1,0,0:0:0:0:
448,192,85281,1,0,0:0:0:0:
192,192,85453,1,0,0:0:0:0:
320,192,85453,1,0,0:0:0:0:
448,192,85453,1,0,0:0:0:0:
64,192,85624,1,0,0:0:0:0:
320,192,85624,1,0,0:0:0:0:
448,192,85624,1,0,0:0:0:0:
64,192,85795,1,0,0:0:0:0:
192,192,85795,1,0,0:0:0:0:
320,192,85795,1,0,0:0:0:0:
448,192,85795,1,0,0:0:0:0:
192,192,85967,1,0,0:0:0:0:
448,192,85967,1,0,0:0:0:0:
320,192,86053,1,0,0:0:0:0:
64,192,86138,1,0,0:0:0:0:
192,192,86138,1,0,0:0:0:0:
448,192,86138,1,0,0:0:0:0:
64,192,86481,1,0,0:0:0:0:
192,192,86481,1,0,0:0:0:0:
320,192,86481,1,0,0:0:0:0:
448,192,86481,1,0,0:0:0:0:
64,192,86653,1,0,0:0:0:0:
192,192,86824,1,0,0:0:0:0:
320,192,86824,1,0,0:0:0:0:
448,192,86824,1,0,0:0:0:0:
64,192,86995,1,0,0:0:0:0:
192,192,87167,1,0,0:0:0:0:
320,192,87167,1,0,0:0:0:0:
64,192,87338,1,0,0:0:0:0:
192,192,87510,1,0,0:0:0:0:
320,192,87510,1,0,0:0:0:0:
448,192,87510,1,0,0:0:0:0:
64,192,87681,1,0,0:0:0:0:
192,192,87853,1,0,0:0:0:0:
320,192,87853,1,0,0:0:0:0:
64,192,88024,1,0,0:0:0:0:
192,192,88195,1,0,0:0:0:0:
320,192,88195,1,0,0:0:0:0:
448,192,88195,1,0,0:0:0:0:
64,192,88367,1,0,0:0:0:0:
192,192,88538,1,0,0:0:0:0:
320,192,88538,1,0,0:0:0:0:
64,192,88710,1,0,0:0:0:0:
320,192,88710,1,0,0:0:0:0:
64,192,88881,1,0,0:0:0:0:
192,192,88881,1,0,0:0:0:0:
448,192,88881,1,0,0:0:0:0:
320,192,89053,1,0,0:0:0:0:
64,192,89224,1,0,0:0:0:0:
192,192,89224,1,0,0:0:0:0:
448,192,89224,1,0,0:0:0:0:
64,192,89395,1,0,0:0:0:0:
192,192,89567,1,0,0:0:0:0:
320,192,89567,1,0,0:0:0:0:
448,192,89567,1,0,0:0:0:0:
64,192,89738,1,0,0:0:0:0:
192,192,89910,1,0,0:0:0:0:
320,192,89910,1,0,0:0:0:0:
64,192,90081,1,0,0:0:0:0:
192,192,90253,1,0,0:0:0:0:
320,192,90253,1,0,0:0:0:0:
448,192,90253,1,0,0:0:0:0:
64,192,90424,1,0,0:0:0:0:
192,192,90595,1,0,0:0:0:0:
320,192,90595,1,0,0:0:0:0:
64,192,90767,1,0,0:0:0:0:
192,192,90938,1,0,0:0:0:0:
320,192,90938,1,0,0:0:0:0:
448,192,90938,1,0,0:0:0:0:
64,192,91110,1,0,0:0:0:0:
192,192,91281,1,0,0:0:0:0:
320,192,91281,1,0,0:0:0:0:
448,192,91281,1,0,0:0:0:0:
64,192,91453,1,0,0:0:0:0:
192,192,91453,1,0,0:0:0:0:
64,192,91624,1,0,0:0:0:0:
192,192,91624,1,0,0:0:0:0:
448,192,91624,1,0,0:0:0:0:
192,192,91795,1,0,0:0:0:0:
320,192,91795,1,0,0:0:0:0:
64,192,91967,1,0,0:0:0:0:
192,192,91967,1,0,0:0:0:0:
320,192,91967,1,0,0:0:0:0:
448,192,91967,1,0,0:0:0:0:
192,192,92138,1,0,0:0:0:0:
320,192,92138,1,0,0:0:0:0:
448,192,92138,1,0,0:0:0:0:
192,192,92310,1,0,0:0:0:0:
320,192,92310,1,0,0:0:0:0:
448,192,92310,1,0,0:0:0:0:
64,192,92481,1,0,0:0:0:0:
320,192,92481,1,0,0:0:0:0:
448,192,92481,1,0,0:0:0:0:
192,192,92653,1,0,0:0:0:0:
320,192,92653,1,0,0:0:0:0:
448,192,92653,1,0,0:0:0:0:
64,192,92824,1,0,0:0:0:0:
192,192,92824,1,0,0:0:0:0:
448,192,92824,1,0,0:0:0:0:
192,192,92995,1,0,0:0:0:0:
320,192,92995,1,0,0:0:0:0:
448,192,92995,1,0,0:0:0:0:
64,192,93167,1,0,0:0:0:0:
320,192,93167,1,0,0:0:0:0:
448,192,93167,1,0,0:0:0:0:
192,192,93338,1,0,0:0:0:0:
320,192,93338,1,0,0:0:0:0:
448,192,93338,1,0,0:0:0:0:
64,192,93510,1,0,0:0:0:0:
192,192,93510,1,0,0:0:0:0:
320,192,93510,1,0,0:0:0:0:
448,192,93510,1,0,0:0:0:0:
192,192,93681,1,0,0:0:0:0:
320,192,93681,1,0,0:0:0:0:
448,192,93681,1,0,0:0:0:0:
64,192,93853,1,0,0:0:0:0:
320,192,93853,1,0,0:0:0:0:
448,192,93853,1,0,0:0:0:0:
64,192,94024,1,0,0:0:0:0:
192,192,94024,1,0,0:0:0:0:
320,192,94024,1,0,0:0:0:0:
448,192,94024,1,0,0:0:0:0:
64,192,94195,1,0,0:0:0:0:
448,192,94195,1,0,0:0:0:0:
320,192,94281,1,0,0:0:0:0:
64,192,94367,1,0,0:0:0:0:
192,192,94367,1,0,0:0:0:0:
448,192,94367,1,0,0:0:0:0:
192,192,94538,1,0,0:0:0:0:
320,192,94538,1,0,0:0:0:0:
64,192,94710,1,0,0:0:0:0:
192,192,94710,1,0,0:0:0:0:
320,192,94710,1,0,0:0:0:0:
448,192,94710,1,0,0:0:0:0:
192,192,94881,1,0,0:0:0:0:
320,192,94881,1,0,0:0:0:0:
448,192,94881,1,0,0:0:0:0:
192,192,95053,1,0,0:0:0:0:
320,192,95053,1,0,0:0:0:0:
448,192,95053,1,0,0:0:0:0:
64,192,95224,1,0,0:0:0:0:
320,192,95224,1,0,0:0:0:0:
448,192,95224,1,0,0:0:0:0:
192,192,95395,1,0,0:0:0:0:
320,192,95395,1,0,0:0:0:0:
448,192,95395,1,0,0:0:0:0:
64,192,95567,1,0,0:0:0:0:
192,192,95567,1,0,0:0:0:0:
448,192,95567,1,0,0:0:0:0:
192,192,95738,1,0,0:0:0:0:
320,192,95738,1,0,0:0:0:0:
448,192,95738,1,0,0:0:0:0:
64,192,95910,1,0,0:0:0:0:
320,192,95910,1,0,0:0:0:0:
448,192,95910,1,0,0:0:0:0:
192,192,96081,1,0,0:0:0:0:
320,192,96081,1,0,0:0:0:0:
448,192,96081,1,0,0:0:0:0:
64,192,96253,1,0,0:0:0:0:
192,192,96253,1,0,0:0:0:0:
320,192,96253,1,0,0:0:0:0:
448,192,96253,1,0,0:0:0:0:
192,192,96424,1,0,0:0:0:0:
320,192,96424,1,0,0:0:0:0:
448,192,96424,1,0,0:0:0:0:
64,192,96595,1,0,0:0:0:0:
320,192,96595,1,0,0:0:0:0:
448,192,96595,1,0,0:0:0:0:
64,192,96767,1,0,0:0:0:0:
192,192,96767,1,0,0:0:0:0:
320,192,96767,1,0,0:0:0:0:
448,192,96767,1,0,0:0:0:0:
64,192,96938,1,0,0:0:0:0:
192,192,96938,1,0,0:0:0:0:
320,192,97024,1,0,0:0:0:0:
64,192,97110,1,0,0:0:0:0:
192,192,97110,1,0,0:0:0:0:
448,192,97110,1,0,0:0:0:0:
192,192,97195,1,0,0:0:0:0:
448,192,97195,1,0,0:0:0:0:
64,192,97281,1,0,0:0:0:0:
320,192,97281,1,0,0:0:0:0:
192,192,97367,1,0,0:0:0:0:
448,192,97367,1,0,0:0:0:0:
64,192,97452,1,0,0:0:0:0:
192,192,97452,1,0,0:0:0:0:
320,192,97452,1,0,0:0:0:0:
448,192,97452,1,0,0:0:0:0:
320,192,97624,1,0,0:0:0:0:
448,192,97624,1,0,0:0:0:0:
64,192,97710,1,0,0:0:0:0:
192,192,97710,1,0,0:0:0:0:
320,192,97795,1,0,0:0:0:0:
448,192,97795,1,0,0:0:0:0:
64,192,97881,1,0,0:0:0:0:
192,192,97881,1,0,0:0:0:0:
320,192,97967,1,0,0:0:0:0:
448,192,97967,1,0,0:0:0:0:
64,192,98052,1,0,0:0:0:0:
192,192,98052,1,0,0:0:0:0:
320,192,98138,1,0,0:0:0:0:
448,192,98138,1,0,0:0:0:0:
64,192,98224,1,0,0:0:0:0:
192,192,98224,1,0,0:0:0:0:
320,192,98310,1,0,0:0:0:0:
448,192,98310,1,0,0:0:0:0:
64,192,98395,1,0,0:0:0:0:
192,192,98395,1,0,0:0:0:0:
320,192,98481,1,0,0:0:0:0:
448,192,98481,1,0,0:0:0:0:
64,192,98567,1,0,0:0:0:0:
192,192,98567,1,0,0:0:0:0:
320,192,98652,1,0,0:0:0:0:
448,192,98652,1,0,0:0:0:0:
64,192,98738,1,0,0:0:0:0:
192,192,98738,1,0,0:0:0:0:
320,192,98824,1,0,0:0:0:0:
448,192,98824,1,0,0:0:0:0:
64,192,98910,1,0,0:0:0:0:
192,192,98910,1,0,0:0:0:0:
320,192,98995,1,0,0:0:0:0:
448,192,98995,1,0,0:0:0:0:
64,192,99081,1,0,0:0:0:0:
192,192,99081,1,0,0:0:0:0:
320,192,99167,1,0,0:0:0:0:
448,192,99167,1,0,0:0:0:0:
64,192,99252,1,0,0:0:0:0:
192,192,99252,1,0,0:0:0:0:
320,192,99338,1,0,0:0:0:0:
448,192,99338,1,0,0:0:0:0:
64,192,99424,1,0,0:0:0:0:
192,192,99424,1,0,0:0:0:0:
320,192,99510,1,0,0:0:0:0:
448,192,99510,1,0,0:0:0:0:
64,192,99595,1,0,0:0:0:0:
192,192,99595,1,0,0:0:0:0:
320,192,99681,1,0,0:0:0:0:
448,192,99681,1,0,0:0:0:0:
64,192,99767,1,0,0:0:0:0:
192,192,99767,1,0,0:0:0:0:
320,192,99852,1,0,0:0:0:0:
448,192,99852,1,0,0:0:0:0:
64,192,99938,1,0,0:0:0:0:
192,192,99938,1,0,0:0:0:0:
320,192,100024,1,0,0:0:0:0:
448,192,100024,1,0,0:0:0:0:
64,192,100109,1,0,0:0:0:0:
192,192,100109,1,0,0:0:0:0:
320,192,100195,1,0,0:0:0:0:
448,192,100195,1,0,0:0:0:0:
64,192,100281,1,0,0:0:0:0:
192,192,100281,1,0,0:0:0:0:
320,192,100367,1,0,0:0:0:0:
448,192,100367,1,0,0:0:0:0:
64,192,100452,1,0,0:0:0:0:
192,192,100452,1,0,0:0:0:0:
320,192,100538,1,0,0:0:0:0:
448,192,100538,1,0,0:0:0:0:
64,192,100624,1,0,0:0:0:0:
192,192,100624,1,0,0:0:0:0:
320,192,100709,1,0,0:0:0:0:
448,192,100709,1,0,0:0:0:0:
64,192,100795,1,0,0:0:0:0:
192,192,100795,1,0,0:0:0:0:
320,192,100881,1,0,0:0:0:0:
448,192,100881,1,0,0:0:0:0:
64,192,100967,1,0,0:0:0:0:
192,192,100967,1,0,0:0:0:0:
320,192,101052,1,0,0:0:0:0:
448,192,101052,1,0,0:0:0:0:
64,192,101138,1,0,0:0:0:0:
192,192,101138,1,0,0:0:0:0:
320,192,101224,1,0,0:0:0:0:
448,192,101224,1,0,0:0:0:0:
64,192,101309,1,0,0:0:0:0:
192,192,101309,1,0,0:0:0:0:
320,192,101395,1,0,0:0:0:0:
448,192,101395,1,0,0:0:0:0:
64,192,101481,1,0,0:0:0:0:
192,192,101481,1,0,0:0:0:0:
320,192,101567,1,0,0:0:0:0:
448,192,101567,1,0,0:0:0:0:
64,192,101652,1,0,0:0:0:0:
192,192,101652,1,0,0:0:0:0:
320,192,101738,1,0,0:0:0:0:
448,192,101738,1,0,0:0:0:0:
64,192,101824,1,0,0:0:0:0:
192,192,101824,1,0,0:0:0:0:
320,192,101909,1,0,0:0:0:0:
448,192,101909,1,0,0:0:0:0:
64,192,101995,1,0,0:0:0:0:
192,192,101995,1,0,0:0:0:0:
320,192,102081,1,0,0:0:0:0:
448,192,102081,1,0,0:0:0:0:
64,192,102167,1,0,0:0:0:0:
192,192,102167,1,0,0:0:0:0:
320,192,102252,1,0,0:0:0:0:
448,192,102252,1,0,0:0:0:0:
64,192,102338,1,0,0:0:0:0:
192,192,102338,1,0,0:0:0:0:
320,192,102424,1,0,0:0:0:0:
448,192,102424,1,0,0:0:0:0:
64,192,102509,1,0,0:0:0:0:
192,192,102509,1,0,0:0:0:0:
320,192,102595,1,0,0:0:0:0:
448,192,102595,1,0,0:0:0:0:
64,192,102681,1,0,0:0:0:0:
192,192,102681,1,0,0:0:0:0:
320,192,102767,1,0,0:0:0:0:
448,192,102767,1,0,0:0:0:0:
64,192,102852,1,0,0:0:0:0:
192,192,102852,1,0,0:0:0:0:
64,0,102938,128,0,108252:1:0:0:0:
192,0,102938,128,0,108252:1:0:0:0:
320,0,102938,128,0,108252:1:0:0:0:
448,0,102938,128,0,108252:1:0:0:0:
320,192,108424,1,0,0:0:0:0:
448,192,108767,1,0,0:0:0:0:
320,192,109109,1,0,0:0:0:0:
448,192,109452,1,0,0:0:0:0:
448,192,109624,1,0,0:0:0:0:
320,192,109795,1,0,0:0:0:0:
448,192,109967,1,0,0:0:0:0:
320,192,110138,1,0,0:0:0:0:
64,192,110224,1,0,0:0:0:0:
64,192,110566,1,0,0:0:0:0:
64,192,110824,1,0,0:0:0:0:
320,192,111166,1,0,0:0:0:0:
64,192,111252,1,0,0:0:0:0:
320,192,111424,1,0,0:0:0:0:
192,192,111595,1,0,0:0:0:0:
192,192,111766,1,0,0:0:0:0:
448,192,111852,1,0,0:0:0:0:
320,192,112024,1,0,0:0:0:0:
192,192,112109,1,0,0:0:0:0:
64,192,112195,1,0,0:0:0:0:
64,192,112366,1,0,0:0:0:0:
64,192,112538,1,0,0:0:0:0:
448,192,112624,1,0,0:0:0:0:
448,192,112795,1,0,0:0:0:0:
64,192,112881,1,0,0:0:0:0:
192,192,113052,1,0,0:0:0:0:
448,192,113138,1,0,0:0:0:0:
448,192,113309,1,0,0:0:0:0:
192,192,113395,1,0,0:0:0:0:
192,192,113566,1,0,0:0:0:0:
320,192,113652,1,0,0:0:0:0:
448,192,113738,1,0,0:0:0:0:
192,192,113823,1,0,0:0:0:0:
320,192,113909,1,0,0:0:0:0:
448,192,114252,1,0,0:0:0:0:
320,192,114595,1,0,0:0:0:0:
448,192,114938,1,0,0:0:0:0:
448,192,115109,1,0,0:0:0:0:
320,192,115281,1,0,0:0:0:0:
448,192,115452,1,0,0:0:0:0:
320,192,115623,1,0,0:0:0:0:
64,192,115709,1,0,0:0:0:0:
64,192,116052,1,0,0:0:0:0:
448,192,116309,1,0,0:0:0:0:
64,192,116652,1,0,0:0:0:0:
320,192,116738,1,0,0:0:0:0:
320,192,116909,1,0,0:0:0:0:
448,192,117081,1,0,0:0:0:0:
448,192,117252,1,0,0:0:0:0:
64,192,117338,1,0,0:0:0:0:
64,192,117509,1,0,0:0:0:0:
192,192,117595,1,0,0:0:0:0:
448,192,117680,1,0,0:0:0:0:
320,192,117852,1,0,0:0:0:0:
448,192,118023,1,0,0:0:0:0:
320,192,118109,1,0,0:0:0:0:
320,192,118280,1,0,0:0:0:0:
448,192,118366,1,0,0:0:0:0:
448,192,118538,1,0,0:0:0:0:
320,192,118623,1,0,0:0:0:0:
320,192,118795,1,0,0:0:0:0:
64,192,118880,1,0,0:0:0:0:
64,192,119052,1,0,0:0:0:0:
320,192,119138,1,0,0:0:0:0:
192,192,119223,1,0,0:0:0:0:
320,192,119309,1,0,0:0:0:0:
64,192,119395,1,0,0:0:0:0:
448,192,119395,1,0,0:0:0:0:
192,192,119480,1,0,0:0:0:0:
320,192,119566,1,0,0:0:0:0:
64,192,119652,1,0,0:0:0:0:
320,192,119738,1,0,0:0:0:0:
448,192,119738,1,0,0:0:0:0:
448,192,120080,1,0,0:0:0:0:
320,192,120423,1,0,0:0:0:0:
448,192,120423,1,0,0:0:0:0:
320,192,120595,1,0,0:0:0:0:
448,192,120595,1,0,0:0:0:0:
192,192,120766,1,0,0:0:0:0:
448,192,120766,1,0,0:0:0:0:
192,192,120938,1,0,0:0:0:0:
448,192,120938,1,0,0:0:0:0:
320,192,121109,1,0,0:0:0:0:
448,192,121109,1,0,0:0:0:0:
64,192,121195,1,0,0:0:0:0:
192,192,121195,1,0,0:0:0:0:
64,192,121537,1,0,0:0:0:0:
192,192,121537,1,0,0:0:0:0:
64,192,121795,1,0,0:0:0:0:
192,192,121795,1,0,0:0:0:0:
64,192,122137,1,0,0:0:0:0:
192,192,122137,1,0,0:0:0:0:
320,192,122223,1,0,0:0:0:0:
448,192,122223,1,0,0:0:0:0:
320,192,122395,1,0,0:0:0:0:
448,192,122395,1,0,0:0:0:0:
64,192,122566,1,0,0:0:0:0:
192,192,122566,1,0,0:0:0:0:
64,192,122737,1,0,0:0:0:0:
192,192,122737,1,0,0:0:0:0:
320,192,122823,1,0,0:0:0:0:
448,192,122823,1,0,0:0:0:0:
64,192,122995,1,0,0:0:0:0:
192,192,123080,1,0,0:0:0:0:
320,192,123166,1,0,0:0:0:0:
448,192,123166,1,0,0:0:0:0:
320,192,123337,1,0,0:0:0:0:
448,192,123337,1,0,0:0:0:0:
64,192,123509,1,0,0:0:0:0:
192,192,123509,1,0,0:0:0:0:
320,192,123595,1,0,0:0:0:0:
448,192,123595,1,0,0:0:0:0:
320,192,123766,1,0,0:0:0:0:
448,192,123766,1,0,0:0:0:0:
64,192,123852,1,0,0:0:0:0:
192,192,123852,1,0,0:0:0:0:
192,192,124023,1,0,0:0:0:0:
320,192,124023,1,0,0:0:0:0:
320,192,124109,1,0,0:0:0:0:
448,192,124109,1,0,0:0:0:0:
320,192,124280,1,0,0:0:0:0:
448,192,124280,1,0,0:0:0:0:
64,192,124366,1,0,0:0:0:0:
192,192,124366,1,0,0:0:0:0:
64,192,124537,1,0,0:0:0:0:
192,192,124623,1,0,0:0:0:0:
320,192,124709,1,0,0:0:0:0:
64,192,124794,1,0,0:0:0:0:
192,192,124880,1,0,0:0:0:0:
448,192,124880,1,0,0:0:0:0:
320,192,125052,1,0,0:0:0:0:
320,192,125223,1,0,0:0:0:0:
448,192,125223,1,0,0:0:0:0:
320,192,125566,1,0,0:0:0:0:
448,192,125566,1,0,0:0:0:0:
320,192,125909,1,0,0:0:0:0:
448,192,125909,1,0,0:0:0:0:
320,192,126080,1,0,0:0:0:0:
448,192,126080,1,0,0:0:0:0:
192,192,126252,1,0,0:0:0:0:
448,192,126252,1,0,0:0:0:0:
192,192,126423,1,0,0:0:0:0:
448,192,126423,1,0,0:0:0:0:
192,192,126594,1,0,0:0:0:0:
320,192,126594,1,0,0:0:0:0:
64,192,126680,1,0,0:0:0:0:
192,192,126680,1,0,0:0:0:0:
64,192,127023,1,0,0:0:0:0:
192,192,127023,1,0,0:0:0:0:
64,192,127280,1,0,0:0:0:0:
192,192,127280,1,0,0:0:0:0:
64,192,127623,1,0,0:0:0:0:
192,192,127623,1,0,0:0:0:0:
320,192,127709,1,0,0:0:0:0:
448,192,127709,1,0,0:0:0:0:
192,192,127880,1,0,0:0:0:0:
320,192,127880,1,0,0:0:0:0:
320,192,128052,1,0,0:0:0:0:
448,192,128052,1,0,0:0:0:0:
320,192,128223,1,0,0:0:0:0:
448,192,128223,1,0,0:0:0:0:
64,192,128309,1,0,0:0:0:0:
192,192,128309,1,0,0:0:0:0:
64,192,128480,1,0,0:0:0:0:
192,192,128566,1,0,0:0:0:0:
320,192,128651,1,0,0:0:0:0:
448,192,128651,1,0,0:0:0:0:
320,192,128823,1,0,0:0:0:0:
448,192,128823,1,0,0:0:0:0:
192,192,128994,1,0,0:0:0:0:
320,192,128994,1,0,0:0:0:0:
320,192,129166,1,0,0:0:0:0:
192,192,129209,1,0,0:0:0:0:
320,192,129252,1,0,0:0:0:0:
192,192,129294,1,0,0:0:0:0:
320,192,129337,1,0,0:0:0:0:
320,192,129509,1,0,0:0:0:0:
192,192,129552,1,0,0:0:0:0:
320,192,129594,1,0,0:0:0:0:
192,192,129637,1,0,0:0:0:0:
320,192,129680,1,0,0:0:0:0:
320,192,129852,1,0,0:0:0:0:
192,192,129894,1,0,0:0:0:0:
320,192,129937,1,0,0:0:0:0:
192,192,129980,1,0,0:0:0:0:
320,192,130023,1,0,0:0:0:0:
320,192,130194,1,0,0:0:0:0:
192,192,130237,1,0,0:0:0:0:
320,192,130280,1,0,0:0:0:0:
192,192,130323,1,0,0:0:0:0:
192,192,130366,1,0,0:0:0:0:
320,192,130366,1,0,0:0:0:0:
448,192,130537,1,0,0:0:0:0:
448,192,130623,1,0,0:0:0:0:
448,192,130794,1,0,0:0:0:0:
448,192,130880,1,0,0:0:0:0:
448,192,131052,1,0,0:0:0:0:
448,192,131137,1,0,0:0:0:0:
448,192,131223,1,0,0:0:0:0:
448,192,131309,1,0,0:0:0:0:
64,192,131394,1,0,0:0:0:0:
192,192,131394,1,0,0:0:0:0:
448,192,131394,1,0,0:0:0:0:
64,192,131737,1,0,0:0:0:0:
320,192,131737,1,0,0:0:0:0:
448,192,131737,1,0,0:0:0:0:
192,192,131823,1,0,0:0:0:0:
320,192,131909,1,0,0:0:0:0:
192,192,131995,1,0,0:0:0:0:
64,192,132080,1,0,0:0:0:0:
320,192,132080,1,0,0:0:0:0:
192,192,132166,1,0,0:0:0:0:
448,192,132252,1,0,0:0:0:0:
192,192,132337,1,0,0:0:0:0:
64,192,132423,1,0,0:0:0:0:
320,192,132423,1,0,0:0:0:0:
448,192,132423,1,0,0:0:0:0:
192,192,132509,1,0,0:0:0:0:
320,192,132595,1,0,0:0:0:0:
448,192,132680,1,0,0:0:0:0:
64,192,132766,1,0,0:0:0:0:
320,192,132766,1,0,0:0:0:0:
448,192,132766,1,0,0:0:0:0:
64,192,132937,1,0,0:0:0:0:
320,192,132937,1,0,0:0:0:0:
448,192,132937,1,0,0:0:0:0:
192,192,133109,1,0,0:0:0:0:
320,192,133109,1,0,0:0:0:0:
448,192,133109,1,0,0:0:0:0:
192,192,133280,1,0,0:0:0:0:
320,192,133280,1,0,0:0:0:0:
448,192,133280,1,0,0:0:0:0:
192,192,133452,1,0,0:0:0:0:
320,192,133452,1,0,0:0:0:0:
64,192,133537,1,0,0:0:0:0:
320,192,133537,1,0,0:0:0:0:
192,192,133623,1,0,0:0:0:0:
448,192,133709,1,0,0:0:0:0:
64,192,133795,1,0,0:0:0:0:
320,192,133795,1,0,0:0:0:0:
64,192,133880,1,0,0:0:0:0:
192,192,133880,1,0,0:0:0:0:
64,192,133966,1,0,0:0:0:0:
320,192,133966,1,0,0:0:0:0:
64,192,134052,1,0,0:0:0:0:
192,192,134052,1,0,0:0:0:0:
192,192,134137,1,0,0:0:0:0:
320,192,134137,1,0,0:0:0:0:
448,192,134137,1,0,0:0:0:0:
64,192,134223,1,0,0:0:0:0:
192,192,134309,1,0,0:0:0:0:
448,192,134395,1,0,0:0:0:0:
192,192,134480,1,0,0:0:0:0:
320,192,134480,1,0,0:0:0:0:
448,192,134480,1,0,0:0:0:0:
320,192,134566,1,0,0:0:0:0:
448,192,134566,1,0,0:0:0:0:
192,192,134652,1,0,0:0:0:0:
320,192,134738,1,0,0:0:0:0:
448,192,134738,1,0,0:0:0:0:
64,192,134823,1,0,0:0:0:0:
320,192,134909,1,0,0:0:0:0:
448,192,134909,1,0,0:0:0:0:
192,192,134995,1,0,0:0:0:0:
320,192,135080,1,0,0:0:0:0:
448,192,135080,1,0,0:0:0:0:
64,192,135166,1,0,0:0:0:0:
320,192,135166,1,0,0:0:0:0:
448,192,135166,1,0,0:0:0:0:
64,192,135338,1,0,0:0:0:0:
192,192,135338,1,0,0:0:0:0:
448,192,135338,1,0,0:0:0:0:
320,192,135423,1,0,0:0:0:0:
64,192,135509,1,0,0:0:0:0:
192,192,135509,1,0,0:0:0:0:
64,192,135680,1,0,0:0:0:0:
192,192,135680,1,0,0:0:0:0:
320,192,135680,1,0,0:0:0:0:
64,192,135852,1,0,0:0:0:0:
192,192,135852,1,0,0:0:0:0:
320,192,135852,1,0,0:0:0:0:
320,192,135938,1,0,0:0:0:0:
448,192,135938,1,0,0:0:0:0:
320,192,136109,1,0,0:0:0:0:
448,192,136109,1,0,0:0:0:0:
64,192,136195,1,0,0:0:0:0:
192,192,136195,1,0,0:0:0:0:
320,192,136195,1,0,0:0:0:0:
192,192,136366,1,0,0:0:0:0:
320,192,136366,1,0,0:0:0:0:
448,192,136366,1,0,0:0:0:0:
64,192,136452,1,0,0:0:0:0:
320,192,136452,1,0,0:0:0:0:
64,192,136538,1,0,0:0:0:0:
448,192,136538,1,0,0:0:0:0:
320,192,136623,1,0,0:0:0:0:
192,192,136709,1,0,0:0:0:0:
64,192,136795,1,0,0:0:0:0:
192,192,136880,1,0,0:0:0:0:
320,192,136880,1,0,0:0:0:0:
448,192,136880,1,0,0:0:0:0:
64,192,136966,1,0,0:0:0:0:
320,192,137052,1,0,0:0:0:0:
192,192,137138,1,0,0:0:0:0:
64,192,137223,1,0,0:0:0:0:
320,192,137223,1,0,0:0:0:0:
448,192,137223,1,0,0:0:0:0:
192,192,137309,1,0,0:0:0:0:
320,192,137395,1,0,0:0:0:0:
448,192,137481,1,0,0:0:0:0:
64,192,137566,1,0,0:0:0:0:
192,192,137566,1,0,0:0:0:0:
320,192,137566,1,0,0:0:0:0:
448,192,137652,1,0,0:0:0:0:
320,192,137738,1,0,0:0:0:0:
192,192,137823,1,0,0:0:0:0:
64,192,137909,1,0,0:0:0:0:
320,192,137909,1,0,0:0:0:0:
448,192,137909,1,0,0:0:0:0:
192,192,137995,1,0,0:0:0:0:
320,192,138081,1,0,0:0:0:0:
64,192,138166,1,0,0:0:0:0:
192,192,138252,1,0,0:0:0:0:
320,192,138252,1,0,0:0:0:0:
448,192,138252,1,0,0:0:0:0:
192,192,138423,1,0,0:0:0:0:
320,192,138423,1,0,0:0:0:0:
448,192,138423,1,0,0:0:0:0:
64,192,138595,1,0,0:0:0:0:
192,192,138595,1,0,0:0:0:0:
448,192,138595,1,0,0:0:0:0:
64,192,138766,1,0,0:0:0:0:
192,192,138766,1,0,0:0:0:0:
448,192,138766,1,0,0:0:0:0:
192,192,138938,1,0,0:0:0:0:
320,192,138938,1,0,0:0:0:0:
448,192,138938,1,0,0:0:0:0:
64,192,139023,1,0,0:0:0:0:
192,192,139023,1,0,0:0:0:0:
448,192,139109,1,0,0:0:0:0:
192,192,139195,1,0,0:0:0:0:
64,192,139281,1,0,0:0:0:0:
320,192,139281,1,0,0:0:0:0:
448,192,139281,1,0,0:0:0:0:
64,192,139366,1,0,0:0:0:0:
192,192,139366,1,0,0:0:0:0:
192,192,139452,1,0,0:0:0:0:
320,192,139452,1,0,0:0:0:0:
64,192,139538,1,0,0:0:0:0:
192,192,139538,1,0,0:0:0:0:
192,192,139623,1,0,0:0:0:0:
320,192,139623,1,0,0:0:0:0:
448,192,139623,1,0,0:0:0:0:
64,192,139709,1,0,0:0:0:0:
192,192,139795,1,0,0:0:0:0:
320,192,139881,1,0,0:0:0:0:
64,192,139966,1,0,0:0:0:0:
192,192,139966,1,0,0:0:0:0:
448,192,139966,1,0,0:0:0:0:
64,192,140052,1,0,0:0:0:0:
192,192,140052,1,0,0:0:0:0:
320,192,140138,1,0,0:0:0:0:
64,192,140224,1,0,0:0:0:0:
192,192,140224,1,0,0:0:0:0:
448,192,140309,1,0,0:0:0:0:
64,192,140395,1,0,0:0:0:0:
192,192,140395,1,0,0:0:0:0:
320,192,140481,1,0,0:0:0:0:
64,192,140566,1,0,0:0:0:0:
192,192,140566,1,0,0:0:0:0:
64,192,140652,1,0,0:0:0:0:
192,192,140652,1,0,0:0:0:0:
448,192,140652,1,0,0:0:0:0:
64,192,140824,1,0,0:0:0:0:
320,192,140824,1,0,0:0:0:0:
448,192,140824,1,0,0:0:0:0:
192,192,140909,1,0,0:0:0:0:
320,192,140995,1,0,0:0:0:0:
448,192,140995,1,0,0:0:0:0:
192,192,141081,1,0,0:0:0:0:
64,192,141166,1,0,0:0:0:0:
320,192,141166,1,0,0:0:0:0:
192,192,141252,1,0,0:0:0:0:
64,192,141338,1,0,0:0:0:0:
320,192,141338,1,0,0:0:0:0:
448,192,141338,1,0,0:0:0:0:
320,192,141424,1,0,0:0:0:0:
448,192,141424,1,0,0:0:0:0:
64,192,141595,1,0,0:0:0:0:
192,192,141595,1,0,0:0:0:0:
64,192,141681,1,0,0:0:0:0:
192,192,141681,1,0,0:0:0:0:
448,192,141681,1,0,0:0:0:0:
320,192,141852,1,0,0:0:0:0:
448,192,141852,1,0,0:0:0:0:
64,192,141938,1,0,0:0:0:0:
320,192,141938,1,0,0:0:0:0:
448,192,141938,1,0,0:0:0:0:
64,192,142024,1,0,0:0:0:0:
448,192,142024,1,0,0:0:0:0:
320,192,142109,1,0,0:0:0:0:
192,192,142195,1,0,0:0:0:0:
64,192,142281,1,0,0:0:0:0:
192,192,142366,1,0,0:0:0:0:
320,192,142366,1,0,0:0:0:0:
448,192,142366,1,0,0:0:0:0:
64,192,142452,1,0,0:0:0:0:
192,192,142538,1,0,0:0:0:0:
448,192,142538,1,0,0:0:0:0:
320,192,142624,1,0,0:0:0:0:
64,192,142709,1,0,0:0:0:0:
192,192,142709,1,0,0:0:0:0:
448,192,142709,1,0,0:0:0:0:
320,192,142795,1,0,0:0:0:0:
192,192,142881,1,0,0:0:0:0:
64,192,142967,1,0,0:0:0:0:
192,192,143052,1,0,0:0:0:0:
320,192,143052,1,0,0:0:0:0:
448,192,143052,1,0,0:0:0:0:
64,192,143138,1,0,0:0:0:0:
192,192,143224,1,0,0:0:0:0:
320,192,143309,1,0,0:0:0:0:
64,192,143395,1,0,0:0:0:0:
192,192,143395,1,0,0:0:0:0:
448,192,143395,1,0,0:0:0:0:
320,192,143481,1,0,0:0:0:0:
448,192,143567,1,0,0:0:0:0:
64,192,143652,1,0,0:0:0:0:
192,192,143738,1,0,0:0:0:0:
320,192,143738,1,0,0:0:0:0:
448,192,143738,1,0,0:0:0:0:
192,192,143909,1,0,0:0:0:0:
320,192,143909,1,0,0:0:0:0:
448,192,143909,1,0,0:0:0:0:
64,192,144081,1,0,0:0:0:0:
192,192,144081,1,0,0:0:0:0:
448,192,144081,1,0,0:0:0:0:
64,192,144252,1,0,0:0:0:0:
192,192,144252,1,0,0:0:0:0:
448,192,144252,1,0,0:0:0:0:
64,192,144424,1,0,0:0:0:0:
192,192,144424,1,0,0:0:0:0:
320,192,144424,1,0,0:0:0:0:
320,192,144509,1,0,0:0:0:0:
448,192,144509,1,0,0:0:0:0:
64,192,144595,1,0,0:0:0:0:
320,192,144681,1,0,0:0:0:0:
64,192,144767,1,0,0:0:0:0:
192,192,144767,1,0,0:0:0:0:
448,192,144767,1,0,0:0:0:0:
64,192,144852,1,0,0:0:0:0:
320,192,144852,1,0,0:0:0:0:
64,192,144938,1,0,0:0:0:0:
192,192,144938,1,0,0:0:0:0:
64,192,145024,1,0,0:0:0:0:
448,192,145024,1,0,0:0:0:0:
64,192,145109,1,0,0:0:0:0:
192,192,145109,1,0,0:0:0:0:
320,192,145109,1,0,0:0:0:0:
448,192,145195,1,0,0:0:0:0:
320,192,145281,1,0,0:0:0:0:
64,192,145367,1,0,0:0:0:0:
192,192,145452,1,0,0:0:0:0:
320,192,145452,1,0,0:0:0:0:
448,192,145452,1,0,0:0:0:0:
64,192,145538,1,0,0:0:0:0:
192,192,145538,1,0,0:0:0:0:
448,192,145624,1,0,0:0:0:0:
64,192,145710,1,0,0:0:0:0:
192,192,145710,1,0,0:0:0:0:
320,192,145795,1,0,0:0:0:0:
64,192,145881,1,0,0:0:0:0:
192,192,145881,1,0,0:0:0:0:
448,192,145967,1,0,0:0:0:0:
64,192,146052,1,0,0:0:0:0:
192,192,146052,1,0,0:0:0:0:
64,192,146138,1,0,0:0:0:0:
192,192,146138,1,0,0:0:0:0:
448,192,146138,1,0,0:0:0:0:
64,192,146310,1,0,0:0:0:0:
320,192,146310,1,0,0:0:0:0:
448,192,146310,1,0,0:0:0:0:
192,192,146395,1,0,0:0:0:0:
320,192,146481,1,0,0:0:0:0:
448,192,146481,1,0,0:0:0:0:
192,192,146652,1,0,0:0:0:0:
320,192,146652,1,0,0:0:0:0:
448,192,146652,1,0,0:0:0:0:
192,192,146824,1,0,0:0:0:0:
320,192,146824,1,0,0:0:0:0:
448,192,146824,1,0,0:0:0:0:
64,192,146910,1,0,0:0:0:0:
192,192,146910,1,0,0:0:0:0:
64,192,147081,1,0,0:0:0:0:
192,192,147081,1,0,0:0:0:0:
192,192,147167,1,0,0:0:0:0:
320,192,147167,1,0,0:0:0:0:
448,192,147167,1,0,0:0:0:0:
64,192,147338,1,0,0:0:0:0:
192,192,147338,1,0,0:0:0:0:
192,192,147424,1,0,0:0:0:0:
320,192,147424,1,0,0:0:0:0:
448,192,147424,1,0,0:0:0:0:
64,192,147510,1,0,0:0:0:0:
448,192,147510,1,0,0:0:0:0:
192,192,147595,1,0,0:0:0:0:
320,192,147681,1,0,0:0:0:0:
448,192,147767,1,0,0:0:0:0:
64,192,147852,1,0,0:0:0:0:
192,192,147852,1,0,0:0:0:0:
320,192,147852,1,0,0:0:0:0:
448,192,147938,1,0,0:0:0:0:
192,192,148024,1,0,0:0:0:0:
320,192,148110,1,0,0:0:0:0:
64,192,148195,1,0,0:0:0:0:
192,192,148195,1,0,0:0:0:0:
448,192,148195,1,0,0:0:0:0:
320,192,148281,1,0,0:0:0:0:
192,192,148367,1,0,0:0:0:0:
64,192,148453,1,0,0:0:0:0:
192,192,148538,1,0,0:0:0:0:
320,192,148538,1,0,0:0:0:0:
448,192,148538,1,0,0:0:0:0:
64,192,148624,1,0,0:0:0:0:
192,192,148710,1,0,0:0:0:0:
320,192,148795,1,0,0:0:0:0:
64,192,148881,1,0,0:0:0:0:
192,192,148881,1,0,0:0:0:0:
448,192,148881,1,0,0:0:0:0:
320,192,148967,1,0,0:0:0:0:
192,192,149053,1,0,0:0:0:0:
64,192,149138,1,0,0:0:0:0:
192,192,149224,1,0,0:0:0:0:
320,192,149224,1,0,0:0:0:0:
448,192,149224,1,0,0:0:0:0:
192,192,149395,1,0,0:0:0:0:
320,192,149395,1,0,0:0:0:0:
448,192,149395,1,0,0:0:0:0:
64,192,149567,1,0,0:0:0:0:
192,192,149567,1,0,0:0:0:0:
448,192,149567,1,0,0:0:0:0:
64,192,149738,1,0,0:0:0:0:
192,192,149738,1,0,0:0:0:0:
448,192,149738,1,0,0:0:0:0:
64,192,149910,1,0,0:0:0:0:
192,192,149910,1,0,0:0:0:0:
320,192,149910,1,0,0:0:0:0:
320,192,149995,1,0,0:0:0:0:
448,192,149995,1,0,0:0:0:0:
64,192,150081,1,0,0:0:0:0:
320,192,150167,1,0,0:0:0:0:
64,192,150253,1,0,0:0:0:0:
192,192,150253,1,0,0:0:0:0:
64,192,150338,1,0,0:0:0:0:
320,192,150338,1,0,0:0:0:0:
64,192,150424,1,0,0:0:0:0:
192,192,150424,1,0,0:0:0:0:
64,192,150510,1,0,0:0:0:0:
448,192,150510,1,0,0:0:0:0:
64,192,150595,1,0,0:0:0:0:
320,192,150595,1,0,0:0:0:0:
448,192,150595,1,0,0:0:0:0:
192,192,150681,1,0,0:0:0:0:
320,192,150767,1,0,0:0:0:0:
64,192,150853,1,0,0:0:0:0:
192,192,150938,1,0,0:0:0:0:
320,192,150938,1,0,0:0:0:0:
448,192,150938,1,0,0:0:0:0:
64,192,151024,1,0,0:0:0:0:
192,192,151024,1,0,0:0:0:0:
448,192,151110,1,0,0:0:0:0:
64,192,151196,1,0,0:0:0:0:
192,192,151196,1,0,0:0:0:0:
320,192,151281,1,0,0:0:0:0:
64,192,151367,1,0,0:0:0:0:
192,192,151367,1,0,0:0:0:0:
448,192,151453,1,0,0:0:0:0:
64,192,151538,1,0,0:0:0:0:
192,192,151538,1,0,0:0:0:0:
64,192,151624,1,0,0:0:0:0:
192,192,151624,1,0,0:0:0:0:
448,192,151624,1,0,0:0:0:0:
64,192,151796,1,0,0:0:0:0:
320,192,151796,1,0,0:0:0:0:
448,192,151796,1,0,0:0:0:0:
192,192,151881,1,0,0:0:0:0:
320,192,151967,1,0,0:0:0:0:
448,192,151967,1,0,0:0:0:0:
192,192,152138,1,0,0:0:0:0:
320,192,152138,1,0,0:0:0:0:
448,192,152138,1,0,0:0:0:0:
192,192,152310,1,0,0:0:0:0:
320,192,152310,1,0,0:0:0:0:
448,192,152310,1,0,0:0:0:0:
64,192,152396,1,0,0:0:0:0:
192,192,152396,1,0,0:0:0:0:
64,192,152567,1,0,0:0:0:0:
192,192,152567,1,0,0:0:0:0:
192,192,152653,1,0,0:0:0:0:
320,192,152653,1,0,0:0:0:0:
448,192,152653,1,0,0:0:0:0:
64,192,152824,1,0,0:0:0:0:
192,192,152824,1,0,0:0:0:0:
192,192,152910,1,0,0:0:0:0:
320,192,152910,1,0,0:0:0:0:
448,192,152910,1,0,0:0:0:0:
64,192,153081,1,0,0:0:0:0:
192,192,153081,1,0,0:0:0:0:
192,192,153167,1,0,0:0:0:0:
320,192,153167,1,0,0:0:0:0:
448,192,153167,1,0,0:0:0:0:
64,192,153338,1,0,0:0:0:0:
192,192,153338,1,0,0:0:0:0:
192,192,153424,1,0,0:0:0:0:
320,192,153424,1,0,0:0:0:0:
448,192,153424,1,0,0:0:0:0:
64,192,153510,1,0,0:0:0:0:
192,192,153510,1,0,0:0:0:0:
64,192,153681,1,0,0:0:0:0:
192,192,153681,1,0,0:0:0:0:
320,192,153681,1,0,0:0:0:0:
448,192,153681,1,0,0:0:0:0:
64,192,153939,1,0,0:0:0:0:
64,192,154024,1,0,0:0:0:0:
192,192,154024,1,0,0:0:0:0:
320,192,154024,1,0,0:0:0:0:
448,192,154024,1,0,0:0:0:0:
192,192,154281,1,0,0:0:0:0:
64,192,154367,1,0,0:0:0:0:
192,192,154367,1,0,0:0:0:0:
320,192,154367,1,0,0:0:0:0:
448,192,154367,1,0,0:0:0:0:
64,192,154624,1,0,0:0:0:0:
64,192,154710,1,0,0:0:0:0:
192,192,154710,1,0,0:0:0:0:
320,192,154710,1,0,0:0:0:0:
448,192,154710,1,0,0:0:0:0:
448,192,154967,1,0,0:0:0:0:
64,192,155053,1,0,0:0:0:0:
192,192,155053,1,0,0:0:0:0:
320,192,155053,1,0,0:0:0:0:
448,192,155053,1,0,0:0:0:0:
320,192,155310,1,0,0:0:0:0:
64,192,155396,1,0,0:0:0:0:
192,192,155396,1,0,0:0:0:0:
320,192,155396,1,0,0:0:0:0:
448,192,155396,1,0,0:0:0:0:
448,192,155653,1,0,0:0:0:0:
64,192,155739,1,0,0:0:0:0:
192,192,155739,1,0,0:0:0:0:
320,192,155739,1,0,0:0:0:0:
448,192,155739,1,0,0:0:0:0:
320,192,155996,1,0,0:0:0:0:
64,192,156081,1,0,0:0:0:0:
192,192,156081,1,0,0:0:0:0:
320,192,156081,1,0,0:0:0:0:
448,192,156081,1,0,0:0:0:0:
192,192,156339,1,0,0:0:0:0:
64,192,156424,1,0,0:0:0:0:
192,192,156424,1,0,0:0:0:0:
320,192,156424,1,0,0:0:0:0:
448,192,156424,1,0,0:0:0:0:
448,192,156682,1,0,0:0:0:0:
64,192,156767,1,0,0:0:0:0:
192,192,156767,1,0,0:0:0:0:
320,192,156767,1,0,0:0:0:0:
448,192,156767,1,0,0:0:0:0:
320,192,157024,1,0,0:0:0:0:
64,192,157110,1,0,0:0:0:0:
192,192,157110,1,0,0:0:0:0:
320,192,157110,1,0,0:0:0:0:
448,192,157110,1,0,0:0:0:0:
192,192,157367,1,0,0:0:0:0:
64,192,157453,1,0,0:0:0:0:
192,192,157453,1,0,0:0:0:0:
320,192,157453,1,0,0:0:0:0:
448,192,157453,1,0,0:0:0:0:
64,192,157710,1,0,0:0:0:0:
64,192,157796,1,0,0:0:0:0:
192,192,157796,1,0,0:0:0:0:
320,192,157796,1,0,0:0:0:0:
448,192,157796,1,0,0:0:0:0:
64,192,157910,1,0,0:0:0:0:
320,192,158025,1,0,0:0:0:0:
64,192,158139,1,0,0:0:0:0:
192,192,158139,1,0,0:0:0:0:
320,192,158139,1,0,0:0:0:0:
448,192,158139,1,0,0:0:0:0:
448,192,158396,1,0,0:0:0:0:
64,192,158482,1,0,0:0:0:0:
192,192,158482,1,0,0:0:0:0:
320,192,158482,1,0,0:0:0:0:
448,192,158482,1,0,0:0:0:0:
448,192,158596,1,0,0:0:0:0:
192,192,158710,1,0,0:0:0:0:
64,192,158825,1,0,0:0:0:0:
192,192,158825,1,0,0:0:0:0:
320,192,158825,1,0,0:0:0:0:
448,192,158825,1,0,0:0:0:0:
192,192,159082,1,0,0:0:0:0:
64,192,159168,1,0,0:0:0:0:
192,192,159168,1,0,0:0:0:0:
320,192,159168,1,0,0:0:0:0:
448,192,159168,1,0,0:0:0:0:
64,192,159425,1,0,0:0:0:0:
64,192,159511,1,0,0:0:0:0:
192,192,159511,1,0,0:0:0:0:
320,192,159511,1,0,0:0:0:0:
448,192,159511,1,0,0:0:0:0:
64,192,159625,1,0,0:0:0:0:
320,192,159739,1,0,0:0:0:0:
64,192,159854,1,0,0:0:0:0:
192,192,159854,1,0,0:0:0:0:
320,192,159854,1,0,0:0:0:0:
448,192,159854,1,0,0:0:0:0:
448,192,160111,1,0,0:0:0:0:
64,192,160196,1,0,0:0:0:0:
192,192,160196,1,0,0:0:0:0:
320,192,160196,1,0,0:0:0:0:
448,192,160196,1,0,0:0:0:0:
448,192,160311,1,0,0:0:0:0:
192,192,160425,1,0,0:0:0:0:
64,192,160539,1,0,0:0:0:0:
192,192,160539,1,0,0:0:0:0:
320,192,160539,1,0,0:0:0:0:
448,192,160539,1,0,0:0:0:0:
448,192,160768,1,0,0:0:0:0:
64,192,160882,1,0,0:0:0:0:
192,192,160882,1,0,0:0:0:0:
320,192,160882,1,0,0:0:0:0:
448,192,160882,1,0,0:0:0:0:
64,192,160996,1,0,0:0:0:0:
192,192,161111,1,0,0:0:0:0:
64,192,161225,1,0,0:0:0:0:
192,192,161225,1,0,0:0:0:0:
320,192,161225,1,0,0:0:0:0:
448,192,161225,1,0,0:0:0:0:
320,192,161339,1,0,0:0:0:0:
448,192,161454,1,0,0:0:0:0:
64,192,161568,1,0,0:0:0:0:
192,192,161568,1,0,0:0:0:0:
320,192,161568,1,0,0:0:0:0:
448,192,161568,1,0,0:0:0:0:
320,192,161682,1,0,0:0:0:0:
64,192,161796,1,0,0:0:0:0:
64,192,161911,1,0,0:0:0:0:
192,192,161911,1,0,0:0:0:0:
320,192,161911,1,0,0:0:0:0:
448,192,161911,1,0,0:0:0:0:
64,192,162168,1,0,0:0:0:0:
64,192,162254,1,0,0:0:0:0:
192,192,162254,1,0,0:0:0:0:
320,192,162254,1,0,0:0:0:0:
448,192,162254,1,0,0:0:0:0:
192,192,162511,1,0,0:0:0:0:
64,192,162597,1,0,0:0:0:0:
192,192,162597,1,0,0:0:0:0:
320,192,162597,1,0,0:0:0:0:
448,192,162597,1,0,0:0:0:0:
320,192,162854,1,0,0:0:0:0:
64,192,162940,1,0,0:0:0:0:
192,192,162940,1,0,0:0:0:0:
320,192,162940,1,0,0:0:0:0:
448,192,162940,1,0,0:0:0:0:
320,192,163197,1,0,0:0:0:0:
64,192,163283,1,0,0:0:0:0:
192,192,163283,1,0,0:0:0:0:
320,192,163283,1,0,0:0:0:0:
448,192,163283,1,0,0:0:0:0:
320,192,163397,1,0,0:0:0:0:
64,192,163511,1,0,0:0:0:0:
64,192,163625,1,0,0:0:0:0:
192,192,163625,1,0,0:0:0:0:
320,192,163625,1,0,0:0:0:0:
448,192,163625,1,0,0:0:0:0:
64,192,163740,1,0,0:0:0:0:
320,192,163854,1,0,0:0:0:0:
64,192,163968,1,0,0:0:0:0:
192,192,163968,1,0,0:0:0:0:
320,192,163968,1,0,0:0:0:0:
448,192,163968,1,0,0:0:0:0:
192,192,164083,1,0,0:0:0:0:
448,192,164197,1,0,0:0:0:0:
64,192,164311,1,0,0:0:0:0:
192,192,164311,1,0,0:0:0:0:
320,192,164311,1,0,0:0:0:0:
448,192,164311,1,0,0:0:0:0:
448,192,164426,1,0,0:0:0:0:
192,192,164540,1,0,0:0:0:0:
64,192,164654,1,0,0:0:0:0:
192,192,164654,1,0,0:0:0:0:
320,192,164654,1,0,0:0:0:0:
448,192,164654,1,0,0:0:0:0:
448,192,164912,1,0,0:0:0:0:
64,192,164997,1,0,0:0:0:0:
192,192,164997,1,0,0:0:0:0:
320,192,164997,1,0,0:0:0:0:
448,192,164997,1,0,0:0:0:0:
320,192,165254,1,0,0:0:0:0:
64,192,165340,1,0,0:0:0:0:
192,192,165340,1,0,0:0:0:0:
320,192,165340,1,0,0:0:0:0:
448,192,165340,1,0,0:0:0:0:
192,192,165597,1,0,0:0:0:0:
64,192,165683,1,0,0:0:0:0:
192,192,165683,1,0,0:0:0:0:
320,192,165683,1,0,0:0:0:0:
448,192,165683,1,0,0:0:0:0:
64,192,165940,1,0,0:0:0:0:
64,192,166026,1,0,0:0:0:0:
192,192,166026,1,0,0:0:0:0:
320,192,166026,1,0,0:0:0:0:
448,192,166026,1,0,0:0:0:0:
192,192,166140,1,0,0:0:0:0:
320,192,166255,1,0,0:0:0:0:
64,192,166369,1,0,0:0:0:0:
192,192,166369,1,0,0:0:0:0:
320,192,166369,1,0,0:0:0:0:
448,192,166369,1,0,0:0:0:0:
320,192,166483,1,0,0:0:0:0:
192,192,166598,1,0,0:0:0:0:
64,192,166712,1,0,0:0:0:0:
192,192,166712,1,0,0:0:0:0:
320,192,166712,1,0,0:0:0:0:
448,192,166712,1,0,0:0:0:0:
192,192,166826,1,0,0:0:0:0:
64,192,166941,1,0,0:0:0:0:
64,192,167055,1,0,0:0:0:0:
192,192,167055,1,0,0:0:0:0:
320,192,167055,1,0,0:0:0:0:
448,192,167055,1,0,0:0:0:0:
192,192,167169,1,0,0:0:0:0:
320,192,167283,1,0,0:0:0:0:
64,192,167398,1,0,0:0:0:0:
192,192,167398,1,0,0:0:0:0:
320,192,167398,1,0,0:0:0:0:
448,192,167398,1,0,0:0:0:0:
192,0,167569,128,0,167655:1:0:0:0:
320,0,167741,128,0,167826:1:0:0:0:
448,0,167912,128,0,167998:1:0:0:0:
448,0,168255,128,0,168341:1:0:0:0:
192,0,168598,128,0,168684:1:0:0:0:
448,0,168598,128,0,168684:1:0:0:0:
192,0,168941,128,0,169027:1:0:0:0:
448,0,168941,128,0,169027:1:0:0:0:
192,0,169284,128,0,169370:1:0:0:0:
448,0,169284,128,0,169370:1:0:0:0:
320,0,169455,128,0,169541:1:0:0:0:
448,0,169455,128,0,169541:1:0:0:0:
320,192,169627,1,0,0:0:0:0:
192,192,169712,1,0,0:0:0:0:
64,0,169798,128,0,169884:1:0:0:0:
448,0,169798,128,0,169884:1:0:0:0:
192,0,170141,128,0,170227:1:0:0:0:
448,0,170141,128,0,170227:1:0:0:0:
192,0,170312,128,0,170398:1:0:0:0:
320,0,170484,128,0,170570:1:0:0:0:
448,0,170655,128,0,170741:1:0:0:0:
448,0,170998,128,0,171084:1:0:0:0:
192,0,171341,128,0,171427:1:0:0:0:
448,0,171341,128,0,171427:1:0:0:0:
192,0,171684,128,0,171770:1:0:0:0:
448,0,171684,128,0,171770:1:0:0:0:
192,0,172027,128,0,172113:1:0:0:0:
448,0,172027,128,0,172113:1:0:0:0:
64,0,172198,128,0,172284:1:0:0:0:
64,192,172370,1,0,0:0:0:0:
192,192,172455,1,0,0:0:0:0:
320,0,172541,128,0,172627:1:0:0:0:
448,0,172541,128,0,172627:1:0:0:0:
64,0,172884,128,0,172970:1:0:0:0:
448,0,172884,128,0,172970:1:0:0:0:
64,192,173055,1,0,0:0:0:0:
64,192,173141,1,0,0:0:0:0:
64,192,173313,1,0,0:0:0:0:
64,192,173398,1,0,0:0:0:0:
64,192,173570,1,0,0:0:0:0:
448,192,173570,1,0,0:0:0:0:
64,192,173655,1,0,0:0:0:0:
64,192,173741,1,0,0:0:0:0:
64,192,173827,1,0,0:0:0:0:
64,192,173913,1,0,0:0:0:0:
320,192,173913,1,0,0:0:0:0:
448,192,173913,1,0,0:0:0:0:
64,192,174255,1,0,0:0:0:0:
320,192,174255,1,0,0:0:0:0:
448,192,174255,1,0,0:0:0:0:
192,192,174341,1,0,0:0:0:0:
320,192,174427,1,0,0:0:0:0:
192,192,174513,1,0,0:0:0:0:
64,192,174598,1,0,0:0:0:0:
320,192,174598,1,0,0:0:0:0:
192,192,174684,1,0,0:0:0:0:
448,192,174770,1,0,0:0:0:0:
192,192,174856,1,0,0:0:0:0:
64,192,174941,1,0,0:0:0:0:
320,192,174941,1,0,0:0:0:0:
448,192,174941,1,0,0:0:0:0:
192,192,175027,1,0,0:0:0:0:
320,192,175113,1,0,0:0:0:0:
448,192,175198,1,0,0:0:0:0:
64,192,175284,1,0,0:0:0:0:
320,192,175284,1,0,0:0:0:0:
448,192,175284,1,0,0:0:0:0:
64,192,175456,1,0,0:0:0:0:
320,192,175456,1,0,0:0:0:0:
448,192,175456,1,0,0:0:0:0:
192,192,175627,1,0,0:0:0:0:
320,192,175627,1,0,0:0:0:0:
448,192,175627,1,0,0:0:0:0:
192,192,175798,1,0,0:0:0:0:
320,192,175798,1,0,0:0:0:0:
448,192,175798,1,0,0:0:0:0:
192,192,175970,1,0,0:0:0:0:
320,192,175970,1,0,0:0:0:0:
64,192,176056,1,0,0:0:0:0:
320,192,176056,1,0,0:0:0:0:
192,192,176141,1,0,0:0:0:0:
448,192,176227,1,0,0:0:0:0:
64,192,176313,1,0,0:0:0:0:
320,192,176313,1,0,0:0:0:0:
64,192,176398,1,0,0:0:0:0:
192,192,176398,1,0,0:0:0:0:
64,192,176484,1,0,0:0:0:0:
320,192,176484,1,0,0:0:0:0:
64,192,176570,1,0,0:0:0:0:
192,192,176570,1,0,0:0:0:0:
192,192,176656,1,0,0:0:0:0:
320,192,176656,1,0,0:0:0:0:
448,192,176656,1,0,0:0:0:0:
64,192,176741,1,0,0:0:0:0:
192,192,176827,1,0,0:0:0:0:
448,192,176913,1,0,0:0:0:0:
192,192,176998,1,0,0:0:0:0:
320,192,176998,1,0,0:0:0:0:
448,192,176998,1,0,0:0:0:0:
320,192,177084,1,0,0:0:0:0:
448,192,177084,1,0,0:0:0:0:
192,192,177170,1,0,0:0:0:0:
320,192,177256,1,0,0:0:0:0:
448,192,177256,1,0,0:0:0:0:
64,192,177341,1,0,0:0:0:0:
320,192,177427,1,0,0:0:0:0:
448,192,177427,1,0,0:0:0:0:
192,192,177513,1,0,0:0:0:0:
320,192,177599,1,0,0:0:0:0:
448,192,177599,1,0,0:0:0:0:
64,192,177684,1,0,0:0:0:0:
320,192,177684,1,0,0:0:0:0:
448,192,177684,1,0,0:0:0:0:
64,192,177856,1,0,0:0:0:0:
192,192,177856,1,0,0:0:0:0:
448,192,177856,1,0,0:0:0:0:
320,192,177941,1,0,0:0:0:0:
64,192,178027,1,0,0:0:0:0:
192,192,178027,1,0,0:0:0:0:
64,192,178199,1,0,0:0:0:0:
192,192,178199,1,0,0:0:0:0:
320,192,178199,1,0,0:0:0:0:
64,192,178370,1,0,0:0:0:0:
192,192,178370,1,0,0:0:0:0:
320,192,178370,1,0,0:0:0:0:
320,192,178456,1,0,0:0:0:0:
448,192,178456,1,0,0:0:0:0:
320,192,178627,1,0,0:0:0:0:
448,192,178627,1,0,0:0:0:0:
64,192,178713,1,0,0:0:0:0:
192,192,178713,1,0,0:0:0:0:
320,192,178713,1,0,0:0:0:0:
192,192,178884,1,0,0:0:0:0:
320,192,178884,1,0,0:0:0:0:
448,192,178884,1,0,0:0:0:0:
64,192,178970,1,0,0:0:0:0:
320,192,178970,1,0,0:0:0:0:
64,192,179056,1,0,0:0:0:0:
448,192,179056,1,0,0:0:0:0:
320,192,179141,1,0,0:0:0:0:
192,192,179227,1,0,0:0:0:0:
64,192,179313,1,0,0:0:0:0:
192,192,179399,1,0,0:0:0:0:
320,192,179399,1,0,0:0:0:0:
448,192,179399,1,0,0:0:0:0:
64,192,179484,1,0,0:0:0:0:
320,192,179570,1,0,0:0:0:0:
192,192,179656,1,0,0:0:0:0:
64,192,179741,1,0,0:0:0:0:
320,192,179741,1,0,0:0:0:0:
448,192,179741,1,0,0:0:0:0:
192,192,179827,1,0,0:0:0:0:
320,192,179913,1,0,0:0:0:0:
448,192,179999,1,0,0:0:0:0:
64,192,180084,1,0,0:0:0:0:
192,192,180084,1,0,0:0:0:0:
320,192,180084,1,0,0:0:0:0:
448,192,180170,1,0,0:0:0:0:
320,192,180256,1,0,0:0:0:0:
192,192,180342,1,0,0:0:0:0:
64,192,180427,1,0,0:0:0:0:
320,192,180427,1,0,0:0:0:0:
448,192,180427,1,0,0:0:0:0:
192,192,180513,1,0,0:0:0:0:
320,192,180599,1,0,0:0:0:0:
64,192,180684,1,0,0:0:0:0:
192,192,180770,1,0,0:0:0:0:
320,192,180770,1,0,0:0:0:0:
448,192,180770,1,0,0:0:0:0:
192,192,180942,1,0,0:0:0:0:
320,192,180942,1,0,0:0:0:0:
448,192,180942,1,0,0:0:0:0:
64,192,181113,1,0,0:0:0:0:
192,192,181113,1,0,0:0:0:0:
448,192,181113,1,0,0:0:0:0:
64,192,181284,1,0,0:0:0:0:
192,192,181284,1,0,0:0:0:0:
448,192,181284,1,0,0:0:0:0:
192,192,181456,1,0,0:0:0:0:
320,192,181456,1,0,0:0:0:0:
448,192,181456,1,0,0:0:0:0:
64,192,181542,1,0,0:0:0:0:
192,192,181542,1,0,0:0:0:0:
448,192,181627,1,0,0:0:0:0:
192,192,181713,1,0,0:0:0:0:
64,192,181799,1,0,0:0:0:0:
320,192,181799,1,0,0:0:0:0:
448,192,181799,1,0,0:0:0:0:
64,192,181884,1,0,0:0:0:0:
192,192,181884,1,0,0:0:0:0:
192,192,181970,1,0,0:0:0:0:
320,192,181970,1,0,0:0:0:0:
64,192,182056,1,0,0:0:0:0:
192,192,182056,1,0,0:0:0:0:
192,192,182142,1,0,0:0:0:0:
320,192,182142,1,0,0:0:0:0:
448,192,182142,1,0,0:0:0:0:
64,192,182227,1,0,0:0:0:0:
192,192,182313,1,0,0:0:0:0:
320,192,182399,1,0,0:0:0:0:
64,192,182484,1,0,0:0:0:0:
192,192,182484,1,0,0:0:0:0:
448,192,182484,1,0,0:0:0:0:
64,192,182570,1,0,0:0:0:0:
192,192,182570,1,0,0:0:0:0:
320,192,182656,1,0,0:0:0:0:
64,192,182742,1,0,0:0:0:0:
192,192,182742,1,0,0:0:0:0:
448,192,182827,1,0,0:0:0:0:
64,192,182913,1,0,0:0:0:0:
192,192,182913,1,0,0:0:0:0:
320,192,182999,1,0,0:0:0:0:
64,192,183085,1,0,0:0:0:0:
192,192,183085,1,0,0:0:0:0:
64,192,183170,1,0,0:0:0:0:
192,192,183170,1,0,0:0:0:0:
448,192,183170,1,0,0:0:0:0:
64,192,183342,1,0,0:0:0:0:
320,192,183342,1,0,0:0:0:0:
448,192,183342,1,0,0:0:0:0:
192,192,183427,1,0,0:0:0:0:
320,192,183513,1,0,0:0:0:0:
448,192,183513,1,0,0:0:0:0:
192,192,183599,1,0,0:0:0:0:
64,192,183685,1,0,0:0:0:0:
320,192,183685,1,0,0:0:0:0:
192,192,183770,1,0,0:0:0:0:
64,192,183856,1,0,0:0:0:0:
320,192,183856,1,0,0:0:0:0:
448,192,183856,1,0,0:0:0:0:
320,192,183942,1,0,0:0:0:0:
448,192,183942,1,0,0:0:0:0:
64,192,184113,1,0,0:0:0:0:
192,192,184113,1,0,0:0:0:0:
64,192,184199,1,0,0:0:0:0:
192,192,184199,1,0,0:0:0:0:
448,192,184199,1,0,0:0:0:0:
320,192,184370,1,0,0:0:0:0:
448,192,184370,1,0,0:0:0:0:
64,192,184456,1,0,0:0:0:0:
320,192,184456,1,0,0:0:0:0:
448,192,184456,1,0,0:0:0:0:
64,192,184542,1,0,0:0:0:0:
448,192,184542,1,0,0:0:0:0:
320,192,184627,1,0,0:0:0:0:
192,192,184713,1,0,0:0:0:0:
64,192,184799,1,0,0:0:0:0:
192,192,184885,1,0,0:0:0:0:
320,192,184885,1,0,0:0:0:0:
448,192,184885,1,0,0:0:0:0:
64,192,184970,1,0,0:0:0:0:
192,192,185056,1,0,0:0:0:0:
448,192,185056,1,0,0:0:0:0:
320,192,185142,1,0,0:0:0:0:
64,192,185227,1,0,0:0:0:0:
192,192,185227,1,0,0:0:0:0:
448,192,185227,1,0,0:0:0:0:
320,192,185313,1,0,0:0:0:0:
192,192,185399,1,0,0:0:0:0:
64,192,185485,1,0,0:0:0:0:
192,192,185570,1,0,0:0:0:0:
320,192,185570,1,0,0:0:0:0:
448,192,185570,1,0,0:0:0:0:
64,192,185656,1,0,0:0:0:0:
192,192,185742,1,0,0:0:0:0:
320,192,185828,1,0,0:0:0:0:
64,192,185913,1,0,0:0:0:0:
192,192,185913,1,0,0:0:0:0:
448,192,185913,1,0,0:0:0:0:
320,192,185999,1,0,0:0:0:0:
448,192,186085,1,0,0:0:0:0:
64,192,186170,1,0,0:0:0:0:
192,192,186256,1,0,0:0:0:0:
320,192,186256,1,0,0:0:0:0:
448,192,186256,1,0,0:0:0:0:
192,192,186428,1,0,0:0:0:0:
320,192,186428,1,0,0:0:0:0:
448,192,186428,1,0,0:0:0:0:
64,192,186599,1,0,0:0:0:0:
192,192,186599,1,0,0:0:0:0:
448,192,186599,1,0,0:0:0:0:
64,192,186770,1,0,0:0:0:0:
192,192,186770,1,0,0:0:0:0:
448,192,186770,1,0,0:0:0:0:
64,192,186942,1,0,0:0:0:0:
192,192,186942,1,0,0:0:0:0:
320,192,186942,1,0,0:0:0:0:
320,192,187028,1,0,0:0:0:0:
448,192,187028,1,0,0:0:0:0:
64,192,187113,1,0,0:0:0:0:
320,192,187199,1,0,0:0:0:0:
64,192,187285,1,0,0:0:0:0:
192,192,187285,1,0,0:0:0:0:
448,192,187285,1,0,0:0:0:0:
64,192,187370,1,0,0:0:0:0:
320,192,187370,1,0,0:0:0:0:
64,192,187456,1,0,0:0:0:0:
192,192,187456,1,0,0:0:0:0:
64,192,187542,1,0,0:0:0:0:
448,192,187542,1,0,0:0:0:0:
64,192,187628,1,0,0:0:0:0:
192,192,187628,1,0,0:0:0:0:
320,192,187628,1,0,0:0:0:0:
448,192,187713,1,0,0:0:0:0:
320,192,187799,1,0,0:0:0:0:
64,192,187885,1,0,0:0:0:0:
192,192,187970,1,0,0:0:0:0:
320,192,187970,1,0,0:0:0:0:
448,192,187970,1,0,0:0:0:0:
64,192,188056,1,0,0:0:0:0:
192,192,188056,1,0,0:0:0:0:
448,192,188142,1,0,0:0:0:0:
64,192,188228,1,0,0:0:0:0:
192,192,188228,1,0,0:0:0:0:
320,192,188313,1,0,0:0:0:0:
64,192,188399,1,0,0:0:0:0:
192,192,188399,1,0,0:0:0:0:
448,192,188485,1,0,0:0:0:0:
64,192,188571,1,0,0:0:0:0:
192,192,188571,1,0,0:0:0:0:
64,192,188656,1,0,0:0:0:0:
192,192,188656,1,0,0:0:0:0:
448,192,188656,1,0,0:0:0:0:
64,192,188828,1,0,0:0:0:0:
320,192,188828,1,0,0:0:0:0:
448,192,188828,1,0,0:0:0:0:
192,192,188913,1,0,0:0:0:0:
320,192,188999,1,0,0:0:0:0:
448,192,188999,1,0,0:0:0:0:
192,192,189171,1,0,0:0:0:0:
320,192,189171,1,0,0:0:0:0:
448,192,189171,1,0,0:0:0:0:
192,192,189342,1,0,0:0:0:0:
320,192,189342,1,0,0:0:0:0:
448,192,189342,1,0,0:0:0:0:
64,192,189428,1,0,0:0:0:0:
192,192,189428,1,0,0:0:0:0:
64,192,189599,1,0,0:0:0:0:
192,192,189599,1,0,0:0:0:0:
192,192,189685,1,0,0:0:0:0:
320,192,189685,1,0,0:0:0:0:
448,192,189685,1,0,0:0:0:0:
64,192,189856,1,0,0:0:0:0:
192,192,189856,1,0,0:0:0:0:
192,192,189942,1,0,0:0:0:0:
320,192,189942,1,0,0:0:0:0:
448,192,189942,1,0,0:0:0:0:
64,192,190028,1,0,0:0:0:0:
448,192,190028,1,0,0:0:0:0:
192,192,190113,1,0,0:0:0:0:
320,192,190199,1,0,0:0:0:0:
448,192,190285,1,0,0:0:0:0:
64,192,190371,1,0,0:0:0:0:
192,192,190371,1,0,0:0:0:0:
320,192,190371,1,0,0:0:0:0:
448,192,190456,1,0,0:0:0:0:
192,192,190542,1,0,0:0:0:0:
320,192,190628,1,0,0:0:0:0:
64,192,190713,1,0,0:0:0:0:
192,192,190713,1,0,0:0:0:0:
448,192,190713,1,0,0:0:0:0:
320,192,190799,1,0,0:0:0:0:
192,192,190885,1,0,0:0:0:0:
64,192,190971,1,0,0:0:0:0:
192,192,191056,1,0,0:0:0:0:
320,192,191056,1,0,0:0:0:0:
448,192,191056,1,0,0:0:0:0:
64,192,191142,1,0,0:0:0:0:
192,192,191228,1,0,0:0:0:0:
320,192,191314,1,0,0:0:0:0:
64,192,191399,1,0,0:0:0:0:
192,192,191399,1,0,0:0:0:0:
448,192,191399,1,0,0:0:0:0:
320,192,191485,1,0,0:0:0:0:
192,192,191571,1,0,0:0:0:0:
64,192,191656,1,0,0:0:0:0:
192,192,191742,1,0,0:0:0:0:
320,192,191742,1,0,0:0:0:0:
448,192,191742,1,0,0:0:0:0:
192,192,191914,1,0,0:0:0:0:
320,192,191914,1,0,0:0:0:0:
448,192,191914,1,0,0:0:0:0:
64,192,192085,1,0,0:0:0:0:
192,192,192085,1,0,0:0:0:0:
448,192,192085,1,0,0:0:0:0:
64,192,192256,1,0,0:0:0:0:
192,192,192256,1,0,0:0:0:0:
448,192,192256,1,0,0:0:0:0:
64,192,192428,1,0,0:0:0:0:
192,192,192428,1,0,0:0:0:0:
320,192,192428,1,0,0:0:0:0:
320,192,192514,1,0,0:0:0:0:
448,192,192514,1,0,0:0:0:0:
64,192,192599,1,0,0:0:0:0:
320,192,192685,1,0,0:0:0:0:
64,192,192771,1,0,0:0:0:0:
192,192,192771,1,0,0:0:0:0:
64,192,192856,1,0,0:0:0:0:
320,192,192856,1,0,0:0:0:0:
64,192,192942,1,0,0:0:0:0:
192,192,192942,1,0,0:0:0:0:
64,192,193028,1,0,0:0:0:0:
448,192,193028,1,0,0:0:0:0:
64,192,193114,1,0,0:0:0:0:
320,192,193114,1,0,0:0:0:0:
448,192,193114,1,0,0:0:0:0:
192,192,193199,1,0,0:0:0:0:
320,192,193285,1,0,0:0:0:0:
64,192,193371,1,0,0:0:0:0:
192,192,193456,1,0,0:0:0:0:
320,192,193456,1,0,0:0:0:0:
448,192,193456,1,0,0:0:0:0:
64,192,193542,1,0,0:0:0:0:
192,192,193542,1,0,0:0:0:0:
448,192,193628,1,0,0:0:0:0:
64,192,193714,1,0,0:0:0:0:
192,192,193714,1,0,0:0:0:0:
320,192,193799,1,0,0:0:0:0:
64,192,193885,1,0,0:0:0:0:
192,192,193885,1,0,0:0:0:0:
448,192,193971,1,0,0:0:0:0:
64,192,194057,1,0,0:0:0:0:
192,192,194057,1,0,0:0:0:0:
64,192,194142,1,0,0:0:0:0:
192,192,194142,1,0,0:0:0:0:
448,192,194142,1,0,0:0:0:0:
64,192,194314,1,0,0:0:0:0:
320,192,194314,1,0,0:0:0:0:
448,192,194314,1,0,0:0:0:0:
192,192,194399,1,0,0:0:0:0:
320,192,194485,1,0,0:0:0:0:
448,192,194485,1,0,0:0:0:0:
192,192,194657,1,0,0:0:0:0:
320,192,194657,1,0,0:0:0:0:
448,192,194657,1,0,0:0:0:0:
192,192,194828,1,0,0:0:0:0:
320,192,194828,1,0,0:0:0:0:
448,192,194828,1,0,0:0:0:0:
64,192,194914,1,0,0:0:0:0:
192,192,194914,1,0,0:0:0:0:
64,192,195085,1,0,0:0:0:0:
192,192,195085,1,0,0:0:0:0:
192,192,195171,1,0,0:0:0:0:
320,192,195171,1,0,0:0:0:0:
448,192,195171,1,0,0:0:0:0:
192,192,195342,1,0,0:0:0:0:
320,192,195342,1,0,0:0:0:0:
448,192,195342,1,0,0:0:0:0:
64,192,195428,1,0,0:0:0:0:
192,192,195428,1,0,0:0:0:0:
64,192,195599,1,0,0:0:0:0:
320,192,195599,1,0,0:0:0:0:
192,192,195685,1,0,0:0:0:0:
320,192,195685,1,0,0:0:0:0:
448,192,195685,1,0,0:0:0:0:
192,192,195857,1,0,0:0:0:0:
320,192,195857,1,0,0:0:0:0:
448,192,195857,1,0,0:0:0:0:
64,192,195942,1,0,0:0:0:0:
192,192,195942,1,0,0:0:0:0:
64,192,196114,1,0,0:0:0:0:
320,192,196114,1,0,0:0:0:0:
64,192,196199,1,0,0:0:0:0:
192,192,196199,1,0,0:0:0:0:
320,192,196199,1,0,0:0:0:0:
448,192,196199,1,0,0:0:0:0:
64,192,196885,1,0,0:0:0:0:
192,192,196885,1,0,0:0:0:0:
320,192,196885,1,0,0:0:0:0:
448,192,196885,1,0,0:0:0:0:
192,192,196971,1,0,0:0:0:0:
320,192,197057,1,0,0:0:0:0:
192,192,197142,1,0,0:0:0:0:
320,192,197228,1,0,0:0:0:0:
448,192,197228,1,0,0:0:0:0:
64,192,197314,1,0,0:0:0:0:
192,192,197314,1,0,0:0:0:0:
320,192,197400,1,0,0:0:0:0:
448,192,197400,1,0,0:0:0:0:
64,192,197485,1,0,0:0:0:0:
192,192,197485,1,0,0:0:0:0:
64,192,197571,1,0,0:0:0:0:
448,192,197571,1,0,0:0:0:0:
192,192,197657,1,0,0:0:0:0:
320,192,197742,1,0,0:0:0:0:
448,192,197742,1,0,0:0:0:0:
64,192,197828,1,0,0:0:0:0:
448,192,197828,1,0,0:0:0:0:
192,192,197914,1,0,0:0:0:0:
320,192,198000,1,0,0:0:0:0:
448,192,198000,1,0,0:0:0:0:
64,192,198085,1,0,0:0:0:0:
192,192,198171,1,0,0:0:0:0:
448,192,198171,1,0,0:0:0:0:
64,192,198257,1,0,0:0:0:0:
320,192,198257,1,0,0:0:0:0:
448,192,198257,1,0,0:0:0:0:
192,192,198342,1,0,0:0:0:0:
320,192,198428,1,0,0:0:0:0:
192,192,198514,1,0,0:0:0:0:
64,192,198600,1,0,0:0:0:0:
192,192,198685,1,0,0:0:0:0:
320,192,198771,1,0,0:0:0:0:
192,192,198857,1,0,0:0:0:0:
64,192,198942,1,0,0:0:0:0:
448,192,198942,1,0,0:0:0:0:
192,192,199028,1,0,0:0:0:0:
320,192,199114,1,0,0:0:0:0:
448,192,199114,1,0,0:0:0:0:
64,192,199200,1,0,0:0:0:0:
448,192,199200,1,0,0:0:0:0:
192,192,199285,1,0,0:0:0:0:
320,192,199371,1,0,0:0:0:0:
448,192,199371,1,0,0:0:0:0:
64,192,199457,1,0,0:0:0:0:
192,192,199543,1,0,0:0:0:0:
448,192,199543,1,0,0:0:0:0:
64,192,199628,1,0,0:0:0:0:
320,192,199628,1,0,0:0:0:0:
448,192,199628,1,0,0:0:0:0:
192,192,199714,1,0,0:0:0:0:
320,192,199800,1,0,0:0:0:0:
192,192,199885,1,0,0:0:0:0:
64,192,199971,1,0,0:0:0:0:
192,192,200057,1,0,0:0:0:0:
320,192,200143,1,0,0:0:0:0:
192,192,200228,1,0,0:0:0:0:
64,192,200314,1,0,0:0:0:0:
448,192,200314,1,0,0:0:0:0:
192,192,200400,1,0,0:0:0:0:
320,192,200485,1,0,0:0:0:0:
448,192,200485,1,0,0:0:0:0:
64,192,200571,1,0,0:0:0:0:
448,192,200571,1,0,0:0:0:0:
192,192,200657,1,0,0:0:0:0:
320,192,200743,1,0,0:0:0:0:
448,192,200743,1,0,0:0:0:0:
64,192,200828,1,0,0:0:0:0:
192,192,200914,1,0,0:0:0:0:
448,192,200914,1,0,0:0:0:0:
64,192,201000,1,0,0:0:0:0:
320,192,201000,1,0,0:0:0:0:
448,192,201000,1,0,0:0:0:0:
192,192,201085,1,0,0:0:0:0:
320,192,201171,1,0,0:0:0:0:
192,192,201257,1,0,0:0:0:0:
64,192,201343,1,0,0:0:0:0:
192,192,201428,1,0,0:0:0:0:
320,192,201514,1,0,0:0:0:0:
192,192,201600,1,0,0:0:0:0:
64,192,201685,1,0,0:0:0:0:
448,192,201685,1,0,0:0:0:0:
192,192,201771,1,0,0:0:0:0:
320,192,201857,1,0,0:0:0:0:
448,192,201857,1,0,0:0:0:0:
64,192,201943,1,0,0:0:0:0:
448,192,201943,1,0,0:0:0:0:
192,192,202028,1,0,0:0:0:0:
320,192,202114,1,0,0:0:0:0:
448,192,202114,1,0,0:0:0:0:
64,192,202200,1,0,0:0:0:0:
448,192,202286,1,0,0:0:0:0:
64,192,202371,1,0,0:0:0:0:
320,192,202371,1,0,0:0:0:0:
192,192,202457,1,0,0:0:0:0:
448,192,202457,1,0,0:0:0:0:
64,192,202543,1,0,0:0:0:0:
320,192,202543,1,0,0:0:0:0:
192,192,202628,1,0,0:0:0:0:
448,192,202628,1,0,0:0:0:0:
64,0,202714,128,0,202886:1:0:0:0:
320,0,202714,128,0,202886:1:0:0:0:
448,0,202714,128,0,202886:1:0:0:0:
64,192,203057,1,0,0:0:0:0:
448,192,203057,1,0,0:0:0:0:
192,192,203143,1,0,0:0:0:0:
320,192,203228,1,0,0:0:0:0:
448,192,203228,1,0,0:0:0:0:
64,192,203314,1,0,0:0:0:0:
448,192,203314,1,0,0:0:0:0:
192,192,203400,1,0,0:0:0:0:
320,192,203486,1,0,0:0:0:0:
448,192,203486,1,0,0:0:0:0:
64,192,203571,1,0,0:0:0:0:
192,192,203657,1,0,0:0:0:0:
448,192,203657,1,0,0:0:0:0:
64,192,203743,1,0,0:0:0:0:
320,192,203743,1,0,0:0:0:0:
448,192,203743,1,0,0:0:0:0:
192,192,203828,1,0,0:0:0:0:
320,192,203914,1,0,0:0:0:0:
192,192,204000,1,0,0:0:0:0:
64,192,204086,1,0,0:0:0:0:
192,192,204171,1,0,0:0:0:0:
320,192,204257,1,0,0:0:0:0:
192,192,204343,1,0,0:0:0:0:
64,192,204428,1,0,0:0:0:0:
448,192,204428,1,0,0:0:0:0:
192,192,204514,1,0,0:0:0:0:
320,192,204600,1,0,0:0:0:0:
448,192,204600,1,0,0:0:0:0:
64,192,204686,1,0,0:0:0:0:
448,192,204686,1,0,0:0:0:0:
192,192,204771,1,0,0:0:0:0:
320,192,204857,1,0,0:0:0:0:
448,192,204857,1,0,0:0:0:0:
64,192,204943,1,0,0:0:0:0:
192,192,205029,1,0,0:0:0:0:
448,192,205029,1,0,0:0:0:0:
64,192,205114,1,0,0:0:0:0:
320,192,205114,1,0,0:0:0:0:
448,192,205114,1,0,0:0:0:0:
192,192,205200,1,0,0:0:0:0:
320,192,205286,1,0,0:0:0:0:
192,192,205371,1,0,0:0:0:0:
64,192,205457,1,0,0:0:0:0:
192,192,205543,1,0,0:0:0:0:
320,192,205629,1,0,0:0:0:0:
192,192,205714,1,0,0:0:0:0:
64,192,205800,1,0,0:0:0:0:
448,192,205800,1,0,0:0:0:0:
192,192,205886,1,0,0:0:0:0:
320,192,205971,1,0,0:0:0:0:
448,192,205971,1,0,0:0:0:0:
64,192,206057,1,0,0:0:0:0:
448,192,206057,1,0,0:0:0:0:
192,192,206143,1,0,0:0:0:0:
320,192,206229,1,0,0:0:0:0:
448,192,206229,1,0,0:0:0:0:
64,192,206314,1,0,0:0:0:0:
192,192,206400,1,0,0:0:0:0:
448,192,206400,1,0,0:0:0:0:
64,192,206486,1,0,0:0:0:0:
320,192,206486,1,0,0:0:0:0:
448,192,206486,1,0,0:0:0:0:
192,192,206571,1,0,0:0:0:0:
320,192,206657,1,0,0:0:0:0:
192,192,206743,1,0,0:0:0:0:
64,192,206829,1,0,0:0:0:0:
192,192,206914,1,0,0:0:0:0:
320,192,207000,1,0,0:0:0:0:
192,192,207086,1,0,0:0:0:0:
64,192,207171,1,0,0:0:0:0:
448,192,207171,1,0,0:0:0:0:
192,192,207257,1,0,0:0:0:0:
320,192,207343,1,0,0:0:0:0:
448,192,207343,1,0,0:0:0:0:
64,192,207429,1,0,0:0:0:0:
448,192,207429,1,0,0:0:0:0:
192,192,207514,1,0,0:0:0:0:
320,192,207600,1,0,0:0:0:0:
448,192,207600,1,0,0:0:0:0:
64,192,207686,1,0,0:0:0:0:
448,192,207772,1,0,0:0:0:0:
64,192,207857,1,0,0:0:0:0:
320,192,207857,1,0,0:0:0:0:
192,192,207943,1,0,0:0:0:0:
448,192,207943,1,0,0:0:0:0:
64,192,208029,1,0,0:0:0:0:
320,192,208029,1,0,0:0:0:0:
192,192,208114,1,0,0:0:0:0:
448,192,208114,1,0,0:0:0:0:
64,0,208200,128,0,208457:1:0:0:0:
320,0,208200,128,0,208457:1:0:0:0:
448,0,208200,128,0,208457:1:0:0:0:
64,192,208543,1,0,0:0:0:0:
192,192,208543,1,0,0:0:0:0:
448,192,208543,1,0,0:0:0:0:
320,192,208629,1,0,0:0:0:0:
192,192,208714,1,0,0:0:0:0:
448,192,208714,1,0,0:0:0:0:
64,192,208800,1,0,0:0:0:0:
448,192,208800,1,0,0:0:0:0:
192,192,208886,1,0,0:0:0:0:
320,192,208972,1,0,0:0:0:0:
448,192,208972,1,0,0:0:0:0:
64,192,209057,1,0,0:0:0:0:
448,192,209057,1,0,0:0:0:0:
192,192,209143,1,0,0:0:0:0:
320,192,209229,1,0,0:0:0:0:
448,192,209229,1,0,0:0:0:0:
64,192,209314,1,0,0:0:0:0:
192,192,209400,1,0,0:0:0:0:
320,192,209486,1,0,0:0:0:0:
64,192,209572,1,0,0:0:0:0:
448,192,209572,1,0,0:0:0:0:
320,192,209657,1,0,0:0:0:0:
192,192,209743,1,0,0:0:0:0:
64,192,209829,1,0,0:0:0:0:
64,192,209914,1,0,0:0:0:0:
192,192,209914,1,0,0:0:0:0:
448,192,209914,1,0,0:0:0:0:
320,192,210000,1,0,0:0:0:0:
192,192,210086,1,0,0:0:0:0:
448,192,210086,1,0,0:0:0:0:
64,192,210172,1,0,0:0:0:0:
448,192,210172,1,0,0:0:0:0:
192,192,210257,1,0,0:0:0:0:
320,192,210343,1,0,0:0:0:0:
448,192,210343,1,0,0:0:0:0:
64,192,210429,1,0,0:0:0:0:
448,192,210429,1,0,0:0:0:0:
192,192,210515,1,0,0:0:0:0:
320,192,210600,1,0,0:0:0:0:
448,192,210600,1,0,0:0:0:0:
64,192,210686,1,0,0:0:0:0:
192,192,210772,1,0,0:0:0:0:
320,192,210857,1,0,0:0:0:0:
64,192,210943,1,0,0:0:0:0:
448,192,210943,1,0,0:0:0:0:
320,192,211029,1,0,0:0:0:0:
192,192,211115,1,0,0:0:0:0:
64,192,211200,1,0,0:0:0:0:
64,192,211286,1,0,0:0:0:0:
192,192,211286,1,0,0:0:0:0:
448,192,211286,1,0,0:0:0:0:
320,192,211372,1,0,0:0:0:0:
192,192,211457,1,0,0:0:0:0:
448,192,211457,1,0,0:0:0:0:
64,192,211543,1,0,0:0:0:0:
448,192,211543,1,0,0:0:0:0:
192,192,211629,1,0,0:0:0:0:
320,192,211715,1,0,0:0:0:0:
448,192,211715,1,0,0:0:0:0:
64,192,211800,1,0,0:0:0:0:
448,192,211800,1,0,0:0:0:0:
192,192,211886,1,0,0:0:0:0:
320,192,211972,1,0,0:0:0:0:
448,192,211972,1,0,0:0:0:0:
64,192,212057,1,0,0:0:0:0:
192,192,212143,1,0,0:0:0:0:
320,192,212229,1,0,0:0:0:0:
64,192,212315,1,0,0:0:0:0:
448,192,212315,1,0,0:0:0:0:
320,192,212400,1,0,0:0:0:0:
192,192,212486,1,0,0:0:0:0:
64,192,212572,1,0,0:0:0:0:
192,192,212657,1,0,0:0:0:0:
448,192,212657,1,0,0:0:0:0:
320,192,212743,1,0,0:0:0:0:
192,192,212829,1,0,0:0:0:0:
448,192,212829,1,0,0:0:0:0:
64,192,212915,1,0,0:0:0:0:
448,192,212915,1,0,0:0:0:0:
192,192,213000,1,0,0:0:0:0:
320,192,213086,1,0,0:0:0:0:
448,192,213086,1,0,0:0:0:0:
64,192,213172,1,0,0:0:0:0:
448,192,213172,1,0,0:0:0:0:
320,192,213258,1,0,0:0:0:0:
192,192,213343,1,0,0:0:0:0:
448,192,213343,1,0,0:0:0:0:
64,192,213429,1,0,0:0:0:0:
320,192,213429,1,0,0:0:0:0:
192,192,213515,1,0,0:0:0:0:
448,192,213515,1,0,0:0:0:0:
64,192,213600,1,0,0:0:0:0:
320,192,213600,1,0,0:0:0:0:
64,0,213686,128,0,213858:1:0:0:0:
320,0,213686,128,0,213858:1:0:0:0:
448,0,213686,128,0,213858:1:0:0:0:
64,192,214029,1,0,0:0:0:0:
320,192,214029,1,0,0:0:0:0:
448,192,214029,1,0,0:0:0:0:
192,192,214115,1,0,0:0:0:0:
320,192,214200,1,0,0:0:0:0:
448,192,214200,1,0,0:0:0:0:
64,192,214286,1,0,0:0:0:0:
448,192,214286,1,0,0:0:0:0:
192,192,214372,1,0,0:0:0:0:
320,192,214458,1,0,0:0:0:0:
448,192,214458,1,0,0:0:0:0:
64,192,214543,1,0,0:0:0:0:
448,192,214543,1,0,0:0:0:0:
192,192,214629,1,0,0:0:0:0:
320,192,214715,1,0,0:0:0:0:
448,192,214715,1,0,0:0:0:0:
64,192,214800,1,0,0:0:0:0:
192,192,214886,1,0,0:0:0:0:
320,192,214972,1,0,0:0:0:0:
64,192,215058,1,0,0:0:0:0:
192,192,215058,1,0,0:0:0:0:
448,192,215058,1,0,0:0:0:0:
320,192,215143,1,0,0:0:0:0:
192,192,215229,1,0,0:0:0:0:
64,192,215315,1,0,0:0:0:0:
64,192,215400,1,0,0:0:0:0:
320,192,215400,1,0,0:0:0:0:
448,192,215400,1,0,0:0:0:0:
192,192,215486,1,0,0:0:0:0:
320,192,215572,1,0,0:0:0:0:
448,192,215572,1,0,0:0:0:0:
64,192,215658,1,0,0:0:0:0:
448,192,215658,1,0,0:0:0:0:
192,192,215743,1,0,0:0:0:0:
320,192,215829,1,0,0:0:0:0:
448,192,215829,1,0,0:0:0:0:
64,192,215915,1,0,0:0:0:0:
448,192,215915,1,0,0:0:0:0:
192,192,216001,1,0,0:0:0:0:
320,192,216086,1,0,0:0:0:0:
448,192,216086,1,0,0:0:0:0:
64,192,216172,1,0,0:0:0:0:
192,192,216258,1,0,0:0:0:0:
320,192,216343,1,0,0:0:0:0:
64,192,216429,1,0,0:0:0:0:
448,192,216429,1,0,0:0:0:0:
320,192,216515,1,0,0:0:0:0:
192,192,216601,1,0,0:0:0:0:
64,192,216686,1,0,0:0:0:0:
64,192,216772,1,0,0:0:0:0:
320,192,216772,1,0,0:0:0:0:
448,192,216772,1,0,0:0:0:0:
192,192,216858,1,0,0:0:0:0:
320,192,216943,1,0,0:0:0:0:
448,192,216943,1,0,0:0:0:0:
64,192,217029,1,0,0:0:0:0:
448,192,217029,1,0,0:0:0:0:
192,192,217115,1,0,0:0:0:0:
320,192,217201,1,0,0:0:0:0:
448,192,217201,1,0,0:0:0:0:
64,192,217286,1,0,0:0:0:0:
448,192,217286,1,0,0:0:0:0:
192,192,217372,1,0,0:0:0:0:
320,192,217458,1,0,0:0:0:0:
448,192,217458,1,0,0:0:0:0:
64,192,217543,1,0,0:0:0:0:
192,192,217629,1,0,0:0:0:0:
320,192,217715,1,0,0:0:0:0:
64,192,217801,1,0,0:0:0:0:
192,192,217801,1,0,0:0:0:0:
448,192,217801,1,0,0:0:0:0:
320,192,217886,1,0,0:0:0:0:
192,192,217972,1,0,0:0:0:0:
64,192,218058,1,0,0:0:0:0:
64,192,218143,1,0,0:0:0:0:
320,192,218143,1,0,0:0:0:0:
448,192,218143,1,0,0:0:0:0:
192,192,218229,1,0,0:0:0:0:
320,192,218315,1,0,0:0:0:0:
448,192,218315,1,0,0:0:0:0:
64,192,218401,1,0,0:0:0:0:
448,192,218401,1,0,0:0:0:0:
192,192,218486,1,0,0:0:0:0:
320,192,218572,1,0,0:0:0:0:
448,192,218572,1,0,0:0:0:0:
64,192,218658,1,0,0:0:0:0:
192,192,218744,1,0,0:0:0:0:
320,192,218829,1,0,0:0:0:0:
448,192,218829,1,0,0:0:0:0:
64,192,218915,1,0,0:0:0:0:
192,192,218915,1,0,0:0:0:0:
320,192,219001,1,0,0:0:0:0:
448,192,219001,1,0,0:0:0:0:
64,192,219086,1,0,0:0:0:0:
192,192,219086,1,0,0:0:0:0:
64,0,219172,128,0,219344:1:0:0:0:
320,0,219172,128,0,219344:1:0:0:0:
448,0,219172,128,0,219344:1:0:0:0:
64,192,219515,1,0,0:0:0:0:
192,192,219515,1,0,0:0:0:0:
320,192,219515,1,0,0:0:0:0:
448,192,219515,1,0,0:0:0:0:
