osu file format v14

[General]
AudioFilename: audio.mp3
AudioLeadIn: 0
PreviewTime: 82261
Countdown: 0
SampleSet: Normal
StackLeniency: 0.7
Mode: 0
LetterboxInBreaks: 0
WidescreenStoryboard: 1

[Editor]
Bookmarks: 57566,148080,196080,207052
DistanceSpacing: 1.4
BeatDivisor: 4
GridSize: 4
TimelineZoom: 1.1

[Metadata]
Title:Do you believe a Dullahan?
TitleUnicode:Do you believe a Dullahan?
Artist:Jerico
ArtistUnicode:Jerico
Creator:greenhue
Version:Hard
Source:東方輝針城 ~ Double Dealing Character.
Tags:東方Project reiji-rj vass_bass frantic acceleration sekibanki under the willows 東方輝針城 赤蛮奇 柳の下のデュラハン zun c85 comiket ジェリコの法則 Jounzan EvilElvis EvilElvisV2 Natteke Desu
BeatmapID:2325077
BeatmapSetID:1112914

[Difficulty]
HPDrainRate:3
CircleSize:3.7
OverallDifficulty:5
ApproachRate:7.9
SliderMultiplier:1.4
SliderTickRate:1

[Events]
//Background and Video events
0,0,"41737513_waifu2x_art_noise1_scale_tta_1 vass-rj.png",0,0
//Break Periods
2,104404,114276
2,148290,151304
//Storyboard Layer 0 (Background)
//Storyboard Layer 1 (Fail)
//Storyboard Layer 2 (Pass)
//Storyboard Layer 3 (Foreground)
//Storyboard Layer 4 (Overlay)
//Storyboard Sound Samples

[TimingPoints]
1347,342.857142857143,4,1,1,40,1,0
1347,-200,4,1,1,40,0,0
4089,-125,4,1,1,40,0,0
6832,-100,4,1,1,40,0,0
9575,-83.3333333333333,4,1,1,40,0,0
10947,-83.3333333333333,4,2,2,40,0,0
11289,-83.3333333333333,4,2,2,35,0,0
11632,-83.3333333333333,4,2,2,30,0,0
11975,-83.3333333333333,4,2,2,25,0,0
12318,-83.3333333333333,4,2,2,20,0,0
12661,-83.3333333333333,4,2,2,15,0,0
13004,-83.3333333333333,4,2,2,10,0,0
13347,-83.3333333333333,4,2,1,20,0,0
13689,-100,4,1,1,40,0,0
13861,-100,4,1,1,30,0,0
22947,-100,4,1,1,60,0,0
23289,-100,4,1,3,50,0,0
52432,-100,4,1,1,40,0,0
57575,-100,4,1,1,50,0,0
65804,-100,4,1,1,55,0,0
68544,-100,4,1,1,60,0,0
71289,-100,4,1,1,65,0,0
77118,-100,4,1,1,40,0,0
77461,-100,4,1,1,55,0,0
77804,-100,4,2,1,60,0,0
80547,-100,4,1,1,40,0,0
80889,-100,4,1,1,65,0,0
82261,-83.3333333333333,4,1,1,65,0,0
88347,-83.3333333333333,4,1,1,65,0,0
88432,-83.3333333333333,4,1,1,65,0,0
92031,-83.3333333333333,4,1,1,65,0,0
92032,-83.3333333333333,4,1,1,20,0,0
92204,-83.3333333333333,4,1,1,40,0,0
92375,-83.3333333333333,4,1,1,45,0,0
92547,-83.3333333333333,4,1,1,65,0,0
95547,-83.3333333333333,4,1,1,65,0,0
95632,-83.3333333333333,4,1,1,65,0,0
98975,-83.3333333333333,4,1,1,65,0,0
99232,-83.3333333333333,4,1,1,65,0,0
101718,-83.3333333333333,4,1,1,65,0,0
101804,-83.3333333333333,4,1,1,65,0,0
103289,-83.3333333333333,4,1,1,65,0,0
103518,-83.3333333333333,4,1,1,65,0,0
104204,-100,4,1,1,65,0,0
115175,-100,4,2,2,50,0,0
115176,-100,4,2,2,50,0,0
115690,-100,4,2,2,50,0,0
116032,-100,4,2,2,65,0,0
116033,-100,4,2,2,65,0,0
117062,-100,4,2,2,65,0,0
117404,-100,4,2,2,65,0,0
117747,-100,4,2,2,65,0,0
117919,-100,4,2,2,65,0,0
118775,-100,4,2,2,65,0,0
118946,-100,4,2,2,65,0,0
119117,-100,4,2,2,65,0,0
119290,-100,4,2,2,65,0,0
120146,-100,4,2,2,65,0,0
120318,-100,4,2,2,65,0,0
121176,-100,4,2,2,65,0,0
121518,-100,4,2,2,65,0,0
122547,-100,4,2,2,65,0,0
122890,-100,4,2,2,65,0,0
123233,-100,4,2,2,65,0,0
123404,-100,4,2,2,65,0,0
124090,-100,4,2,2,65,0,0
124261,-100,4,2,2,65,0,0
124432,-100,4,1,1,65,0,0
124775,-100,4,1,1,50,0,0
126147,-100,4,1,3,50,0,0
137118,-100,4,1,1,50,0,0
137119,-100,4,1,1,50,0,0
137461,-100,4,1,3,50,0,0
142861,-100,4,1,3,50,0,0
142947,-100,4,1,1,45,0,0
143890,-100,4,1,1,45,0,0
143976,-100,4,1,1,45,0,0
144233,-100,4,1,1,45,0,0
144319,-100,4,1,1,45,0,0
146376,-100,4,1,1,45,0,0
146547,-100,4,1,1,45,0,0
148089,-100,4,2,1,50,0,0
148090,-100,4,2,1,50,0,0
152204,-100,4,1,1,50,0,0
152976,-100,4,1,1,50,0,0
153233,-100,4,1,1,50,0,0
156318,-100,4,1,1,60,0,0
156319,-100,4,1,1,60,0,0
156490,-100,4,1,1,60,0,0
156661,-100,4,1,1,60,0,0
159062,-100,4,1,1,65,0,0
159233,-100,4,1,1,65,0,0
159404,-100,4,1,1,65,0,0
161033,-100,4,1,1,65,0,0
161119,-100,4,1,1,65,0,0
161804,-100,4,1,1,70,0,0
161975,-100,4,1,1,70,0,0
162146,-100,4,1,1,70,0,0
164547,-100,4,1,1,50,0,0
167632,-100,4,1,1,55,0,0
167633,-100,4,1,1,55,0,0
167975,-100,4,1,1,60,0,0
167976,-100,4,1,1,60,0,0
168318,-100,4,1,1,65,0,0
168319,-100,4,1,1,65,0,0
171061,-100,4,1,1,40,0,0
171062,-100,4,1,1,40,0,0
171404,-100,4,1,1,65,0,0
174147,-83.3333333333333,4,1,1,65,0,0
176461,-83.3333333333333,4,1,1,65,0,0
176547,-83.3333333333333,4,1,1,65,0,0
183917,-83.3333333333333,4,1,1,65,0,0
183918,-83.3333333333333,4,1,1,40,0,0
184260,-83.3333333333333,4,1,1,40,0,0
184261,-83.3333333333333,4,1,1,50,0,0
184603,-83.3333333333333,4,1,1,50,0,0
184604,-83.3333333333333,4,1,1,65,0,0
190861,-83.3333333333333,4,1,1,65,0,0
191118,-83.3333333333333,4,1,1,65,0,0
198404,-83.3333333333333,4,1,1,65,0,0
198489,-83.3333333333333,4,1,1,65,0,0
203889,-83.3333333333333,4,1,1,65,0,0
203975,-83.3333333333333,4,1,1,65,0,0
204918,-83.3333333333333,4,1,1,65,0,0
205175,-83.3333333333333,4,1,1,65,0,0
207661,-83.3333333333333,4,1,1,65,0,0
207747,-83.3333333333333,4,1,1,65,0,0
212804,-83.3333333333333,4,1,1,65,0,0
213061,-83.3333333333333,4,1,1,65,0,0
213661,-83.3333333333333,4,1,1,65,0,0
213747,-83.3333333333333,4,1,1,65,0,0
215889,-83.3333333333333,4,1,1,65,0,0
216147,-83.3333333333333,4,1,1,65,0,0
217118,-83.3333333333333,4,1,1,65,0,0
217347,-83.3333333333333,4,1,1,65,0,0

[Colours]
Combo1 : 226,60,24
Combo2 : 83,236,190
Combo3 : 90,232,74
Combo4 : 47,107,140

[HitObjects]
77,84,1347,6,0,L|124:76,1,35,0|0,0:0|3:0,0:0:0:0:
146,72,1689,2,0,L|193:64,1,35,0|0,0:0|3:0,0:0:0:0:
215,60,2032,2,0,L|262:52,1,35,0|0,0:0|3:0,0:0:0:0:
69,176,4089,6,0,L|146:164,1,56,0|0,0:0|3:0,0:0:0:0:
180,156,4432,2,0,L|257:144,1,56,0|0,0:0|3:0,0:0:0:0:
292,137,4775,2,0,L|369:125,1,56,0|0,0:0|3:0,0:0:0:0:
44,278,6832,6,0,L|141:263,1,70,0|0,0:0|3:0,0:0:0:0:
182,253,7175,2,0,L|279:238,1,70,0|0,0:0|3:0,0:0:0:0:
322,229,7518,2,0,L|419:214,1,70,0|0,0:0|3:0,0:0:0:0:
12,375,9575,6,0,L|120:358,1,83.9999974365235,0|0,0:0|3:0,0:0:0:0:
166,347,9917,2,0,L|274:330,1,83.9999974365235,0|0,0:0|3:0,0:0:0:0:
322,320,10260,2,0,L|430:303,1,83.9999974365235,0|0,0:0|3:0,0:0:0:0:
405,307,13689,2,0,P|357:280|317:208,1,140,4|0,0:0|0:0,0:0:0:0:
306,129,14204,1,2,0:3:0:0:
375,80,14375,2,0,P|391:117|380:171,1,70,0|0,0:0|3:0,0:0:0:0:
316,207,14718,2,0,P|275:202|234:165,1,70,0|0,0:0|3:0,0:0:0:0:
211,103,15061,6,0,L|43:118,1,140,4|0,0:0|0:0,0:0:0:0:
19,172,15575,1,2,0:3:0:0:
87,218,15747,1,0,0:0:0:0:
87,218,15918,1,0,3:0:0:0:
37,276,16089,2,0,P|39:328|50:355,1,70,0|0,0:0|3:0,0:0:0:0:
115,377,16432,6,0,B|191:390|181:334|246:342,1,140,4|0,0:0|0:0,0:0:0:0:
317,369,16947,1,2,0:3:0:0:
246,331,17118,2,0,P|227:279|231:246,1,70,0|0,0:0|3:0,0:0:0:0:
286,216,17461,2,0,P|315:232|363:228,1,70,0|0,0:0|3:0,0:0:0:0:
411,177,17804,6,0,P|408:98|402:32,1,140,4|0,0:0|0:0,0:0:0:0:
326,21,18318,2,0,P|328:90|334:165,1,140,2|0,0:3|3:0,0:0:0:0:
284,217,18832,2,0,P|223:204|188:199,1,70,0|0,0:0|3:0,0:0:0:0:
151,242,19175,6,0,P|107:269|57:208,1,140,4|0,0:0|0:0,0:0:0:0:
119,168,19689,1,2,0:3:0:0:
170,110,19861,2,0,P|182:57|173:30,1,70,0|0,0:0|3:0,0:0:0:0:
107,67,20204,1,0,0:0:0:0:
107,67,20375,1,0,3:0:0:0:
110,176,20547,6,0,P|189:149|247:137,1,140,4|0,0:0|0:0,0:0:0:0:
321,140,21061,1,2,0:3:0:0:
382,201,21232,1,0,0:0:0:0:
382,201,21404,1,0,3:0:0:0:
329,274,21575,2,0,P|326:320|332:363,1,70,0|0,0:0|3:0,0:0:0:0:
251,354,21918,6,0,B|191:356|191:356|166:343|166:343|96:345,1,140,4|0,0:0|0:0,0:0:0:0:
53,297,22432,1,2,0:3:0:0:
118,255,22604,1,0,0:0:0:0:
118,255,22775,1,0,3:0:0:0:
46,220,22947,1,8,1:0:0:0:
126,122,23289,5,8,1:0:0:0:
180,183,23461,1,8,0:2:0:0:
180,183,23547,2,0,P|227:191|271:179,1,70,8|8,0:2|0:2,0:0:0:0:
285,200,23804,2,0,P|317:175|336:139,1,70,8|8,0:2|1:0,0:0:0:0:
327,111,24061,1,8,0:2:0:0:
453,161,24318,1,8,1:0:0:0:
453,161,24489,1,8,1:0:0:0:
421,76,24661,6,0,L|404:227,1,140,12|8,1:0|0:0,0:0:0:0:
451,277,25175,1,0,3:0:0:0:
407,341,25347,2,0,P|361:361|316:351,1,70,8|8,0:2|0:2,0:0:0:0:
310,347,25604,1,8,0:2:0:0:
310,347,25689,1,8,1:1:0:0:
228,216,26032,6,0,B|179:231|159:277|159:277|166:304|156:336,1,140,8|8,1:0|0:0,0:0:0:0:
93,361,26547,1,0,3:0:0:0:
21,333,26718,2,0,P|43:301|89:282,1,70,8|8,0:2|0:2,0:0:0:0:
103,216,27061,2,0,P|73:197|54:168,1,70,8|0,1:1|0:3,0:0:0:0:
37,75,27404,6,0,P|122:59|207:43,1,140,8|8,1:0|0:0,0:0:0:0:
226,106,27918,2,0,P|292:108|309:108,1,70,0|8,3:0|0:2,0:0:0:0:
317,34,28261,1,8,0:2:0:0:
317,34,28347,1,8,0:2:0:0:
317,34,28432,2,0,P|270:32|227:33,1,70,8|0,1:1|0:3,0:0:0:0:
169,32,28775,6,0,P|183:106|196:192,1,140,8|8,1:0|0:0,0:0:0:0:
162,241,29289,1,0,3:0:0:0:
108,296,29461,2,0,P|59:300|39:285,1,70,8|8,0:2|0:2,0:0:0:0:
42,281,29718,1,8,0:2:0:0:
38,272,29804,2,0,P|58:322|54:366,1,70,8|0,1:1|0:3,0:0:0:0:
144,384,30147,6,0,L|297:358,1,140,8|8,1:0|0:0,0:0:0:0:
357,342,30661,1,0,3:0:0:0:
353,265,30832,1,8,0:2:0:0:
270,271,31004,1,8,0:2:0:0:
270,271,31089,1,8,0:2:0:0:
270,271,31175,1,8,1:1:0:0:
211,118,31518,6,0,L|50:132,1,140,8|8,1:0|0:0,0:0:0:0:
13,181,32032,1,0,3:0:0:0:
9,258,32204,2,0,P|46:254|82:222,1,70,8|8,0:2|0:2,0:0:0:0:
93,162,32547,1,8,1:1:0:0:
71,88,32718,1,0,0:3:0:0:
134,27,32889,6,0,P|211:21|284:47,1,140,12|8,1:0|0:0,0:0:0:0:
347,39,33404,2,0,P|359:81|357:113,1,70,0|8,3:0|0:2,0:0:0:0:
309,167,33747,1,8,0:2:0:0:
309,167,33832,1,8,0:2:0:0:
309,167,33918,1,8,1:1:0:0:
369,119,34089,1,0,0:3:0:0:
369,230,34261,6,0,P|297:196|222:213,1,140,8|8,1:0|0:0,0:0:0:0:
182,256,34775,1,0,3:0:0:0:
202,330,34947,2,0,L|295:319,1,70,8|8,0:2|0:2,0:0:0:0:
277,330,35204,1,8,0:2:0:0:
285,339,35289,2,0,L|374:328,1,70,8|0,1:1|0:3,0:0:0:0:
448,291,35632,6,0,P|473:221|431:142,1,140,12|8,1:0|0:0,0:0:0:0:
375,145,36147,1,0,3:0:0:0:
294,157,36318,1,8,0:2:0:0:
217,177,36489,1,8,0:2:0:0:
217,177,36575,1,8,0:2:0:0:
217,177,36661,1,8,1:1:0:0:
103,84,37004,6,0,B|122:76|129:49|129:49|161:96|134:146,1,140,12|8,1:0|0:0,0:0:0:0:
61,150,37518,1,0,3:0:0:0:
17,213,37689,2,0,L|23:288,1,70,8|8,0:2|0:2,0:0:0:0:
92,316,38032,2,0,P|119:297|164:283,1,70,8|0,1:1|0:3,0:0:0:0:
252,224,38375,6,0,P|185:204|137:146,1,140,12|8,1:0|0:0,0:0:0:0:
103,84,38889,1,0,3:0:0:0:
180,77,39061,2,0,P|224:88|243:103,1,70,8|8,0:2|0:2,0:0:0:0:
253,117,39318,1,8,0:2:0:0:
263,127,39404,2,0,P|290:96|328:73,1,70,8|0,1:1|0:3,0:0:0:0:
405,107,39747,6,0,P|390:181|385:272,1,140,12|8,1:0|0:0,0:0:0:0:
452,274,40261,2,0,P|385:274|317:328,1,140,0|8,3:0|0:2,0:0:0:0:
310,351,40689,1,8,0:2:0:0:
310,351,40775,1,8,1:1:0:0:
239,308,40947,1,0,0:3:0:0:
152,375,41118,6,0,L|127:218,1,140,12|8,1:0|0:0,0:0:0:0:
52,216,41632,1,0,3:0:0:0:
113,158,41804,2,0,L|101:84,1,70,8|8,0:2|0:2,0:0:0:0:
98,54,42061,1,8,0:2:0:0:
98,54,42147,1,8,1:1:0:0:
243,145,42489,6,0,P|297:82|361:55,1,140,12|8,1:0|0:0,0:0:0:0:
426,77,43004,1,0,3:0:0:0:
369,132,43175,2,0,P|338:150|313:180,1,70,8|8,0:2|0:2,0:0:0:0:
342,262,43518,1,8,1:1:0:0:
309,187,43689,1,0,0:3:0:0:
232,154,43861,6,0,P|184:144|83:171,1,140,12|8,1:0|0:0,0:0:0:0:
52,229,44375,1,0,3:0:0:0:
131,230,44547,2,0,P|165:220|204:224,1,70,8|8,0:2|0:2,0:0:0:0:
210,231,44804,1,8,0:2:0:0:
219,239,44889,2,0,L|206:328,1,70,8|0,1:1|0:3,0:0:0:0:
271,382,45232,6,0,P|393:359|422:352,1,140,12|8,1:0|0:0,0:0:0:0:
450,290,45747,1,0,3:0:0:0:
392,229,45918,2,0,P|381:180|392:148,1,70,8|8,0:2|0:2,0:0:0:0:
394,149,46175,1,8,0:2:0:0:
405,141,46261,1,8,1:1:0:0:
399,238,46432,1,0,0:3:0:0:
320,273,46604,6,0,P|299:212|317:112,1,140,12|8,1:0|0:0,0:0:0:0:
349,73,47118,1,0,3:0:0:0:
286,27,47289,2,0,P|229:12|203:14,1,70,8|8,0:2|0:2,0:0:0:0:
206,24,47547,1,8,0:2:0:0:
196,36,47632,2,0,P|161:48|111:47,1,70,8|0,1:1|0:3,0:0:0:0:
62,114,47975,6,0,L|82:286,1,140,12|8,1:0|0:0,0:0:0:0:
144,292,48489,1,0,3:0:0:0:
191,231,48661,2,0,P|226:219|273:224,1,70,8|8,0:2|0:2,0:0:0:0:
317,270,49004,2,0,P|289:291|272:321,1,70,8|0,1:1|0:3,0:0:0:0:
325,378,49347,6,0,L|473:346,1,140,12|8,1:0|0:0,0:0:0:0:
440,274,49861,1,0,3:0:0:0:
478,202,50032,1,8,0:2:0:0:
417,152,50204,1,8,0:2:0:0:
417,152,50289,1,8,0:2:0:0:
417,152,50375,2,0,L|420:63,1,70,8|0,1:1|0:3,0:0:0:0:
368,24,50718,6,0,P|282:13|218:37,1,140,12|8,1:0|0:0,0:0:0:0:
182,102,51232,1,0,3:0:0:0:
224,36,51404,2,0,P|181:7|142:-1,1,70,8|8,0:2|0:2,0:0:0:0:
129,5,51661,1,8,0:2:0:0:
129,5,51747,1,8,1:1:0:0:
64,46,51918,1,0,0:3:0:0:
99,119,52089,2,0,L|101:237,1,105,12|0,1:0|0:0,0:0:0:0:
98,262,52432,6,0,P|60:239|18:235,1,70,8|0,0:0|3:0,0:0:0:0:
0,305,52775,2,0,P|28:325|70:331,1,70,8|8,0:0|0:2,0:0:0:0:
139,330,53118,1,8,1:1:0:0:
196,279,53289,1,0,0:3:0:0:
196,279,53375,1,0,0:0:0:0:
196,279,53461,6,0,P|266:250|320:257,1,105,4|0,0:0|0:0,0:0:0:0:
327,269,53804,6,0,L|317:364,1,70,8|0,0:0|3:0,0:0:0:0:
393,361,54147,2,0,L|402:278,1,70,8|8,0:0|0:2,0:0:0:0:
473,314,54489,2,0,L|467:381,2,46.6666666666667,8|0|0,1:1|0:0|0:0,0:0:0:0:
499,269,54832,5,8,3:0:0:0:
442,216,55004,1,2,2:0:0:0:
485,152,55175,2,0,L|468:68,1,70,8|8,0:0|0:0,0:0:0:0:
398,39,55518,2,0,P|366:41|325:74,1,70,8|2,0:3|2:0,0:0:0:0:
324,75,55775,1,2,2:0:0:0:
317,88,55861,2,0,P|271:93|238:77,1,70,2|8,2:0|0:0,0:0:0:0:
198,27,56204,5,8,0:0:0:0:
139,85,56375,1,2,2:0:0:0:
139,85,56461,1,2,2:0:0:0:
139,85,56547,1,8,0:0:0:0:
179,158,56718,2,0,L|174:221,2,35,2|2|8,2:0|2:0|0:0,0:0:0:0:
216,268,57061,5,2,2:0:0:0:
229,266,57147,1,2,2:0:0:0:
242,264,57232,1,8,0:0:0:0:
256,262,57318,1,0,0:0:0:0:
268,259,57404,2,0,L|331:246,1,35,0|0,0:0|0:0,0:0:0:0:
351,281,57575,5,8,0:0:0:0:
234,113,61689,2,0,L|121:94,1,105,2|2,2:0|2:0,0:0:0:0:
52,181,62204,2,0,L|155:198,1,105,2|2,2:0|2:0,0:0:0:0:
218,295,62718,2,0,L|206:341,2,35,8|8|8,2:1|2:1|2:1,0:0:0:0:
270,238,63061,6,0,L|351:242,2,70,8|0|8,2:1|0:0|0:0,0:0:0:0:
218,295,63575,2,0,L|137:299,2,70,0|8|0,0:0|0:0|0:0,0:0:0:0:
281,339,64089,1,8,0:0:0:0:
398,319,64347,1,8,0:0:0:0:
398,319,64432,6,0,P|427:263|432:237,1,70,8|0,0:0|0:0,0:0:0:0:
418,248,64689,1,0,0:0:0:0:
407,238,64775,2,0,P|390:207|389:143,2,70,8|0|8,2:1|0:0|0:0,0:0:0:0:
466,179,65289,1,0,0:0:0:0:
432,109,65461,2,0,P|393:94|333:110,1,105,8|0,0:0|0:0,0:0:0:0:
312,141,65804,6,0,L|226:116,2,70,12|0|8,0:0|0:0|0:0,0:0:0:0:
274,208,66318,2,0,L|188:183,2,70,0|8|0,0:0|2:1|0:0,0:0:0:0:
241,277,66832,1,8,0:0:0:0:
132,307,67089,1,8,2:1:0:0:
132,307,67175,6,0,L|113:218,1,70,8|0,0:0|0:0,0:0:0:0:
103,241,67432,1,0,0:0:0:0:
90,247,67518,2,0,P|44:232|42:167,1,105,8|0,0:0|0:0,0:0:0:0:
57,150,67861,2,0,L|43:65,1,70,8|0,2:1|0:0,0:0:0:0:
91,14,68204,1,8,1:3:0:0:
221,96,68547,6,0,P|258:110|315:99,2,70,8|0|8,2:1|0:0|0:0,0:0:0:0:
281,193,69061,2,0,P|320:187|365:151,2,70,0|8|0,0:0|0:0|0:0,0:0:0:0:
391,244,69575,1,8,0:0:0:0:
320,356,69832,1,8,0:0:0:0:
320,356,69918,5,8,0:0:0:0:
244,369,70089,2,0,L|195:351,2,35,0|0|8,0:0|0:0|2:1,0:0:0:0:
165,289,70432,1,0,0:0:0:0:
165,289,70518,1,0,0:0:0:0:
165,289,70604,2,0,L|83:303,1,70,8|0,0:0|0:0,0:0:0:0:
32,345,70947,2,0,L|50:220,1,105,8|0,0:0|0:0,0:0:0:0:
36,204,71289,6,0,L|24:133,2,70,12|0|8,0:0|0:0|0:0,0:0:0:0:
111,186,71804,2,0,L|99:116,2,70,0|8|0,0:0|2:1|0:0,0:0:0:0:
187,172,72318,1,8,0:0:0:0:
240,279,72575,1,8,2:1:0:0:
240,279,72661,6,0,P|292:298|335:300,1,70,8|0,0:0|0:0,0:0:0:0:
312,311,72918,1,0,0:0:0:0:
322,326,73004,2,0,P|372:312|429:281,1,105,8|0,0:0|0:0,0:0:0:0:
444,259,73347,1,8,2:1:0:0:
387,207,73518,1,0,0:0:0:0:
451,145,73689,6,0,B|447:102|447:102|459:73|459:73|450:20,1,105,8|0,1:3|0:0,0:0:0:0:
421,21,74032,5,8,2:1:0:0:
126,35,75232,5,8,0:3:0:0:
75,93,75404,1,8,0:0:0:0:
112,248,76432,1,8,0:0:0:0:
119,261,76518,1,8,0:0:0:0:
125,271,76604,1,8,0:0:0:0:
130,281,76689,1,8,0:0:0:0:
139,292,76775,6,0,L|217:278,1,70,8|0,0:0|3:2,0:0:0:0:
270,234,77118,2,0,L|348:220,1,70,0|0,3:2|3:2,0:0:0:0:
373,152,77461,2,0,L|304:139,1,70,2|0,3:2|3:2,0:0:0:0:
245,89,77804,2,0,L|176:76,1,70,0|0,3:2|0:0,0:0:0:0:
103,92,78147,5,12,3:2:0:0:
103,92,78318,1,8,3:2:0:0:
143,163,78489,1,8,3:2:0:0:
143,163,78661,1,8,3:2:0:0:
223,171,78832,5,8,3:2:0:0:
223,171,79003,1,8,3:2:0:0:
263,242,79174,1,8,3:2:0:0:
263,242,79346,1,8,3:2:0:0:
202,289,79518,6,0,L|141:279,3,35,2|2|2|2,3:0|3:0|3:0|3:0,0:0:0:0:
146,251,79861,2,0,L|85:241,3,35,2|2|2|2,3:0|3:0|3:0|3:0,0:0:0:0:
82,271,80204,1,2,3:0:0:0:
68,270,80289,1,2,3:0:0:0:
55,267,80375,1,2,3:0:0:0:
44,263,80461,1,2,3:0:0:0:
32,260,80547,1,0,0:0:0:0:
42,82,80889,5,8,2:2:0:0:
87,144,81061,2,0,L|78:197,2,35,8|8|8,2:2|2:2|0:0,0:0:0:0:
157,111,81404,2,0,L|166:58,2,35,8|8|8,2:2|2:2|0:0,0:0:0:0:
200,175,81747,2,0,L|191:228,5,35,8|8|8|8|8|8,2:2|2:2|0:0|0:0|0:0|0:0,0:0:0:0:
221,247,82261,6,0,L|327:227,2,83.9999974365235,14|0|10,0:0|0:0|0:0,0:0:0:0:
137,270,82775,1,0,0:0:0:0:
137,270,82861,1,8,2:2:0:0:
137,270,82947,1,10,0:0:0:0:
191,344,83118,1,2,0:0:0:0:
191,344,83461,6,0,L|389:308,1,167.999994873047,2|2,0:0|0:0,0:0:0:0:
440,323,83975,1,10,0:0:0:0:
469,244,84147,1,2,0:0:0:0:
394,202,84318,2,0,P|366:157|376:93,1,83.9999974365235,2|8,0:0|2:2,0:0:0:0:
412,57,84661,1,10,0:0:0:0:
450,131,84832,1,2,0:0:0:0:
381,214,85004,6,0,B|323:208|323:208|271:222|271:222|205:206,1,167.999994873047,6|8,0:0|0:0,0:0:0:0:
147,269,85518,1,10,0:0:0:0:
147,269,85604,1,0,0:0:0:0:
78,163,85861,1,10,0:0:0:0:
38,238,86032,1,8,2:2:0:0:
38,238,86118,1,8,2:2:0:0:
38,363,86375,6,0,L|136:346,1,83.9999974365235,8|8,2:2|2:2,0:0:0:0:
166,277,86718,2,0,L|248:291,1,83.9999974365235,8|8,2:2|0:0,0:0:0:0:
296,360,87061,1,2,1:2:0:0:
349,295,87232,2,0,P|347:257|307:202,2,83.9999974365235,2|2|2,1:2|1:2|1:2,0:0:0:0:
407,364,87747,6,0,P|434:319|436:278,1,83.9999974365235,14|0,0:0|0:0,0:0:0:0:
425,205,88089,1,10,0:0:0:0:
363,144,88261,1,0,0:0:0:0:
363,144,88347,1,8,2:2:0:0:
363,144,88432,1,10,0:0:0:0:
449,118,88604,1,2,0:0:0:0:
449,118,88947,6,2,L|259:108,1,167.999994873047,2|2,0:0|0:0,0:0:0:0:
212,59,89461,2,0,P|174:63|122:87,1,83.9999974365235,10|2,0:0|0:0,0:0:0:0:
84,150,89804,1,2,0:0:0:0:
147,205,89975,2,0,L|215:195,2,41.9999987182618,8|0|10,2:2|0:0|0:0,0:0:0:0:
70,145,90318,1,2,0:0:0:0:
16,209,90489,6,0,P|9:277|68:380,1,167.999994873047,6|8,0:0|0:0,0:0:0:0:
177,359,91089,1,0,0:0:0:0:
291,338,91347,1,10,0:0:0:0:
403,325,91518,1,8,2:2:0:0:
403,325,91604,1,8,2:2:0:0:
403,325,91689,6,0,P|427:256|404:156,1,167.999994873047,10|10,0:0|2:2,0:0:0:0:
371,159,92118,1,10,2:2:0:0:
371,159,92204,2,0,P|342:169|316:169,3,41.9999987182618,10|10|10|10,2:2|2:2|2:2|2:2,0:0:0:0:
304,178,92547,2,0,P|277:175|237:153,3,41.9999987182618,8|8|8|8,0:0|0:0|0:0|0:0,0:0:0:0:
249,130,92889,1,8,0:0:0:0:
298,64,93061,1,8,0:0:0:0:
298,64,93147,1,8,0:0:0:0:
298,64,93232,6,0,L|406:47,2,83.9999974365235,14|0|10,0:0|0:0|0:0,0:0:0:0:
216,20,93747,1,0,0:0:0:0:
155,96,93918,2,0,L|60:95,2,83.9999974365235,10|2|8,0:0|0:0|0:0,0:0:0:0:
155,96,94432,6,2,P|140:161|107:281,1,167.999994873047,2|2,0:0|0:0,0:0:0:0:
134,341,94947,1,10,0:0:0:0:
197,286,95118,1,0,0:0:0:0:
280,283,95289,2,0,P|318:305|360:319,1,83.9999974365235,2|8,0:0|2:2,0:0:0:0:
361,332,95547,1,0,0:0:0:0:
375,344,95632,2,0,P|422:338|461:325,1,83.9999974365235,10|2,0:0|0:0,0:0:0:0:
482,246,95975,6,2,B|446:168|446:168|355:201,1,167.999994873047,6|8,0:0|0:0,0:0:0:0:
301,145,96489,2,0,B|265:67|265:67|174:100,1,167.999994873047,10|10,0:0|0:0,0:0:0:0:
106,87,97004,2,0,L|66:53,2,41.9999987182618,8|8|0,2:2|2:2|0:0,0:0:0:0:
157,20,97347,5,10,0:0:0:0:
217,190,97689,1,10,0:0:0:0:
345,57,98032,2,0,L|438:65,1,83.9999974365235,10|8,0:0|2:1,0:0:0:0:
481,76,98289,1,8,2:2:0:0:
481,76,98375,1,10,2:1:0:0:
425,150,98547,1,10,2:1:0:0:
480,223,98718,6,0,P|471:295|442:349,2,125.999996154785,14|0|2,2:1|0:0|0:0,0:0:0:0:
409,162,99404,1,10,2:1:0:0:
367,244,99575,1,10,2:1:0:0:
367,244,99918,6,2,P|275:194|210:189,1,167.999994873047,2|10,0:0|2:1,0:0:0:0:
130,230,100432,1,8,2:2:0:0:
103,141,100604,2,0,P|126:97|174:71,2,83.9999974365235,2|2|10,0:0|0:0|2:1,0:0:0:0:
136,220,101118,1,10,1:1:0:0:
19,363,101461,6,0,L|153:347,1,125.999996154785,2|0,1:0|0:0,0:0:0:0:
167,337,101804,1,8,0:0:0:0:
257,287,101975,1,10,2:1:0:0:
257,287,102061,1,8,2:2:0:0:
257,287,102147,1,0,0:0:0:0:
326,359,102318,1,8,2:2:0:0:
408,314,102489,1,10,0:0:0:0:
411,297,102575,1,8,0:0:0:0:
414,279,102661,1,8,0:0:0:0:
419,261,102747,1,8,0:0:0:0:
423,244,102832,5,10,0:0:0:0:
299,84,103175,2,0,L|213:89,2,55.9999982910157,0|0|0,0:0|0:0|0:0,0:0:0:0:
366,78,103518,1,8,2:2:0:0:
470,162,103775,1,8,2:2:0:0:
340,197,104032,1,8,2:2:0:0:
340,197,104204,1,4,0:0:0:0:
92,305,115176,6,0,P|117:235|109:154,1,140,4|0,0:0|0:0,0:0:0:0:
64,110,115690,1,2,0:3:0:0:
97,40,115862,2,0,P|143:20|188:30,1,70,0|0,0:0|3:0,0:0:0:0:
152,97,116204,1,0,0:0:0:0:
284,168,116547,6,0,B|353:107|353:107|351:29,1,140,4|0,0:0|0:0,0:0:0:0:
419,23,117062,1,2,0:3:0:0:
491,49,117233,2,0,P|469:81|423:100,1,70,0|0,0:0|3:0,0:0:0:0:
409,168,117576,2,0,P|439:187|458:216,1,70,0|0,0:0|3:0,0:0:0:0:
475,309,117919,6,0,P|394:299|336:349,1,140,4|0,0:0|0:0,0:0:0:0:
286,278,118433,2,0,P|251:284|203:276,1,70,2|0,0:3|0:0,0:0:0:0:
166,347,118775,2,0,P|196:364|231:365,2,70,0|0|0,3:0|0:0|3:0,0:0:0:0:
134,276,119290,6,0,P|177:208|238:187,1,140,4|0,0:0|0:0,0:0:0:0:
281,130,119804,2,0,P|351:162|423:157,1,140,2|0,0:3|3:0,0:0:0:0:
470,108,120318,1,0,0:0:0:0:
367,0,120662,6,0,L|214:26,1,140,4|0,0:0|0:0,0:0:0:0:
156,50,121176,1,2,0:3:0:0:
207,106,121347,2,0,L|290:90,1,70,0|0,0:0|3:0,0:0:0:0:
350,76,121689,1,0,0:0:0:0:
301,266,122033,6,0,L|462:252,1,140,4|0,0:0|0:0,0:0:0:0:
499,203,122547,1,2,0:3:0:0:
506,126,122719,2,0,P|469:130|433:162,1,70,0|0,0:0|3:0,0:0:0:0:
405,216,123062,1,0,0:0:0:0:
437,285,123233,1,0,3:0:0:0:
395,349,123404,6,0,P|318:355|245:329,1,140,4|0,0:0|0:0,0:0:0:0:
182,349,123919,2,0,P|152:301|154:269,2,70,2|0|0,0:3|0:0|3:0,0:0:0:0:
228,288,124432,1,8,1:0:0:0:
101,200,124775,6,0,P|144:193|182:167,1,70,8|8,1:0|0:2,0:0:0:0:
189,147,125032,2,0,P|220:160|255:167,1,70,8|8,0:2|0:2,0:0:0:0:
293,164,125289,1,8,0:2:0:0:
312,92,125461,1,8,1:0:0:0:
312,92,125547,1,8,0:2:0:0:
205,46,125804,6,0,P|174:50|130:42,1,70,8|0,1:0|0:0,0:0:0:0:
64,93,126147,6,0,P|39:163|81:242,1,140,12|8,1:0|0:0,0:0:0:0:
137,239,126662,1,0,3:0:0:0:
214,229,126833,1,8,0:2:0:0:
269,296,127004,1,8,0:2:0:0:
269,296,127090,1,8,0:2:0:0:
269,296,127176,1,8,1:1:0:0:
416,357,127518,6,0,P|374:289|374:217,1,140,8|8,1:0|0:0,0:0:0:0:
455,243,128033,1,0,3:0:0:0:
495,171,128204,2,0,L|489:96,1,70,8|8,0:2|0:2,0:0:0:0:
420,68,128547,2,0,P|393:87|348:101,1,70,8|0,1:1|0:3,0:0:0:0:
258,163,128890,6,0,B|294:160|294:160|390:248,1,140,8|8,1:0|0:0,0:0:0:0:
409,300,129404,1,0,3:0:0:0:
334,318,129576,2,0,P|290:307|271:292,1,70,8|8,0:2|0:2,0:0:0:0:
263,278,129833,1,8,0:2:0:0:
253,268,129919,2,0,P|214:289|188:322,1,70,8|0,1:1|0:3,0:0:0:0:
107,277,130262,6,0,P|122:203|127:112,1,140,8|8,1:0|0:0,0:0:0:0:
59,94,130775,1,0,3:0:0:0:
110,23,130947,1,8,0:2:0:0:
202,33,131118,1,8,0:2:0:0:
202,33,131204,1,8,0:2:0:0:
202,33,131290,1,8,1:1:0:0:
273,76,131462,1,0,0:3:0:0:
360,9,131633,6,0,L|385:166,1,140,8|8,1:0|0:0,0:0:0:0:
328,208,132147,1,0,3:0:0:0:
400,160,132319,2,0,L|412:234,1,70,8|8,0:2|0:2,0:0:0:0:
425,317,132576,1,8,0:2:0:0:
425,317,132662,1,8,1:1:0:0:
269,239,133004,6,0,P|215:302|151:329,1,140,8|8,1:0|0:0,0:0:0:0:
86,307,133519,1,0,3:0:0:0:
143,252,133690,2,0,P|174:234|199:204,1,70,8|8,0:2|0:2,0:0:0:0:
170,122,134033,1,8,1:1:0:0:
254,145,134204,1,0,0:3:0:0:
280,230,134376,6,0,P|328:240|429:213,1,140,12|8,1:0|0:0,0:0:0:0:
460,155,134890,1,0,3:0:0:0:
381,154,135062,2,0,P|347:164|308:160,1,70,8|0,0:2|0:0,0:0:0:0:
302,153,135319,1,8,0:2:0:0:
293,145,135404,2,0,L|306:56,1,70,8|0,1:1|0:3,0:0:0:0:
241,2,135747,6,0,B|185:12|185:12|159:31|159:31|90:32,1,140,8|8,1:0|0:0,0:0:0:0:
62,94,136262,1,0,3:0:0:0:
120,155,136433,2,0,P|131:204|120:236,1,70,8|8,0:2|0:2,0:0:0:0:
118,235,136690,1,8,0:2:0:0:
107,243,136776,1,8,1:1:0:0:
45,189,136947,1,0,0:3:0:0:
11,284,137119,6,0,P|77:262|146:269,1,140,12|8,1:0|0:0,0:0:0:0:
145,357,137633,1,0,3:0:0:0:
226,357,137804,2,0,P|283:372|309:370,1,70,8|8,0:2|0:2,0:0:0:0:
306,360,138062,1,8,0:2:0:0:
316,348,138147,2,0,P|351:336|401:337,1,70,8|0,1:1|0:3,0:0:0:0:
450,270,138490,6,0,P|468:191|437:118,1,140,12|8,1:0|0:0,0:0:0:0:
379,91,139004,1,0,3:0:0:0:
330,161,139176,2,0,P|295:173|248:168,1,70,8|0,0:2|0:0,0:0:0:0:
183,148,139519,2,0,L|193:63,1,70,0|0,0:0|0:0,0:0:0:0:
173,1,139862,6,0,L|25:33,1,140,12|8,1:0|0:0,0:0:0:0:
79,107,140376,1,0,3:0:0:0:
16,171,140547,1,8,0:2:0:0:
86,232,140719,1,8,0:2:0:0:
86,232,140804,1,8,0:2:0:0:
86,232,140890,2,0,L|83:321,1,70,8|0,1:1|0:3,0:0:0:0:
142,357,141233,6,0,P|213:328|291:338,1,140,12|8,1:0|0:0,0:0:0:0:
330,276,141747,1,0,3:0:0:0:
285,350,141919,2,0,P|328:379|367:387,1,70,8|0,0:2|0:0,0:0:0:0:
374,384,142176,1,8,0:2:0:0:
374,384,142262,1,0,0:0:0:0:
448,338,142433,1,0,0:3:0:0:
413,265,142604,2,0,P|398:210|411:147,1,105,12|0,1:0|0:0,0:0:0:0:
414,122,142947,6,0,L|505:132,1,70,8|0,0:0|0:0,0:0:0:0:
512,51,143290,2,0,L|440:45,1,70,8|0,0:0|0:0,0:0:0:0:
365,47,143633,1,0,0:0:0:0:
333,126,143804,1,0,0:3:0:0:
333,126,143890,1,0,0:0:0:0:
333,126,143976,6,0,P|263:155|209:148,1,105,4|0,0:0|0:0,0:0:0:0:
204,131,144319,6,0,L|214:36,1,70,8|0,0:0|0:0,0:0:0:0:
139,32,144662,2,0,L|130:115,1,70,8|0,0:0|0:0,0:0:0:0:
60,72,145004,2,0,L|66:5,2,35,8|0|0,1:1|0:0|0:3,0:0:0:0:
6,128,145347,5,8,3:0:0:0:
70,169,145519,1,2,2:0:0:0:
138,204,145690,2,0,L|155:288,1,70,8|0,0:0|0:0,0:0:0:0:
228,309,146033,2,0,P|260:307|301:274,1,70,8|0,0:3|0:0,0:0:0:0:
302,273,146290,1,2,2:0:0:0:
309,260,146376,2,0,P|355:255|388:271,1,70,2|0,2:0|0:0,0:0:0:0:
428,321,146719,5,8,0:0:0:0:
487,263,146890,1,2,2:0:0:0:
487,263,146976,1,2,2:0:0:0:
487,263,147062,1,8,0:0:0:0:
436,183,147233,2,0,L|441:120,2,35,2|2|0,2:0|2:0|0:0,0:0:0:0:
354,130,147576,5,2,2:0:0:0:
352,143,147662,1,2,2:0:0:0:
351,156,147747,1,8,0:0:0:0:
350,170,147833,1,0,0:0:0:0:
348,182,147919,2,0,L|339:245,1,35,0|0,0:0|0:0,0:0:0:0:
376,263,148090,5,8,0:0:0:0:
278,271,152204,6,0,B|324:296|324:296|391:290,1,105,2|2,2:0|2:0,0:0:0:0:
458,209,152719,2,0,B|409:186|409:186|355:192,1,105,2|2,2:0|2:0,0:0:0:0:
294,89,153233,2,0,L|306:43,2,35,8|8|8,2:1|2:1|2:1,0:0:0:0:
242,146,153576,6,0,P|205:152|168:177,2,70,8|0|8,2:1|0:0|0:0,0:0:0:0:
294,89,154090,2,0,P|323:88|373:105,2,70,0|8|0,0:0|0:0|0:0,0:0:0:0:
247,158,154604,1,8,0:0:0:0:
163,22,154862,1,8,0:0:0:0:
163,22,154947,6,0,P|134:78|129:104,1,70,8|0,0:0|0:0,0:0:0:0:
143,93,155204,1,0,0:0:0:0:
154,103,155290,2,0,P|171:134|172:198,2,70,8|0|8,2:1|0:0|0:0,0:0:0:0:
96,166,155804,1,0,0:0:0:0:
86,257,155976,6,0,P|127:245|207:255,1,105,8|0,0:0|0:0,0:0:0:0:
209,281,156319,6,0,L|295:306,2,70,12|0|8,0:0|0:0|0:0,0:0:0:0:
229,206,156833,2,0,L|315:231,2,70,0|8|0,0:0|2:1|0:0,0:0:0:0:
258,134,157347,1,8,0:0:0:0:
366,89,157604,1,8,2:1:0:0:
366,89,157690,6,0,L|385:178,1,70,8|0,0:0|0:0,0:0:0:0:
395,155,157947,1,0,0:0:0:0:
408,149,158033,2,0,L|436:263,1,105,8|0,0:0|0:0,0:0:0:0:
468,265,158376,2,0,L|494:346,1,70,8|0,2:1|0:0,0:0:0:0:
421,370,158719,1,8,1:3:0:0:
291,288,159062,6,0,L|197:269,2,70,8|0|8,2:1|0:0|0:0,0:0:0:0:
231,191,159576,2,0,P|191:196|146:232,2,70,0|8|0,0:0|0:0|0:0,0:0:0:0:
121,140,160090,1,8,0:0:0:0:
192,28,160347,1,8,0:0:0:0:
192,28,160433,5,8,0:0:0:0:
268,15,160604,2,0,L|317:33,2,35,0|0|8,0:0|0:0|2:1,0:0:0:0:
351,101,160947,1,0,0:0:0:0:
351,101,161033,1,0,0:0:0:0:
351,101,161119,2,0,P|391:104|433:87,1,70,8|0,0:0|0:0,0:0:0:0:
479,21,161462,2,0,P|461:65|461:146,1,105,8|0,0:0|0:0,0:0:0:0:
467,158,161804,6,0,L|479:229,2,70,12|0|8,0:0|0:0|0:0,0:0:0:0:
397,192,162319,2,0,L|410:268,2,70,0|8|0,0:0|2:1|0:0,0:0:0:0:
325,221,162833,1,8,0:0:0:0:
272,105,163090,1,8,2:1:0:0:
272,105,163176,6,0,P|220:86|177:84,1,70,8|0,0:0|0:0,0:0:0:0:
200,73,163433,1,0,0:0:0:0:
190,58,163519,2,0,P|140:72|83:103,1,105,8|0,0:0|0:0,0:0:0:0:
68,125,163862,1,8,2:1:0:0:
125,177,164033,1,0,0:0:0:0:
61,239,164204,2,0,B|65:282|65:282|53:311|53:311|62:364,1,105,8|0,1:3|0:0,0:0:0:0:
91,363,164547,5,8,2:1:0:0:
386,349,165747,5,8,0:3:0:0:
386,349,165919,1,8,0:0:0:0:
400,136,166947,1,8,0:0:0:0:
393,123,167033,1,8,0:0:0:0:
387,113,167119,1,8,0:0:0:0:
382,103,167204,1,8,0:0:0:0:
373,92,167290,6,0,P|332:91|295:106,1,70,8|0,0:0|3:2,0:0:0:0:
242,150,167633,2,0,P|208:163|164:164,1,70,0|0,3:2|3:2,0:0:0:0:
149,244,167976,2,0,P|181:245|217:256,1,70,2|0,3:2|3:2,0:0:0:0:
271,313,168319,2,0,P|304:325|339:325,1,70,0|0,3:2|0:0,0:0:0:0:
409,292,168662,5,12,3:2:0:0:
409,292,168833,1,8,3:2:0:0:
369,221,169004,1,8,3:2:0:0:
369,221,169176,1,8,3:2:0:0:
323,153,169347,5,8,3:2:0:0:
323,153,169518,1,8,3:2:0:0:
278,84,169689,1,8,3:2:0:0:
278,84,169861,1,8,3:2:0:0:
187,76,170033,6,0,L|126:86,3,35,2|2|0|0,3:0|3:0|0:0|0:0,0:0:0:0:
131,114,170376,2,0,L|70:124,3,35,2|2|0|0,3:0|3:0|0:0|0:0,0:0:0:0:
67,94,170719,1,2,3:0:0:0:
53,95,170804,1,2,3:0:0:0:
40,98,170890,1,2,3:0:0:0:
29,102,170976,1,2,3:0:0:0:
17,105,171062,1,4,0:0:0:0:
27,283,171404,5,8,2:2:0:0:
72,221,171576,2,0,P|73:201|63:168,2,35,8|8|0,2:2|2:2|0:0,0:0:0:0:
142,254,171919,2,0,P|148:268|151:307,2,35,8|8|0,2:2|2:2|0:0,0:0:0:0:
185,190,172262,2,0,P|205:195|235:199,5,35,8|8|0|0|0|0,2:2|2:2|0:0|0:0|0:0|0:0,0:0:0:0:
256,204,172775,5,0,0:0:0:0:
256,204,174147,6,0,L|245:87,2,83.9999974365235,14|0|10,0:0|0:0|0:0,0:0:0:0:
268,295,174661,1,0,0:0:0:0:
268,295,174747,1,8,2:2:0:0:
268,295,174832,1,10,0:0:0:0:
338,248,175004,1,2,0:0:0:0:
338,248,175347,6,2,P|277:207|187:246,1,167.999994873047,2|2,0:0|0:0,0:0:0:0:
128,289,175861,6,0,L|25:263,2,83.9999974365235,10|2|2,0:0|0:0|0:0,0:0:0:0:
116,198,176375,1,8,2:2:0:0:
116,198,176461,1,0,0:0:0:0:
116,198,176547,1,10,0:0:0:0:
48,133,176718,1,2,0:0:0:0:
66,51,176889,6,0,L|241:75,1,167.999994873047,6|8,0:0|0:0,0:0:0:0:
312,40,177404,1,10,0:0:0:0:
312,40,177489,1,0,0:0:0:0:
257,154,177747,1,10,0:0:0:0:
328,214,177918,1,8,2:2:0:0:
328,214,178004,2,0,L|431:203,1,83.9999974365235,8|0,2:2|0:0,0:0:0:0:
453,201,178261,5,8,2:2:0:0:
432,288,178432,1,8,2:2:0:0:
352,324,178604,2,0,P|294:333|249:318,1,83.9999974365235,8|8,2:2|0:0,0:0:0:0:
176,295,178947,1,2,1:2:0:0:
257,319,179118,6,0,P|256:264|226:221,2,83.9999974365235,2|2|2,1:2|1:2|1:2,0:0:0:0:
189,379,179632,6,0,L|86:360,1,83.9999974365235,14|0,0:0|0:0,0:0:0:0:
50,301,179975,1,10,0:0:0:0:
110,243,180147,1,0,0:0:0:0:
110,243,180232,1,8,2:2:0:0:
110,243,180318,1,10,0:0:0:0:
40,184,180489,2,0,L|53:75,1,83.9999974365235,2|8,0:0|0:0,0:0:0:0:
49,100,180832,6,2,L|248:69,1,167.999994873047,2|2,0:0|0:0,0:0:0:0:
165,5,181347,1,10,0:0:0:0:
124,78,181518,1,2,0:0:0:0:
170,147,181689,1,2,0:0:0:0:
254,147,181861,2,0,L|292:104,2,41.9999987182618,8|0|10,2:2|0:0|0:0,0:0:0:0:
254,231,182204,1,2,0:0:0:0:
309,293,182375,6,2,P|387:308|481:253,1,167.999994873047,6|8,0:0|0:0,0:0:0:0:
465,191,182889,1,10,0:0:0:0:
465,191,182975,1,0,0:0:0:0:
444,315,183232,1,10,0:0:0:0:
320,302,183404,1,8,2:2:0:0:
320,302,183489,1,8,2:2:0:0:
320,302,183575,6,0,P|259:331|162:321,1,167.999994873047,10|10,0:0|2:2,0:0:0:0:
136,293,184004,1,10,2:2:0:0:
136,293,184089,2,0,L|133:224,3,41.9999987182618,10|10|10|10,2:2|2:2|2:2|2:2,0:0:0:0:
172,233,184432,2,0,L|175:164,3,41.9999987182618,8|8|8|8,0:0|0:0|0:0|0:0,0:0:0:0:
143,161,184775,1,8,0:0:0:0:
82,110,184947,1,8,0:0:0:0:
82,110,185032,1,8,0:0:0:0:
82,110,185118,6,0,L|-39:132,1,83.9999974365235,14|0,0:0|0:0,0:0:0:0:
21,39,185461,1,10,0:0:0:0:
124,33,185632,2,0,L|180:22,2,41.9999987182618,0|8|10,0:0|2:2|0:0,0:0:0:0:
203,97,185975,2,0,L|290:77,1,83.9999974365235,2|8,0:0|0:0,0:0:0:0:
284,78,186318,6,2,P|251:140|269:250,1,167.999994873047,2|2,0:0|0:0,0:0:0:0:
338,291,186832,2,0,P|345:247|377:212,1,83.9999974365235,10|0,0:0|0:0,0:0:0:0:
418,282,187175,6,0,P|386:276|318:309,1,83.9999974365235,2|8,0:0|2:2,0:0:0:0:
328,301,187432,1,0,0:0:0:0:
320,311,187518,2,0,P|267:333|219:319,1,83.9999974365235,10|2,0:0|0:0,0:0:0:0:
151,275,187861,6,2,L|161:118,1,125.999996154785,6|8,0:0|2:2,0:0:0:0:
141,106,188204,1,8,0:0:0:0:
208,43,188375,2,0,P|277:25|391:54,1,167.999994873047,10|10,0:0|0:0,0:0:0:0:
363,135,188889,2,0,P|326:154|291:201,1,83.9999974365235,8|10,2:2|0:0,0:0:0:0:
275,275,189232,5,10,0:0:0:0:
444,162,189575,1,10,0:0:0:0:
256,95,189918,1,10,0:0:0:0:
202,161,190089,1,8,2:1:0:0:
202,161,190175,1,8,2:2:0:0:
202,161,190261,1,10,2:1:0:0:
101,164,190432,1,10,2:1:0:0:
37,242,190604,6,0,B|45:299|45:299|60:313|60:313|66:365,2,125.999996154785,14|0|2,2:1|0:0|0:0,0:0:0:0:
120,246,191289,1,10,2:1:0:0:
201,269,191461,2,0,L|295:256,1,83.9999974365235,10|8,2:1|0:0,0:0:0:0:
339,320,191804,6,2,P|379:271|389:143,1,167.999994873047,2|10,0:0|2:1,0:0:0:0:
316,139,192318,1,8,2:2:0:0:
251,85,192489,2,0,L|269:-12,2,83.9999974365235,2|2|10,0:0|0:0|2:1,0:0:0:0:
185,139,193004,2,0,P|116:138|86:110,1,83.9999974365235,10|0,1:1|0:0,0:0:0:0:
97,120,193261,1,8,2:2:0:0:
94,109,193347,2,0,P|137:163|149:259,1,167.999994873047,2|8,1:0|0:0,0:0:0:0:
89,318,193861,1,10,2:1:0:0:
89,318,193947,1,8,2:2:0:0:
202,372,194204,1,8,2:2:0:0:
256,308,194375,6,0,L|309:312,3,41.9999987182618,10|8|8|8,0:0|0:0|0:0|0:0,0:0:0:0:
331,285,194718,5,10,0:0:0:0:
273,149,195061,1,0,0:0:0:0:
273,149,195147,1,0,0:0:0:0:
273,149,195232,1,0,0:0:0:0:
273,149,195318,1,0,0:0:0:0:
273,149,195404,1,8,2:2:0:0:
273,149,196089,6,0,P|321:127|384:136,2,83.9999974365235,14|0|10,0:0|0:0|0:0,0:0:0:0:
213,212,196604,1,0,0:0:0:0:
213,212,196689,1,8,2:2:0:0:
213,212,196775,1,10,0:0:0:0:
207,308,196947,1,2,0:0:0:0:
207,308,197289,6,2,P|145:287|123:162,1,167.999994873047,2|2,0:0|0:0,0:0:0:0:
158,117,197804,1,10,0:0:0:0:
134,27,197975,1,2,0:0:0:0:
63,86,198147,2,0,P|105:80|162:76,1,83.9999974365235,2|0,0:0|0:0,0:0:0:0:
158,84,198404,1,0,0:0:0:0:
171,93,198489,2,0,P|223:89|283:75,1,83.9999974365235,10|2,0:0|0:0,0:0:0:0:
311,7,198832,6,2,P|296:77|279:186,1,167.999994873047,6|8,0:0|0:0,0:0:0:0:
333,256,199347,1,10,0:0:0:0:
333,256,199432,1,0,0:0:0:0:
235,353,199689,1,10,0:0:0:0:
165,299,199861,1,8,2:2:0:0:
165,299,199947,1,8,2:2:0:0:
40,237,200204,6,0,L|14:135,2,83.9999974365235,8|8|8,2:2|2:2|2:2,0:0:0:0:
12,325,200718,1,8,0:0:0:0:
56,244,200889,1,2,1:2:0:0:
108,167,201061,6,0,L|83:65,2,83.9999974365235,2|2|2,1:2|1:2|1:2,0:0:0:0:
191,208,201575,5,14,0:0:0:0:
277,175,201747,1,0,0:0:0:0:
291,84,201918,1,10,0:0:0:0:
223,21,202089,2,0,L|168:14,2,41.9999987182618,0|8|10,0:0|2:2|0:0,0:0:0:0:
312,0,202432,1,2,0:0:0:0:
312,0,202775,6,2,L|484:9,1,167.999994873047
503,101,203289,1,10,0:0:0:0:
464,199,203461,1,2,0:0:0:0:
387,262,203632,6,0,P|363:235|297:229,1,83.9999974365235,2|8,0:0|2:2,0:0:0:0:
306,231,203889,1,0,0:0:0:0:
293,238,203975,2,0,P|225:224|206:182,1,83.9999974365235,10|2,0:0|0:0,0:0:0:0:
150,163,204318,6,0,L|188:-20,1,167.999994873047,6|8,0:0|0:0,0:0:0:0:
82,55,204832,1,10,0:0:0:0:
82,55,204918,1,0,0:0:0:0:
145,183,205175,1,10,0:0:0:0:
62,170,205347,1,8,2:2:0:0:
62,170,205432,1,8,2:2:0:0:
62,170,205518,6,0,L|242:150,1,167.999994873047,10|10,0:0|2:2,0:0:0:0:
279,147,205947,1,10,2:2:0:0:
279,147,206032,1,10,2:2:0:0:
367,173,206204,1,10,2:2:0:0:
367,173,206289,1,10,2:2:0:0:
367,173,206375,2,0,L|358:224,3,41.9999987182618,8|8|8|8,0:0|0:0|0:0|0:0,0:0:0:0:
380,255,206718,1,8,0:0:0:0:
318,323,206889,1,8,0:0:0:0:
318,323,206975,1,8,0:0:0:0:
318,323,207061,6,0,P|264:343|224:382,2,83.9999974365235,14|0|10,0:0|0:0|0:0,0:0:0:0:
409,370,207575,1,0,0:0:0:0:
409,370,207661,1,8,2:2:0:0:
409,370,207747,1,10,0:0:0:0:
483,316,207918,1,2,0:0:0:0:
483,316,208261,6,2,L|447:118,1,167.999994873047,2|2,0:0|0:0,0:0:0:0:
498,70,208775,2,0,P|445:64|391:41,1,83.9999974365235,10|0,0:0|0:0,0:0:0:0:
329,20,209118,1,2,0:0:0:0:
268,89,209289,2,0,L|281:180,2,83.9999974365235,8|10|2,2:2|0:0|0:0,0:0:0:0:
200,24,209804,6,2,B|98:16|135:79|22:61,1,167.999994873047,6|8,0:0|0:0,0:0:0:0:
11,153,210318,1,10,0:0:0:0:
11,153,210404,1,0,0:0:0:0:
146,181,210661,1,10,0:0:0:0:
94,259,210832,1,8,2:2:0:0:
94,259,210918,1,8,2:2:0:0:
94,259,211004,1,0,0:0:0:0:
156,326,211175,6,0,L|272:315,1,83.9999974365235,10|8,0:0|2:2,0:0:0:0:
289,239,211518,2,0,P|255:191|250:133,1,83.9999974365235,10|0,0:0|0:0,0:0:0:0:
270,76,211861,1,10,0:0:0:0:
341,150,212032,1,8,2:1:0:0:
341,150,212118,1,8,2:2:0:0:
341,150,212204,1,10,2:1:0:0:
406,215,212375,1,10,2:1:0:0:
456,138,212547,6,2,L|441:1,2,125.999996154785,14|0|0,2:1|0:0|0:0,0:0:0:0:
399,219,213232,1,10,2:1:0:0:
454,293,213404,2,0,P|432:333|334:347,1,125.999996154785,10|0,2:1|0:0,0:0:0:0:
340,345,213747,6,2,P|318:305|177:283,1,167.999994873047,2|10,0:0|2:1,0:0:0:0:
129,320,214261,1,8,2:2:0:0:
75,244,214432,2,0,L|51:142,2,83.9999974365235,2|2|10,0:0|0:0|2:1,0:0:0:0:
151,190,214947,2,0,L|126:94,1,83.9999974365235,10|0,1:1|0:0,0:0:0:0:
133,97,215204,1,8,2:2:0:0:
137,85,215289,6,0,L|319:103,1,167.999994873047,2|8,1:0|0:0,0:0:0:0:
382,48,215804,1,10,2:1:0:0:
382,48,215889,1,8,2:2:0:0:
382,48,215975,1,0,0:0:0:0:
458,100,216147,1,8,2:2:0:0:
393,166,216318,1,10,0:0:0:0:
394,180,216404,1,8,0:0:0:0:
394,196,216489,1,8,0:0:0:0:
395,211,216575,1,8,0:0:0:0:
396,226,216661,5,10,0:0:0:0:
185,331,217004,2,0,L|101:312,2,55.9999982910157,0|0|0,0:0|0:0|0:0,0:0:0:0:
241,313,217347,1,8,2:2:0:0:
128,204,217604,1,10,2:2:0:0:
281,169,217861,1,10,2:2:0:0:
217,230,218032,5,4,0:0:0:0:
