osu file format v14

[General]
AudioFilename: audio.mp3
AudioLeadIn: 0
PreviewTime: 82261
Countdown: 0
SampleSet: Normal
StackLeniency: 0.7
Mode: 0
LetterboxInBreaks: 0
WidescreenStoryboard: 0

[Editor]
Bookmarks: 57575,142604
DistanceSpacing: 0.7
BeatDivisor: 4
GridSize: 4
TimelineZoom: 1.5

[Metadata]
Title:Do you believe a Dullahan?
TitleUnicode:Do you believe a Dullahan?
Artist:Jerico
ArtistUnicode:Jerico
Creator:greenhue
Version:Expert
Source:東方輝針城 ~ Double Dealing Character.
Tags:東方Project reiji-rj vass_bass frantic acceleration sekibanki under the willows 東方輝針城 赤蛮奇 柳の下のデュラハン zun c85 comiket ジェリコの法則 Jounzan EvilElvis EvilElvisV2 Natteke Desu
BeatmapID:2325023
BeatmapSetID:1112914

[Difficulty]
HPDrainRate:5
CircleSize:4.2
OverallDifficulty:8.5
ApproachRate:9
SliderMultiplier:1.8
SliderTickRate:1

[Events]
//Background and Video events
0,0,"rsz_sekibanki_waifu2x_art_noise1_scale_tta_1jounzan.png",0,0
//Break Periods
2,104404,111061
//Storyboard Layer 0 (Background)
//Storyboard Layer 1 (Fail)
//Storyboard Layer 2 (Pass)
//Storyboard Layer 3 (Foreground)
//Storyboard Layer 4 (Overlay)
//Storyboard Sound Samples

[TimingPoints]
1347,342.857142857143,4,1,1,40,1,0
1347,-250,4,1,1,40,0,0
4089,-166.666666666667,4,1,1,40,0,0
6832,-125,4,1,1,40,0,0
9575,-100,4,1,1,40,0,0
10938,-100,4,1,1,40,0,0
10947,-100,4,2,2,40,0,0
11280,-100,4,2,2,40,0,0
11289,-100,4,2,2,45,0,0
11623,-100,4,2,2,45,0,0
11632,-100,4,2,2,45,0,0
11966,-100,4,2,2,45,0,0
11975,-100,4,2,2,25,0,0
12309,-100,4,2,2,25,0,0
12318,-100,4,2,2,20,0,0
12652,-100,4,2,2,20,0,0
12661,-100,4,2,2,15,0,0
12995,-100,4,2,2,15,0,0
13004,-100,4,2,2,10,0,0
13338,-100,4,2,2,10,0,0
13347,-250,4,2,1,20,0,0
13680,-250,4,2,1,20,0,0
13689,-142.857142857143,4,1,1,40,0,0
13852,-142.857142857143,4,1,1,40,0,0
13861,-142.857142857143,4,1,1,30,0,0
22938,-142.857142857143,4,1,1,30,0,0
22947,-250.000000000001,4,1,1,60,0,0
23280,-250.000000000001,4,1,1,60,0,0
23289,-125,4,1,3,50,0,0
24318,-71.4285714285715,4,1,3,50,0,0
24661,-90.9090909090909,4,1,3,50,0,0
35289,-250,4,1,3,50,0,0
35632,-76.9230769230769,4,1,3,50,0,0
36318,-90.9090909090909,4,1,3,50,0,0
52423,-90.9090909090909,4,1,3,50,0,0
52432,-90.9090909090909,4,1,1,40,0,0
57566,-90.9090909090909,4,1,1,40,0,0
57575,-90.9090909090909,4,1,1,50,0,0
61689,-125,4,1,1,50,0,0
62204,-200,4,1,1,50,0,0
63061,-100,4,1,1,50,0,0
65461,-333.333333333333,4,1,1,50,0,0
65795,-333.333333333333,4,1,1,50,0,0
65804,-100,4,1,1,55,0,0
67518,-333.333333333333,4,1,1,55,0,0
67861,-90.9090909090909,4,1,1,55,0,0
68204,-76.9230769230769,4,1,1,55,0,0
68535,-76.9230769230769,4,1,1,55,0,0
68544,-76.9230769230769,4,1,1,60,0,0
68547,-90.9090909090909,4,1,1,60,0,0
70947,-333.333333333333,4,1,1,60,0,0
71289,-100,4,1,1,65,0,0
72661,-100,4,1,1,65,0,0
73004,-333.333333333333,4,1,1,65,0,0
73689,-76.9230769230769,4,1,1,65,0,0
77118,-76.9230769230769,4,1,1,40,0,0
77461,-76.9230769230769,4,1,1,55,0,0
77804,-76.9230769230769,4,2,1,60,0,0
80547,-76.9230769230769,4,1,1,40,0,0
80889,-76.9230769230769,4,1,1,65,0,0
82261,-66.6666666666667,4,1,1,65,0,0
83461,-250,4,1,1,65,0,0
83804,-66.6666666666667,4,1,1,65,0,0
83975,-66.6666666666667,4,1,1,65,0,0
85004,-333.333333333333,4,1,1,65,0,0
85347,-66.6666666666667,4,1,1,65,0,0
88947,-250,4,1,1,65,0,0
89289,-66.6666666666667,4,1,1,65,0,0
90489,-250,4,1,1,65,0,0
90832,-66.6666666666667,4,1,1,65,0,0
92023,-66.6666666666667,4,1,1,65,0,0
92032,-66.6666666666667,4,1,1,20,0,0
92195,-66.6666666666667,4,1,1,20,0,0
92204,-66.6666666666667,4,1,1,40,0,0
92366,-66.6666666666667,4,1,1,40,0,0
92375,-66.6666666666667,4,1,1,45,0,0
92538,-66.6666666666667,4,1,1,45,0,0
92547,-66.6666666666667,4,1,1,65,0,0
94432,-250,4,1,1,65,0,0
94775,-66.6666666666667,4,1,1,65,0,0
95975,-250,4,1,1,65,0,0
96318,-66.6666666666667,4,1,1,65,0,0
96489,-66.6666666666667,4,1,1,65,0,0
96832,-66.6666666666667,4,1,1,65,0,0
99918,-250,4,1,1,65,0,0
100261,-66.6666666666667,4,1,1,65,0,0
102832,-250,4,1,1,65,0,0
103518,-66.6666666666667,4,1,1,65,0,0
115166,-66.6666666666667,4,1,1,65,0,0
115175,-142.857142857143,4,2,2,50,0,0
116023,-142.857142857143,4,2,2,50,0,0
116032,-142.857142857143,4,2,2,65,0,0
124423,-142.857142857143,4,2,2,65,0,0
124432,-250.000000000001,4,1,1,65,0,0
124766,-250.000000000001,4,1,1,65,0,0
124775,-125,4,1,1,50,0,0
125804,-71.4285714285715,4,1,1,50,0,0
126138,-71.4285714285715,4,1,1,50,0,0
126147,-71.4285714285715,4,1,3,50,0,0
137109,-71.4285714285715,4,1,3,50,0,0
137118,-71.4285714285715,4,1,1,50,0,0
137452,-71.4285714285715,4,1,1,50,0,0
137461,-71.4285714285715,4,1,3,50,0,0
142938,-71.4285714285715,4,1,3,50,0,0
142947,-71.4285714285715,4,1,1,45,0,0
148080,-71.4285714285715,4,1,1,45,0,0
148089,-71.4285714285715,4,2,1,50,0,0
152204,-125,4,1,1,50,0,0
152718,-200,4,1,1,50,0,0
153575,-100,4,1,1,50,0,0
155975,-333.333333333333,4,1,1,50,0,0
156318,-100,4,1,1,60,0,0
156319,-100,4,1,1,60,0,0
158032,-333.333333333333,4,1,1,60,0,0
158718,-76.9230769230769,4,1,1,60,0,0
159061,-90.9090909090909,4,1,1,65,0,0
161461,-333.333333333333,4,1,1,65,0,0
161795,-333.333333333333,4,1,1,65,0,0
161804,-333.333333333333,4,1,1,70,0,0
163176,-100,4,1,1,70,0,0
163518,-333.333333333333,4,1,1,45,0,0
164204,-76.9230769230769,4,1,1,70,0,0
164538,-76.9230769230769,4,1,1,70,0,0
164547,-76.9230769230769,4,1,1,50,0,0
167623,-76.9230769230769,4,1,1,50,0,0
167632,-76.9230769230769,4,1,1,55,0,0
167966,-76.9230769230769,4,1,1,55,0,0
167975,-76.9230769230769,4,1,1,60,0,0
168309,-76.9230769230769,4,1,1,60,0,0
168318,-76.9230769230769,4,1,1,65,0,0
171052,-76.9230769230769,4,1,1,65,0,0
171061,-76.9230769230769,4,1,1,40,0,0
171395,-76.9230769230769,4,1,1,40,0,0
171404,-76.9230769230769,4,1,1,65,0,0
172775,-333.333333333333,4,1,1,65,0,0
174147,-66.6666666666667,4,1,1,65,0,0
175347,-250,4,1,1,65,0,0
175689,-66.6666666666667,4,1,1,65,0,0
175861,-66.6666666666667,4,1,1,65,0,0
176889,-333.333333333333,4,1,1,65,0,0
177233,-66.6666666666667,4,1,1,65,0,0
180832,-250,4,1,1,65,0,0
181175,-66.6666666666667,4,1,1,65,0,0
182375,-250,4,1,1,65,0,0
182718,-66.6666666666667,4,1,1,65,0,0
183909,-66.6666666666667,4,1,1,65,0,0
183918,-66.6666666666667,4,1,1,40,0,0
184252,-66.6666666666667,4,1,1,40,0,0
184261,-66.6666666666667,4,1,1,50,0,0
184595,-66.6666666666667,4,1,1,50,0,0
184604,-66.6666666666667,4,1,1,65,0,0
186318,-250,4,1,1,65,0,0
186661,-66.6666666666667,4,1,1,65,0,0
187861,-250,4,1,1,65,0,0
188204,-66.6666666666667,4,1,1,65,0,0
188461,-66.6666666666667,4,1,1,65,0,0
188718,-66.6666666666667,4,1,1,65,0,0
191804,-250,4,1,1,65,0,0
192147,-66.6666666666667,4,1,1,65,0,0
194718,-250,4,1,1,65,0,0
195404,-66.6666666666667,4,1,1,65,0,0
196089,-66.6666666666667,4,1,1,65,0,0
197289,-250,4,1,1,65,0,0
197631,-66.6666666666667,4,1,1,65,0,0
197803,-66.6666666666667,4,1,1,65,0,0
198832,-333.333333333333,4,1,1,65,0,0
199175,-66.6666666666667,4,1,1,65,0,0
202775,-250,4,1,1,65,0,0
203117,-66.6666666666667,4,1,1,65,0,0
204318,-250,4,1,1,65,0,0
204660,-66.6666666666667,4,1,1,65,0,0
208261,-250,4,1,1,65,0,0
208603,-66.6666666666667,4,1,1,65,0,0
209803,-250,4,1,1,65,0,0
210146,-66.6666666666667,4,1,1,65,0,0
213746,-250,4,1,1,65,0,0
214089,-66.6666666666667,4,1,1,65,0,0
216660,-250,4,1,1,65,0,0
217346,-66.6666666666667,4,1,1,65,0,0
219747,-66.6666666666667,4,1,1,5,0,0

[Colours]
Combo1 : 226,60,24
Combo2 : 83,236,190
Combo3 : 241,7,7
Combo4 : 47,107,140

[HitObjects]
239,85,1347,6,0,L|245:133,1,36,0|0,0:0|3:0,0:0:0:0:
174,246,1689,2,0,L|212:216,1,36,0|0,0:0|3:0,0:0:0:0:
343,221,2032,2,0,L|298:202,1,36,0|0,0:0|3:0,0:0:0:0:
344,253,4089,6,0,P|321:232|295:215,1,53.9999983520508,0|0,0:0|3:0,0:0:0:0:
149,228,4432,2,0,P|176:218|202:205,1,53.9999983520508,0|0,0:0|3:0,0:0:0:0:
265,74,4775,2,0,P|261:105|261:132,1,53.9999983520508,0|0,0:0|3:0,0:0:0:0:
303,55,6832,6,0,P|299:89|279:123,1,72,0|0,0:0|3:0,0:0:0:0:
111,204,7175,2,0,P|145:193|182:194,1,72,0|0,0:0|3:0,0:0:0:0:
340,298,7518,2,0,P|312:271|297:240,1,72,0|0,0:0|3:0,0:0:0:0:
321,350,9575,6,0,P|286:317|284:261,1,90,0|0,0:0|3:0,0:0:0:0:
75,162,9918,2,0,P|115:151|165:174,1,90,0|0,0:0|3:0,0:0:0:0:
354,46,10260,2,0,P|343:96|303:120,1,90,0|0,0:0|3:0,0:0:0:0:
83,121,13347,6,0,P|107:131|145:124,1,54,0|0,0:0|0:0,0:0:0:0:
143,112,13689,6,0,P|110:114|65:94,1,62.9999980773926,4|0,0:0|0:0,0:0:0:0:
240,102,14032,1,0,0:0:0:0:
297,30,14204,5,2,0:3:0:0:
268,189,14375,2,0,P|265:223|277:261,1,62.9999980773926,0|0,0:0|3:0,0:0:0:0:
360,220,14718,2,0,P|378:245|404:264,1,62.9999980773926,0|0,0:0|3:0,0:0:0:0:
58,243,15061,6,0,B|95:256|95:256|188:229,1,125.999996154785,4|0,0:0|0:0,0:0:0:0:
270,172,15575,1,2,0:3:0:0:
184,72,15747,2,0,P|176:108|187:143,1,62.9999980773926,0|0,0:0|3:0,0:0:0:0:
284,165,16089,1,0,0:0:0:0:
193,226,16261,1,0,3:0:0:0:
293,384,16432,6,0,P|322:342|389:312,1,125.999996154785,4|0,0:0|0:0,0:0:0:0:
468,295,16947,1,2,0:3:0:0:
382,189,17118,2,0,P|378:148|389:114,1,62.9999980773926,0|0,0:0|3:0,0:0:0:0:
493,143,17461,1,0,0:0:0:0:
391,113,17632,1,0,3:0:0:0:
287,244,17804,6,0,B|232:240|232:240|218:247|218:247|155:240,1,125.999996154785,4|0,0:0|0:0,0:0:0:0:
52,295,18318,1,2,0:3:0:0:
62,180,18489,1,0,0:0:0:0:
154,246,18661,1,0,3:0:0:0:
65,281,18833,1,0,0:0:0:0:
70,199,19004,1,0,3:0:0:0:
74,25,19175,6,0,P|113:71|173:66,1,125.999996154785,4|0,0:0|0:0,0:0:0:0:
233,16,19689,1,2,0:3:0:0:
337,134,19861,1,0,0:0:0:0:
416,72,20032,1,0,3:0:0:0:
323,45,20204,2,0,L|333:107,1,62.9999980773926,0|0,0:0|3:0,0:0:0:0:
330,296,20547,6,0,B|364:301|386:322|386:322|393:297|425:257,1,125.999996154785,4|0,0:0|0:0,0:0:0:0:
467,334,21061,1,2,0:3:0:0:
320,372,21232,1,0,0:0:0:0:
356,214,21404,1,0,3:0:0:0:
247,224,21575,1,0,0:0:0:0:
222,327,21747,1,0,3:0:0:0:
148,162,21918,6,0,B|107:165|88:157|87:150|86:143|52:130|4:140,1,125.999996154785,4|0,0:0|0:0,0:0:0:0:
0,212,22432,1,2,0:3:0:0:
136,72,22604,2,0,P|130:40|129:-13,1,62.9999980773926,0|0,0:0|3:0,0:0:0:0:
300,132,22947,2,0,B|275:144|275:144|248:139,1,54,8|0,1:0|0:0,0:0:0:0:
228,124,23289,5,8,1:0:0:0:
431,58,23461,1,8,0:2:0:0:
416,70,23547,2,0,P|403:89|397:108,1,36,8|8,0:2|1:0,0:0:0:0:
436,265,23718,1,8,0:2:0:0:
408,236,23804,2,0,P|368:215|353:215,1,36,8|8,0:2|0:2,0:0:0:0:
252,238,23975,1,8,1:0:0:0:
205,288,24061,2,0,P|165:308|150:308,1,36,8|8,0:2|0:2,0:0:0:0:
293,115,24318,6,0,P|308:152|304:206,1,62.9999980773926,8|8,1:0|0:2,0:0:0:0:
259,355,24489,2,0,P|228:377|190:387,1,62.9999980773926,8|8,1:0|0:2,0:0:0:0:
10,200,24661,6,0,L|162:206,1,148.50000453186,12|0,1:0|0:0,0:0:0:0:
154,219,25004,2,0,L|127:102,1,99.0000030212403,8|0,0:0|3:0,0:0:0:0:
203,60,25347,1,8,0:2:0:0:
334,104,25518,5,8,0:2:0:0:
314,109,25603,1,8,0:2:0:0:
293,115,25689,1,8,1:1:0:0:
190,50,25861,1,0,0:3:0:0:
279,260,26032,6,0,P|225:212|153:218,1,148.50000453186,8|0,1:0|0:0,0:0:0:0:
145,233,26375,2,0,P|201:229|242:184,1,99.0000030212403,8|0,0:0|3:0,0:0:0:0:
293,115,26718,5,8,0:2:0:0:
357,207,26889,1,8,0:2:0:0:
464,36,27061,1,8,1:1:0:0:
345,19,27232,1,0,0:3:0:0:
483,164,27404,6,0,P|483:252|423:309,1,148.50000453186,8|0,1:0|0:0,0:0:0:0:
440,287,27747,2,0,P|407:320|331:319,1,99.0000030212403,8|0,0:0|3:0,0:0:0:0:
270,226,28089,1,8,0:2:0:0:
197,342,28261,1,8,0:2:0:0:
191,322,28347,1,8,0:2:0:0:
185,302,28432,1,8,1:1:0:0:
284,211,28604,1,0,0:3:0:0:
48,196,28775,6,0,B|79:240|81:289|81:289|91:240|157:200,1,198.000006042481,8|8,1:0|0:0,0:0:0:0:
112,135,29289,1,0,3:0:0:0:
0,275,29461,1,8,0:2:0:0:
110,115,29632,1,8,0:2:0:0:
109,98,29718,1,8,0:2:0:0:
107,82,29804,1,8,1:1:0:0:
0,112,29975,1,0,0:3:0:0:
192,0,30147,6,0,B|198:62|198:62|214:79|214:79|224:153,1,148.50000453186,8|0,1:0|0:0,0:0:0:0:
204,139,30489,2,0,P|200:84|248:41,1,99.0000030212403,8|0,0:0|3:0,0:0:0:0:
370,183,30832,2,0,P|324:159|301:101,1,99.0000030212403,8|8,0:2|0:2,0:0:0:0:
320,29,31089,1,8,0:2:0:0:
320,29,31175,1,8,1:1:0:0:
397,96,31347,1,0,0:3:0:0:
215,262,31518,6,0,P|300:269|364:338,1,148.50000453186,8|0,1:0|0:0,0:0:0:0:
350,291,31861,2,0,P|407:294|471:268,1,99.0000030212403,8|0,0:0|3:0,0:0:0:0:
245,349,32204,2,0,P|188:352|123:326,1,99.0000030212403,8|8,0:2|0:2,0:0:0:0:
77,136,32547,1,8,1:1:0:0:
141,65,32718,1,0,0:3:0:0:
0,252,32889,6,0,L|181:228,1,148.50000453186,12|0,1:0|0:0,0:0:0:0:
154,251,33232,2,0,L|196:129,1,99.0000030212403,8|0,0:0|3:0,0:0:0:0:
256,99,33575,1,8,0:2:0:0:
365,178,33747,1,8,0:2:0:0:
382,175,33832,1,8,0:2:0:0:
400,173,33918,1,8,1:1:0:0:
497,158,34089,1,0,0:3:0:0:
222,384,34261,6,0,L|278:186,1,198.000006042481,8|8,1:0|0:0,0:0:0:0:
251,85,34775,1,0,3:0:0:0:
157,134,34947,2,0,L|125:228,1,99.0000030212403,8|8,0:2|0:2,0:0:0:0:
78,297,35204,1,8,0:2:0:0:
78,297,35289,2,0,B|70:289|67:286|40:264|30:245,1,54,8|0,1:1|0:0,0:0:0:0:
42,258,35632,6,0,P|156:265|249:198,1,233.999989288331,12|8,1:0|0:0,0:0:0:0:
284,117,36147,1,0,3:0:0:0:
434,267,36318,2,0,P|383:281|337:321,1,99.0000030212403,8|8,0:2|0:2,0:0:0:0:
337,342,36575,1,8,0:2:0:0:
337,342,36661,1,8,1:1:0:0:
341,212,36832,1,0,0:3:0:0:
486,40,37004,6,0,P|425:81|426:151,1,148.50000453186,12|0,1:0|0:0,0:0:0:0:
436,147,37347,2,0,P|419:94|384:60,1,99.0000030212403,8|0,0:0|3:0,0:0:0:0:
292,41,37689,1,8,0:2:0:0:
206,149,37861,1,8,0:2:0:0:
19,58,38032,2,0,B|68:39|68:39|133:51,1,99.0000030212403,8|0,1:1|0:3,0:0:0:0:
303,135,38375,6,0,L|292:320,1,148.50000453186,12|0,1:0|0:0,0:0:0:0:
281,271,38718,2,0,L|425:248,2,99.0000030212403,8|0|8,0:0|3:0|0:2,0:0:0:0:
110,193,39232,1,8,0:2:0:0:
110,193,39318,1,8,0:2:0:0:
110,193,39404,1,8,1:1:0:0:
264,264,39575,1,0,0:3:0:0:
164,384,39747,6,0,L|173:268,1,99.0000030212403,12|0,1:0|0:0,0:0:0:0:
303,135,40089,1,8,0:0:0:0:
190,88,40261,2,0,P|220:122|296:135,1,99.0000030212403,0|8,3:0|0:2,0:0:0:0:
304,5,40604,1,8,0:2:0:0:
286,23,40689,1,8,0:2:0:0:
277,46,40775,1,8,1:1:0:0:
18,110,40947,1,0,0:3:0:0:
113,0,41118,6,0,L|91:225,1,198.000006042481,12|8,1:0|0:0,0:0:0:0:
145,345,41632,1,0,3:0:0:0:
290,271,41804,1,8,0:2:0:0:
230,144,41975,1,8,0:2:0:0:
230,144,42062,1,8,0:2:0:0:
230,144,42147,2,0,L|190:251,1,99.0000030212403,8|0,1:1|0:3,0:0:0:0:
405,298,42489,6,0,P|399:209|327:170,1,148.50000453186,12|0,1:0|0:0,0:0:0:0:
353,193,42832,2,0,P|400:247|454:254,1,99.0000030212403,8|0,0:0|3:0,0:0:0:0:
512,213,43175,1,8,0:2:0:0:
445,141,43347,1,8,0:2:0:0:
288,269,43518,1,8,1:1:0:0:
210,196,43689,1,0,0:3:0:0:
327,83,43861,6,0,L|300:281,1,198.000006042481,12|8,1:0|0:0,0:0:0:0:
369,346,44375,1,0,3:0:0:0:
207,280,44547,2,0,P|165:305|143:349,1,99.0000030212403,8|8,0:2|0:2,0:0:0:0:
239,365,44804,1,8,0:2:0:0:
239,365,44889,1,8,1:1:0:0:
210,196,45061,1,0,0:3:0:0:
492,306,45232,6,0,B|444:323|388:305|389:297|392:290|345:263|273:284,1,198.000006042481,12|8,1:0|0:0,0:0:0:0:
239,365,45747,1,0,3:0:0:0:
111,230,45918,6,0,B|101:206|103:182|103:182|124:164|130:122,1,99.0000030212403,8|8,0:2|0:2,0:0:0:0:
206,114,46175,1,8,0:2:0:0:
206,114,46261,1,8,1:1:0:0:
44,120,46432,1,0,0:3:0:0:
401,199,46604,6,0,B|266:172|266:172|239:198|182:206,1,198.000006042481,12|8,1:0|0:0,0:0:0:0:
308,98,47118,1,0,3:0:0:0:
373,292,47289,2,0,P|430:295|471:266,1,99.0000030212403,8|8,0:2|0:2,0:0:0:0:
488,286,47547,1,8,0:2:0:0:
488,286,47632,2,0,P|426:328|345:312,1,148.50000453186,8|0,1:1|0:0,0:0:0:0:
284,278,47975,5,12,1:0:0:0:
169,342,48147,1,0,0:0:0:0:
209,118,48318,1,8,0:0:0:0:
109,109,48489,1,0,3:0:0:0:
47,273,48661,6,0,P|87:245|133:227,1,99.0000030212403,8|8,0:2|0:2,0:0:0:0:
373,209,49004,2,0,P|327:192|278:188,1,99.0000030212403,8|0,1:1|0:3,0:0:0:0:
475,17,49347,6,0,B|404:69|317:38,1,148.50000453186,12|0,1:0|0:0,0:0:0:0:
352,33,49689,2,0,P|424:44|469:78,1,99.0000030212403,8|0,0:0|3:0,0:0:0:0:
492,142,50032,1,8,0:2:0:0:
447,304,50204,1,8,0:2:0:0:
446,288,50290,1,8,0:2:0:0:
445,273,50375,1,8,1:1:0:0:
501,132,50547,1,0,0:3:0:0:
347,289,50718,6,0,B|286:287|286:287|265:273|265:273|169:271,1,148.50000453186,12|0,1:0|0:0,0:0:0:0:
215,285,51061,2,0,L|252:171,1,99.0000030212403,8|0,0:0|3:0,0:0:0:0:
208,103,51404,1,8,0:2:0:0:
69,186,51575,1,8,0:2:0:0:
85,186,51661,1,8,0:2:0:0:
101,185,51747,1,8,1:1:0:0:
252,175,51918,1,0,0:3:0:0:
97,30,52089,6,0,B|131:-2|131:-2|117:110,1,148.50000453186,12|0,1:0|0:0,0:0:0:0:
101,185,52432,1,8,0:0:0:0:
354,72,52604,1,0,3:0:0:0:
221,191,52775,1,8,0:0:0:0:
367,65,52947,1,8,0:2:0:0:
15,99,53118,1,8,1:1:0:0:
136,271,53289,5,0,0:3:0:0:
135,258,53375,1,0,0:0:0:0:
132,246,53461,6,0,L|116:84,1,148.50000453186,4|0,0:0|0:0,0:0:0:0:
170,38,53804,6,0,P|220:47|303:54,1,99.0000030212403,8|0,0:0|3:0,0:0:0:0:
379,58,54147,1,8,0:0:0:0:
109,97,54318,1,8,0:2:0:0:
391,217,54489,5,8,1:1:0:0:
391,217,54604,1,0,0:0:0:0:
391,217,54718,1,0,0:0:0:0:
300,254,54832,6,0,P|306:195|313:127,1,99.0000030212403,8|2,3:0|2:0,0:0:0:0:
364,359,55175,1,8,0:0:0:0:
310,146,55347,1,8,0:0:0:0:
183,293,55518,2,0,P|124:310|91:261,1,99.0000030212403,8|2,0:3|2:0,0:0:0:0:
85,270,55775,1,2,2:0:0:0:
85,270,55861,1,2,2:0:0:0:
311,132,56032,1,8,0:0:0:0:
155,41,56204,5,8,0:0:0:0:
99,137,56375,1,2,2:0:0:0:
127,135,56461,1,2,2:0:0:0:
162,131,56547,1,8,0:0:0:0:
343,16,56718,1,2,2:0:0:0:
308,20,56804,1,2,2:0:0:0:
280,22,56890,1,8,0:0:0:0:
448,263,57061,5,2,2:0:0:0:
457,214,57146,1,2,2:0:0:0:
441,168,57232,1,8,0:0:0:0:
406,134,57318,1,0,0:0:0:0:
359,121,57403,1,0,0:0:0:0:
311,132,57489,1,0,0:0:0:0:
283,243,57575,5,8,0:0:0:0:
0,279,61689,6,0,P|58:262|95:275,1,72,2|2,2:0|2:0,0:0:0:0:
107,367,61947,1,2,2:0:0:0:
95,373,62204,2,0,P|74:363|60:345,1,45,2|2,2:0|2:0,0:0:0:0:
6,186,62462,1,2,2:0:0:0:
6,186,62718,5,8,2:1:0:0:
41,181,62804,1,8,2:1:0:0:
76,177,62889,1,8,2:1:0:0:
111,173,62975,1,8,2:1:0:0:
192,214,63061,5,8,2:1:0:0:
257,139,63232,2,0,P|277:83|276:36,1,90,0|8,0:0|0:0,0:0:0:0:
182,220,63575,1,0,0:0:0:0:
334,249,63747,2,0,P|354:305|353:352,1,90,8|0,0:0|0:0,0:0:0:0:
178,81,64089,1,8,0:0:0:0:
178,81,64347,5,8,0:0:0:0:
178,81,64432,1,8,0:0:0:0:
370,114,64604,1,0,0:0:0:0:
402,103,64689,1,0,0:0:0:0:
417,80,64775,2,0,P|378:105|373:156,1,90,8|0,2:1|0:0,0:0:0:0:
422,232,65032,1,0,0:0:0:0:
422,232,65118,2,0,P|470:225|517:221,1,90,8|0,0:0|0:0,0:0:0:0:
296,79,65461,2,0,L|290:123,1,40.4999987640381,8|0,0:0|0:0,0:0:0:0:
264,313,65804,5,12,0:0:0:0:
142,259,65975,2,0,P|129:218|118:159,1,90,0|8,0:0|0:0,0:0:0:0:
187,379,66318,1,0,0:0:0:0:
276,301,66489,2,0,P|289:260|300:201,1,90,8|0,2:1|0:0,0:0:0:0:
83,345,66832,1,8,0:0:0:0:
83,345,67089,5,8,2:1:0:0:
83,345,67175,1,8,0:0:0:0:
0,137,67347,1,0,0:0:0:0:
0,137,67432,1,0,0:0:0:0:
0,137,67518,2,0,L|49:145,1,40.4999987640381,8|0,0:0|0:0,0:0:0:0:
117,154,67861,2,0,P|151:77|162:45,1,99.0000030212403,8|0,2:1|0:0,0:0:0:0:
221,232,68204,2,0,B|290:222|311:256|284:297|402:276,1,175.499991966248,8|0,1:3|0:0,0:0:0:0:
447,241,68547,6,0,P|452:184|459:125,2,99.0000030212403,8|0|8,2:1|0:0|0:0,0:0:0:0:
489,323,69061,1,0,0:0:0:0:
361,194,69232,2,0,P|353:138|346:83,1,99.0000030212403,8|0,0:0|0:0,0:0:0:0:
396,371,69575,1,8,0:0:0:0:
396,371,69832,5,8,0:0:0:0:
396,371,69918,1,8,0:0:0:0:
257,310,70089,2,0,P|232:312|179:318,2,49.5000015106202,0|0|8,0:0|0:0|2:1,0:0:0:0:
99,191,70432,1,0,0:0:0:0:
102,219,70518,1,0,0:0:0:0:
105,244,70604,1,8,0:0:0:0:
58,320,70775,1,0,0:0:0:0:
279,196,70947,2,0,P|255:180|246:170,1,40.4999987640381,8|0,0:0|0:0,0:0:0:0:
199,89,71289,6,0,L|212:-31,2,90,12|0|8,0:0|0:0|0:0,0:0:0:0:
192,233,71804,1,0,0:0:0:0:
381,87,71975,2,0,L|282:97,1,90,8|0,2:1|0:0,0:0:0:0:
122,121,72318,1,8,0:0:0:0:
122,121,72575,5,8,2:1:0:0:
122,121,72661,1,8,0:0:0:0:
215,15,72832,1,0,0:0:0:0:
214,30,72918,1,0,0:0:0:0:
212,45,73004,2,0,L|207:93,1,40.4999987640381,8|0,0:0|0:0,0:0:0:0:
205,118,73347,1,8,2:1:0:0:
392,86,73518,1,0,0:0:0:0:
316,366,73689,2,0,B|287:304|287:304|309:255|309:255|324:160,1,175.499991966248,8|0,1:3|0:0,0:0:0:0:
307,114,74032,5,8,2:1:0:0:
252,290,75232,5,8,0:3:0:0:
26,88,75404,1,8,0:0:0:0:
26,88,76432,5,8,0:0:0:0:
41,85,76518,1,8,0:0:0:0:
55,83,76604,1,8,0:0:0:0:
70,81,76689,1,8,0:0:0:0:
84,79,76775,5,8,0:0:0:0:
161,98,76947,1,0,3:2:0:0:
218,161,77118,1,0,3:2:0:0:
210,243,77289,1,0,3:2:0:0:
142,304,77461,5,2,3:2:0:0:
249,266,77633,1,0,3:2:0:0:
395,315,77804,1,0,3:2:0:0:
500,269,77975,1,0,3:2:0:0:
453,75,78147,5,12,3:2:0:0:
459,80,78232,1,8,3:2:0:0:
465,85,78318,2,0,P|477:111|481:149,1,58.4999973220826,8|8,3:2|3:2,0:0:0:0:
395,315,78489,5,8,3:2:0:0:
380,326,78574,1,8,3:2:0:0:
358,317,78661,2,0,P|355:287|365:250,1,58.4999973220826,8|8,3:2|3:2,0:0:0:0:
191,127,78832,5,8,3:2:0:0:
208,87,78917,1,8,3:2:0:0:
241,79,79003,2,0,P|243:108|233:145,1,58.4999973220826,8|8,3:2|3:2,0:0:0:0:
36,197,79175,2,0,B|71:197|107:224,1,58.4999973220826,8|8,3:2|3:2,0:0:0:0:
175,319,79347,2,0,P|203:323|247:309,1,58.4999973220826,8|8,3:2|3:2,0:0:0:0:
330,153,79518,5,2,3:0:0:0:
346,131,79604,1,2,3:0:0:0:
368,114,79689,1,2,3:0:0:0:
396,104,79775,1,2,3:0:0:0:
452,100,79861,5,2,3:0:0:0:
404,93,79946,1,2,3:0:0:0:
364,77,80032,1,2,3:0:0:0:
332,52,80118,1,2,3:0:0:0:
298,7,80204,5,2,3:0:0:0:
321,52,80290,1,2,3:0:0:0:
330,104,80376,1,2,3:0:0:0:
328,158,80461,1,2,3:0:0:0:
308,202,80547,1,0,0:0:0:0:
0,147,80889,6,0,L|136:141,1,116.999994644165,8|8,2:2|2:2,0:0:0:0:
197,139,81147,1,8,2:2:0:0:
197,139,81232,1,8,0:0:0:0:
24,263,81404,1,8,2:2:0:0:
24,263,81489,1,8,2:2:0:0:
24,263,81575,1,8,0:0:0:0:
145,26,81747,1,8,2:2:0:0:
168,27,81832,1,8,2:2:0:0:
191,29,81918,1,8,0:0:0:0:
214,31,82004,1,8,0:0:0:0:
237,34,82089,1,8,0:0:0:0:
260,36,82175,1,8,0:0:0:0:
337,86,82261,6,0,L|487:57,1,135.000005149842,14|0,0:0|0:0,0:0:0:0:
330,335,82604,2,0,L|284:190,1,135.000005149842,10|0,0:0|0:0,0:0:0:0:
299,215,82861,1,8,2:2:0:0:
308,222,82947,2,0,P|346:232|402:228,1,67.5000025749208,10|0,0:0|0:0,0:0:0:0:
443,183,83118,1,2,0:0:0:0:
212,302,83289,1,8,0:0:0:0:
483,329,83461,6,0,P|450:319|420:317,1,54,2|0,0:0|0:0,0:0:0:0:
430,317,83804,2,0,P|461:304|484:280,1,67.5000025749208,2|0,0:0|0:0,0:0:0:0:
512,179,83975,2,0,P|480:166|457:142,1,67.5000025749208,10|0,0:0|2:2,0:0:0:0:
435,43,84147,2,0,P|403:56|380:80,1,67.5000025749208,2|0,0:0|0:0,0:0:0:0:
177,193,84318,2,0,P|163:116|192:56,1,135.000005149842,2|8,0:0|2:2,0:0:0:0:
195,72,84575,1,0,0:0:0:0:
201,83,84661,2,0,P|141:118|66:119,1,135.000005149842,10|2,0:0|0:0,0:0:0:0:
153,353,85004,6,0,P|143:329|125:311,1,40.4999987640381,6|8,0:0|2:2,0:0:0:0:
119,299,85347,2,0,P|159:314|209:316,1,67.5000025749208,8|0,0:0|0:0,0:0:0:0:
287,206,85518,1,10,0:0:0:0:
287,206,85604,1,0,0:0:0:0:
287,206,85861,1,10,0:0:0:0:
270,377,86032,1,8,2:2:0:0:
270,377,86118,2,0,P|336:370|383:325,1,135.000005149842,8|0,2:2|0:0,0:0:0:0:
401,232,86375,6,0,L|383:88,1,135.000005149842,8|8,2:2|2:2,0:0:0:0:
472,299,86718,1,8,2:2:0:0:
307,168,86889,1,8,0:0:0:0:
462,288,87061,1,2,1:2:0:0:
467,35,87232,5,2,1:2:0:0:
449,165,87404,1,2,1:2:0:0:
310,195,87575,1,2,1:2:0:0:
155,88,87747,6,0,P|77:84|30:152,1,135.000005149842,14|0,0:0|0:0,0:0:0:0:
211,309,88089,2,0,P|191:241|209:153,1,135.000005149842,10|0,0:0|0:0,0:0:0:0:
207,174,88347,1,8,2:2:0:0:
215,177,88433,2,0,P|204:214|173:261,1,67.5000025749208,10|0,0:0|0:0,0:0:0:0:
102,291,88604,2,0,P|69:297|15:285,1,67.5000025749208,2|0,0:0|0:0,0:0:0:0:
285,358,88775,1,8,0:0:0:0:
429,163,88947,6,2,P|459:160|489:165,1,54,2|0,0:0|0:0,0:0:0:0:
491,174,89289,2,0,P|458:161|433:135,1,67.5000025749208,2|0,0:0|0:0,0:0:0:0:
312,8,89461,2,0,P|312:41|295:77,1,67.5000025749208,10|0,0:0|2:2,0:0:0:0:
148,164,89632,2,0,L|214:176,1,67.5000025749208,2|0,0:0|0:0,0:0:0:0:
351,384,89804,2,0,P|337:307|366:247,1,135.000005149842,2|8,0:0|2:2,0:0:0:0:
369,263,90061,1,0,0:0:0:0:
375,274,90147,2,0,P|315:309|240:310,1,135.000005149842,10|2,0:0|0:0,0:0:0:0:
95,219,90489,6,0,P|85:187|86:154,1,54,6|8,0:0|2:2,0:0:0:0:
121,154,90832,2,0,L|103:300,1,135.000005149842,8|10,0:0|0:0,0:0:0:0:
17,63,91089,1,0,0:0:0:0:
17,63,91347,1,10,0:0:0:0:
17,63,91518,1,8,2:2:0:0:
17,63,91604,1,8,2:2:0:0:
17,63,91689,6,0,P|87:119|213:110,1,202.500007724762,10|0,0:0|0:0,0:0:0:0:
253,67,92032,1,10,2:2:0:0:
263,51,92118,1,10,2:2:0:0:
265,32,92204,1,10,2:2:0:0:
259,18,92289,1,10,2:2:0:0:
245,0,92375,2,0,P|253:27|299:67,1,67.5000025749208,10|10,2:2|2:2,0:0:0:0:
359,77,92547,5,8,0:0:0:0:
397,72,92632,1,8,0:0:0:0:
435,67,92718,1,8,0:0:0:0:
470,63,92804,1,8,0:0:0:0:
512,0,92889,1,8,0:0:0:0:
418,222,93061,1,8,0:0:0:0:
386,203,93147,1,8,0:0:0:0:
357,187,93232,6,0,L|381:364,1,135.000005149842,14|0,0:0|0:0,0:0:0:0:
109,318,93575,2,0,P|152:233|203:200,1,135.000005149842,10|0,0:0|0:0,0:0:0:0:
193,210,93832,1,8,2:2:0:0:
203,214,93918,2,0,P|176:233|135:246,1,67.5000025749208,10|0,0:0|0:0,0:0:0:0:
52,218,94089,1,2,0:0:0:0:
225,308,94261,1,8,0:0:0:0:
143,64,94432,6,2,P|154:96|157:132,1,54,2|0,0:0|0:0,0:0:0:0:
9,136,94775,2,0,P|43:122|75:126,1,67.5000025749208,2|0,0:0|0:0,0:0:0:0:
207,0,94947,2,0,P|228:35|238:70,1,67.5000025749208,10|0,0:0|2:2,0:0:0:0:
315,233,95118,2,0,P|326:201|344:172,1,67.5000025749208,0|0,0:0|0:0,0:0:0:0:
512,46,95289,6,0,L|313:73,1,135.000005149842,2|8,0:0|2:2,0:0:0:0:
371,61,95547,1,0,0:0:0:0:
364,57,95632,2,0,L|456:64,1,67.5000025749208,10|0,0:0|0:0,0:0:0:0:
512,172,95804,2,0,L|434:162,1,67.5000025749208,2|0,0:0|0:0,0:0:0:0:
225,222,95975,6,2,P|228:249|233:277,1,54,6|8,0:0|2:2,0:0:0:0:
213,364,96318,2,0,L|221:282,1,67.5000025749208,8|0,0:0|0:0,0:0:0:0:
232,201,96489,6,0,L|237:150,8,33.7500012874604,10|0|0|0|0|0|8|0|10,0:0|0:0|0:0|0:0|0:0|0:0|2:2|0:0|0:0,0:0:0:0:
144,239,97004,2,0,P|113:251|80:247,1,67.5000025749208,8|8,2:2|2:2,0:0:0:0:
79,108,97175,2,0,P|112:103|143:115,1,67.5000025749208,10|0,0:0|0:0,0:0:0:0:
320,289,97347,6,0,P|386:306|462:275,1,135.000005149842,10|8,0:0|2:2,0:0:0:0:
505,205,97689,1,10,0:0:0:0:
245,350,97861,1,8,2:2:0:0:
446,73,98032,2,0,P|421:168|393:188,1,135.000005149842,10|8,0:0|2:1,0:0:0:0:
312,143,98289,1,8,2:2:0:0:
269,134,98375,1,10,2:1:0:0:
240,147,98461,1,8,2:2:0:0:
230,157,98547,1,10,2:1:0:0:
235,167,98632,1,8,2:2:0:0:
248,163,98718,6,0,P|221:94|128:66,1,135.000005149842,14|0,2:1|0:0,0:0:0:0:
72,129,98975,1,0,0:0:0:0:
91,125,99061,2,0,P|114:147|116:216,1,67.5000025749208,8|0,0:0|0:0,0:0:0:0:
61,249,99232,2,0,P|31:279|36:340,1,67.5000025749208,2|8,0:0|2:2,0:0:0:0:
99,384,99404,2,0,L|189:374,1,67.5000025749208,10|0,2:1|0:0,0:0:0:0:
266,371,99575,1,10,2:1:0:0:
169,262,99747,1,8,0:0:0:0:
382,124,99918,6,2,P|387:154|374:185,1,54,2|0,0:0|0:0,0:0:0:0:
321,217,100261,1,10,2:1:0:0:
472,257,100432,1,8,2:2:0:0:
472,257,100518,1,8,2:2:0:0:
472,257,100604,2,0,P|439:258|406:267,1,67.5000025749208,2|0,0:0|0:0,0:0:0:0:
305,234,100775,2,0,P|275:250|249:283,1,67.5000025749208,2|0,0:0|0:0,0:0:0:0:
462,127,100947,2,0,P|423:109|385:105,1,67.5000025749208,10|0,2:1|0:0,0:0:0:0:
138,83,101118,2,0,P|179:141|167:219,1,135.000005149842,10|0,1:1|0:0,0:0:0:0:
169,208,101375,1,8,2:2:0:0:
162,214,101461,6,0,L|185:-1,1,202.500007724762,2|0,1:0|0:0,0:0:0:0:
190,0,101804,2,0,L|209:87,1,67.5000025749208,8|0,0:0|0:0,0:0:0:0:
84,164,101975,1,10,2:1:0:0:
84,164,102061,1,8,2:2:0:0:
401,191,102318,1,8,2:2:0:0:
313,0,102489,1,10,0:0:0:0:
309,38,102575,1,8,0:0:0:0:
303,77,102661,1,8,0:0:0:0:
299,118,102747,1,8,0:0:0:0:
292,157,102832,6,0,L|282:219,1,54,10|0,0:0|0:0,0:0:0:0:
403,283,103175,5,0,0:0:0:0:
409,289,103232,1,0,0:0:0:0:
419,291,103289,1,0,0:0:0:0:
426,291,103347,1,0,0:0:0:0:
433,289,103404,1,0,0:0:0:0:
442,285,103461,1,0,0:0:0:0:
447,278,103518,2,0,L|237:313,1,180.000006866455,8|0,2:2|0:0,0:0:0:0:
142,188,103861,1,0,0:0:0:0:
245,215,103975,1,0,0:0:0:0:
168,288,104089,1,0,0:0:0:0:
186,230,104204,5,4,0:0:0:0:
256,192,112432,12,8,115004,1:0:0:0:
256,192,115175,6,0,P|312:180|391:208,1,125.999996154785,4|0,0:0|0:0,0:0:0:0:
451,260,115689,1,2,0:3:0:0:
420,109,115861,2,0,L|403:22,1,62.9999980773926,0|0,0:0|3:0,0:0:0:0:
512,108,116204,2,0,P|510:137|494:166,1,62.9999980773926,0|0,0:0|3:0,0:0:0:0:
266,90,116547,6,0,P|210:106|165:162,1,125.999996154785,4|0,0:0|0:0,0:0:0:0:
148,261,117061,1,2,0:3:0:0:
245,229,117232,1,0,0:0:0:0:
169,170,117404,1,0,3:0:0:0:
231,223,117575,1,0,0:0:0:0:
154,248,117747,1,0,3:0:0:0:
354,156,117918,6,0,B|351:203|351:203|333:227|333:227|330:301,1,125.999996154785,4|0,0:0|0:0,0:0:0:0:
394,338,118432,1,2,0:3:0:0:
481,294,118604,2,0,P|445:255|424:252,1,62.9999980773926,0|0,0:0|3:0,0:0:0:0:
481,110,118947,2,0,P|453:124|437:151,1,62.9999980773926,0|0,0:0|3:0,0:0:0:0:
257,68,119289,6,0,L|384:55,1,125.999996154785,4|0,0:0|0:0,0:0:0:0:
228,151,119804,2,0,P|195:137|169:107,1,62.9999980773926,2|0,0:3|0:0,0:0:0:0:
180,37,120147,1,0,3:0:0:0:
319,148,120318,2,0,P|310:178|292:203,1,62.9999980773926,0|0,0:0|3:0,0:0:0:0:
30,242,120661,6,0,B|59:221|59:221|177:241,1,125.999996154785,4|0,0:0|0:0,0:0:0:0:
205,302,121175,1,2,0:3:0:0:
210,172,121347,1,0,0:0:0:0:
210,172,121518,1,0,3:0:0:0:
324,258,121689,2,0,L|260:246,1,62.9999980773926,0|0,0:0|3:0,0:0:0:0:
133,121,122032,6,0,P|181:90|268:93,1,125.999996154785,4|0,0:0|0:0,0:0:0:0:
325,128,122547,1,2,0:3:0:0:
300,23,122718,1,0,0:0:0:0:
211,0,122889,1,0,0:0:0:0:
337,136,123061,2,0,B|370:142|370:142|424:131,1,62.9999980773926,0|0,0:0|3:0,0:0:0:0:
131,256,123404,6,0,P|160:206|245:170,1,125.999996154785,4|0,0:0|0:0,0:0:0:0:
308,224,123918,1,2,0:3:0:0:
226,183,124089,2,0,P|195:198|171:227,1,62.9999980773926,0|0,0:0|3:0,0:0:0:0:
14,29,124432,2,0,P|43:20|53:40,1,54,8|0,1:0|0:0,0:0:0:0:
35,159,124775,6,0,L|-21:166,1,36,8|0,1:0|0:0,0:0:0:0:
131,39,124947,1,8,0:2:0:0:
131,39,125032,2,0,L|76:32,1,36,8|8,0:2|1:0,0:0:0:0:
165,133,125204,1,8,0:2:0:0:
165,133,125289,2,0,L|110:140,1,36,8|8,0:2|0:2,0:0:0:0:
263,47,125461,1,8,1:0:0:0:
263,47,125546,2,0,L|208:40,1,36,8|8,0:2|0:2,0:0:0:0:
370,58,125718,1,8,0:2:0:0:
370,58,125804,2,0,P|329:125|325:127,1,62.9999980773926,8|8,1:0|0:2,0:0:0:0:
286,202,125975,2,0,P|296:231|317:254,1,62.9999980773926,8|8,1:0|0:2,0:0:0:0:
512,145,126147,6,0,L|298:126,1,188.999994232178,12|0,1:0|0:0,0:0:0:0:
305,118,126489,2,0,P|244:130|200:184,1,125.999996154785,8|0,0:0|3:0,0:0:0:0:
217,289,126832,1,8,0:2:0:0:
18,215,127004,1,8,0:2:0:0:
11,236,127089,1,8,0:2:0:0:
5,254,127175,2,0,L|130:236,1,125.999996154785,8|0,1:1|0:3,0:0:0:0:
279,380,127518,6,0,P|320:316|265:193,1,188.999994232178,8|0,1:0|0:0,0:0:0:0:
281,207,127861,2,0,P|338:273|403:267,1,125.999996154785,8|0,0:0|3:0,0:0:0:0:
464,236,128204,1,8,0:2:0:0:
383,166,128375,1,8,0:2:0:0:
490,11,128547,1,8,1:1:0:0:
487,108,128718,1,0,0:3:0:0:
287,3,128889,6,0,P|192:21|178:125,1,188.999994232178,8|0,1:0|0:0,0:0:0:0:
174,114,129232,2,0,L|327:96,1,125.999996154785,8|0,0:0|3:0,0:0:0:0:
76,201,129575,2,0,P|42:126|62:58,1,125.999996154785,8|8,0:2|0:2,0:0:0:0:
64,75,129832,1,8,0:2:0:0:
64,75,129918,1,8,1:1:0:0:
180,126,130089,1,0,0:3:0:0:
396,0,130261,6,0,L|386:219,1,188.999994232178,8|0,1:0|0:0,0:0:0:0:
397,197,130604,2,0,P|453:183|436:95,1,125.999996154785,8|0,0:0|3:0,0:0:0:0:
304,177,130947,1,8,0:2:0:0:
375,282,131118,1,8,0:2:0:0:
375,282,131204,1,8,0:2:0:0:
375,282,131289,1,8,1:1:0:0:
298,169,131461,1,0,0:3:0:0:
248,356,131632,6,0,B|144:365|175:295|63:309,1,188.999994232178,8|0,1:0|0:0,0:0:0:0:
63,317,131975,2,0,P|125:336|187:314,1,125.999996154785,8|0,0:0|3:0,0:0:0:0:
76,112,132318,2,0,P|73:148|132:222,1,125.999996154785,8|8,0:2|0:2,0:0:0:0:
122,217,132575,1,8,0:2:0:0:
122,217,132661,2,0,P|154:157|142:87,1,125.999996154785,8|0,1:1|0:3,0:0:0:0:
399,0,133004,6,0,B|367:10|350:42|350:42|226:26,1,188.999994232178,8|0,1:0|0:0,0:0:0:0:
206,21,133347,1,8,0:0:0:0:
247,122,133518,1,0,3:0:0:0:
344,165,133689,1,8,0:2:0:0:
512,120,133861,1,8,0:2:0:0:
455,198,134032,2,0,P|424:145|437:68,1,125.999996154785,8|0,1:1|0:3,0:0:0:0:
454,304,134375,6,0,L|226:276,1,188.999994232178,12|0,1:0|0:0,0:0:0:0:
251,278,134718,2,0,L|376:265,1,125.999996154785,8|0,0:0|3:0,0:0:0:0:
374,377,135061,1,8,0:2:0:0:
255,199,135232,1,8,0:2:0:0:
236,201,135318,1,8,0:2:0:0:
218,204,135404,1,8,1:1:0:0:
340,186,135575,1,0,0:3:0:0:
253,384,135747,6,0,P|177:352|148:232,1,188.999994232178,8|0,1:0|0:0,0:0:0:0:
148,249,136089,2,0,P|142:332|84:349,1,125.999996154785,8|0,0:0|3:0,0:0:0:0:
56,254,136432,1,8,0:2:0:0:
137,63,136604,1,8,0:2:0:0:
136,46,136689,1,8,0:2:0:0:
135,28,136775,1,8,1:1:0:0:
40,125,136947,1,0,0:3:0:0:
330,12,137118,6,0,P|244:14|241:100,1,188.999994232178,12|0,1:0|0:0,0:0:0:0:
253,113,137461,2,0,B|308:104|308:104|322:110|322:110|400:97,2,125.999996154785,8|0|8,0:0|3:0|0:2,0:0:0:0:
497,185,137975,1,8,0:2:0:0:
497,185,138061,1,8,0:2:0:0:
497,185,138147,2,0,L|352:209,1,125.999996154785,8|0,1:1|0:3,0:0:0:0:
210,339,138489,6,0,B|235:220|235:220|122:239,1,188.999994232178,12|0,1:0|0:0,0:0:0:0:
149,222,138832,2,0,L|303:197,1,125.999996154785,8|0,0:0|3:0,0:0:0:0:
119,307,139175,1,8,0:2:0:0:
66,213,139347,1,8,0:2:0:0:
292,198,139518,1,8,1:1:0:0:
246,111,139689,1,0,0:3:0:0:
15,0,139861,6,0,P|80:79|174:47,1,188.999994232178,12|0,1:0|0:0,0:0:0:0:
174,51,140204,2,0,P|146:114|185:185,1,125.999996154785,8|0,0:0|3:0,0:0:0:0:
443,39,140547,2,0,B|408:60|408:60|310:39,1,125.999996154785,8|8,0:2|0:2,0:0:0:0:
253,16,140804,1,8,0:2:0:0:
253,16,140889,1,8,1:1:0:0:
457,30,141061,1,0,0:3:0:0:
264,150,141232,6,0,B|309:136|309:136|447:165,1,188.999994232178,12|0,1:0|0:0,0:0:0:0:
472,169,141575,1,8,0:0:0:0:
415,248,141747,1,0,3:0:0:0:
320,239,141918,1,8,0:2:0:0:
201,364,142089,1,8,0:2:0:0:
201,364,142175,1,8,0:2:0:0:
201,364,142261,2,0,L|187:187,1,125.999996154785,8|0,1:1|0:3,0:0:0:0:
0,169,142604,6,0,P|67:195|135:171,1,125.999996154785,12|0,1:0|0:0,0:0:0:0:
183,143,142861,1,0,0:0:0:0:
183,143,142947,1,8,0:0:0:0:
64,52,143118,1,0,3:0:0:0:
402,53,143289,1,8,0:0:0:0:
167,137,143461,1,8,0:2:0:0:
415,49,143632,1,8,1:1:0:0:
256,0,143804,1,0,0:3:0:0:
263,6,143889,1,0,0:0:0:0:
263,6,143975,6,0,P|271:76|284:214,1,188.999994232178,4|0,0:0|0:0,0:0:0:0:
298,280,144318,1,8,0:0:0:0:
76,221,144489,1,0,3:0:0:0:
204,365,144661,1,8,0:0:0:0:
150,119,144832,1,8,0:2:0:0:
182,246,145004,1,8,1:1:0:0:
182,246,145118,1,0,0:0:0:0:
182,246,145232,1,0,0:0:0:0:
298,280,145347,6,0,P|356:270|447:264,1,125.999996154785,8|2,3:0|2:0,0:0:0:0:
512,92,145689,5,8,0:0:0:0:
401,155,145861,1,0,0:0:0:0:
235,58,146032,1,8,0:3:0:0:
332,12,146204,5,2,2:0:0:0:
330,39,146289,1,2,2:0:0:0:
328,65,146375,1,2,2:0:0:0:
422,42,146547,1,8,0:0:0:0:
221,61,146718,5,8,0:0:0:0:
121,30,146889,1,2,2:0:0:0:
119,57,146974,1,2,2:0:0:0:
117,83,147060,1,8,0:0:0:0:
341,20,147232,1,2,2:0:0:0:
339,47,147317,1,2,2:0:0:0:
337,73,147403,1,8,0:0:0:0:
63,209,147575,5,2,2:0:0:0:
107,233,147661,1,2,2:0:0:0:
156,224,147747,1,8,0:0:0:0:
189,188,147832,1,0,0:0:0:0:
236,173,147918,1,0,0:0:0:0:
285,185,148004,1,0,0:0:0:0:
348,244,148089,5,8,0:0:0:0:
157,364,152204,6,0,P|112:332|79:329,1,72,2|2,2:0|2:0,0:0:0:0:
28,359,152461,1,2,2:0:0:0:
17,344,152718,6,0,P|62:312|71:308,1,45,2|2,2:0|2:0,0:0:0:0:
168,276,152975,1,2,2:0:0:0:
8,34,153232,1,8,2:1:0:0:
11,75,153318,1,8,2:1:0:0:
15,113,153404,1,8,2:1:0:0:
18,152,153489,1,8,2:1:0:0:
34,240,153575,6,0,P|74:207|127:191,1,90,8|0,2:1|0:0,0:0:0:0:
233,223,153918,1,8,0:0:0:0:
104,47,154089,6,0,P|137:76|179:93,1,90,0|8,0:0|0:0,0:0:0:0:
299,80,154432,1,0,0:0:0:0:
117,283,154604,1,8,0:0:0:0:
117,283,154861,5,8,0:0:0:0:
117,283,154947,1,8,0:0:0:0:
338,373,155118,1,0,0:0:0:0:
336,357,155204,1,0,0:0:0:0:
334,341,155289,2,0,L|322:239,1,90,8|0,2:1|0:0,0:0:0:0:
383,186,155547,1,0,0:0:0:0:
383,186,155632,2,0,P|427:190|480:202,1,90,8|0,0:0|0:0,0:0:0:0:
266,55,155975,6,0,P|298:79|304:87,1,40.4999987640381,8|0,0:0|0:0,0:0:0:0:
380,87,156318,6,0,P|423:84|489:73,1,90,12|0,0:0|0:0,0:0:0:0:
229,129,156661,1,8,0:0:0:0:
346,15,156832,1,0,0:0:0:0:
218,136,157004,1,8,2:1:0:0:
288,206,157175,1,0,0:0:0:0:
178,349,157347,1,8,0:0:0:0:
178,349,157604,1,8,2:1:0:0:
178,349,157689,5,0,0:0:0:0:
2,176,157861,1,0,0:0:0:0:
18,177,157947,1,0,0:0:0:0:
35,176,158032,6,0,L|76:174,1,40.4999987640381,8|0,0:0|0:0,0:0:0:0:
104,172,158375,1,8,2:1:0:0:
111,279,158547,1,0,0:0:0:0:
62,48,158718,2,0,B|136:67|136:67|152:83|152:83|241:105,1,175.499991966248,8|0,1:3|0:0,0:0:0:0:
238,106,159061,6,0,L|358:86,2,99.0000030212403,8|0|8,2:1|0:0|0:0,0:0:0:0:
205,8,159575,1,0,0:0:0:0:
341,178,159747,2,0,P|332:230|322:297,1,99.0000030212403,8|0,0:0|0:0,0:0:0:0:
372,0,160089,1,8,0:0:0:0:
450,66,160347,1,8,0:0:0:0:
450,66,160432,6,0,L|307:94,1,99.0000030212403,8|0,0:0|0:0,0:0:0:0:
244,197,160689,1,0,0:0:0:0:
244,197,160775,2,0,P|231:155|173:117,1,99.0000030212403,8|0,2:1|0:0,0:0:0:0:
100,14,161032,1,0,0:0:0:0:
100,14,161118,2,0,P|97:63|92:117,1,99.0000030212403,8|0,0:0|0:0,0:0:0:0:
3,250,161461,2,0,P|19:244|48:238,1,40.4999987640381,8|0,0:0|0:0,0:0:0:0:
67,239,161804,5,12,0:0:0:0:
41,329,161975,1,0,0:0:0:0:
268,331,162147,1,8,0:0:0:0:
173,173,162318,1,0,0:0:0:0:
158,265,162489,1,8,0:0:0:0:
395,252,162661,1,0,0:0:0:0:
147,266,162832,1,8,0:0:0:0:
85,197,163089,5,8,2:1:0:0:
85,197,163175,1,0,0:0:0:0:
272,335,163347,1,0,0:0:0:0:
272,335,163432,1,0,0:0:0:0:
272,335,163518,2,0,L|264:293,1,40.4999987640381,8|0,0:0|0:0,0:0:0:0:
258,211,163861,2,0,L|292:220,1,26.9999991760254,8|0,2:1|0:0,0:0:0:0:
150,60,164204,2,0,B|175:92|175:92|245:75|245:75|329:81,1,175.499991966248,8|0,1:3|0:0,0:0:0:0:
417,97,164547,5,8,2:1:0:0:
417,97,165747,1,8,0:3:0:0:
328,355,165918,5,8,0:0:0:0:
6,236,166947,1,8,0:0:0:0:
22,235,167032,1,8,0:0:0:0:
35,234,167118,1,8,0:0:0:0:
46,233,167204,1,8,0:0:0:0:
63,230,167289,1,8,0:0:0:0:
189,216,167461,1,0,3:2:0:0:
332,198,167632,1,0,3:2:0:0:
484,176,167804,1,0,3:2:0:0:
403,130,167975,5,2,3:2:0:0:
411,256,168147,1,0,3:2:0:0:
263,101,168318,1,0,3:2:0:0:
276,314,168489,1,0,3:2:0:0:
198,176,168661,5,12,3:2:0:0:
192,181,168746,1,8,3:2:0:0:
186,186,168832,2,0,P|174:212|170:250,1,58.4999973220826,8|8,3:2|3:2,0:0:0:0:
242,370,169003,5,8,3:2:0:0:
257,381,169088,1,8,3:2:0:0:
279,372,169175,2,0,P|282:342|272:305,1,58.4999973220826,8|8,3:2|3:2,0:0:0:0:
119,132,169346,5,8,3:2:0:0:
81,109,169431,1,8,3:2:0:0:
50,122,169518,2,0,P|65:146|95:170,1,58.4999973220826,8|8,3:2|3:2,0:0:0:0:
93,355,169689,2,0,P|120:347|143:329,1,58.4999973220826,8|8,3:2|3:2,0:0:0:0:
272,185,169861,2,0,B|292:168|327:168,1,58.4999973220826,8|8,3:2|3:2,0:0:0:0:
452,301,170032,5,2,3:0:0:0:
463,328,170118,1,2,3:0:0:0:
450,356,170204,1,2,3:0:0:0:
416,363,170289,1,2,3:0:0:0:
381,342,170375,1,2,3:0:0:0:
368,299,170461,1,2,3:0:0:0:
378,255,170547,1,2,3:0:0:0:
416,232,170632,1,2,3:0:0:0:
465,190,170718,5,2,3:0:0:0:
475,126,170804,1,2,3:0:0:0:
457,64,170889,1,2,3:0:0:0:
401,30,170975,1,2,3:0:0:0:
341,56,171061,1,4,0:0:0:0:
341,56,171404,6,0,L|359:187,1,116.999994644165,8|8,2:2|2:2,0:0:0:0:
307,247,171662,1,8,2:2:0:0:
307,247,171747,1,8,0:0:0:0:
457,64,171919,1,8,2:2:0:0:
457,64,172004,1,8,2:2:0:0:
457,64,172090,1,8,0:0:0:0:
260,148,172262,1,8,2:2:0:0:
237,147,172347,1,8,2:2:0:0:
214,145,172433,1,8,0:0:0:0:
191,143,172519,1,8,0:0:0:0:
168,140,172604,1,8,0:0:0:0:
145,138,172690,1,8,0:0:0:0:
130,136,172775,6,0,L|153:289,1,148.49999546814,0|0,0:0|0:0,0:0:0:0:
140,296,173804,2,0,P|112:283|91:281,1,40.4999987640381,0|0,0:0|0:0,0:0:0:0:
86,283,174147,6,0,P|146:255|213:260,1,135.000005149842,14|0,0:0|0:0,0:0:0:0:
388,332,174489,2,0,P|344:253|359:183,1,135.000005149842,10|0,0:0|0:0,0:0:0:0:
386,185,174747,1,8,2:2:0:0:
386,185,174832,1,10,0:0:0:0:
448,267,175004,1,2,0:0:0:0:
243,175,175175,1,8,0:0:0:0:
455,42,175347,6,2,P|422:57|401:81,1,54,2|0,0:0|0:0,0:0:0:0:
436,93,175689,2,0,P|404:81|370:82,1,67.5000025749208,2|0,0:0|0:0,0:0:0:0:
307,4,175861,2,0,P|277:26|263:65,1,67.5000025749208,10|0,0:0|2:2,0:0:0:0:
144,32,176032,2,0,P|142:69|163:105,1,67.5000025749208,2|0,0:0|0:0,0:0:0:0:
282,306,176204,2,0,P|272:244|260:152,1,135.000005149842,2|8,0:0|2:2,0:0:0:0:
260,150,176461,1,0,0:0:0:0:
260,150,176547,1,10,0:0:0:0:
373,198,176718,1,2,0:0:0:0:
107,300,176889,6,0,P|92:285|71:273,1,40.4999987640381,6|8,0:0|2:2,0:0:0:0:
51,263,177232,1,8,0:0:0:0:
176,196,177404,1,10,0:0:0:0:
176,196,177489,1,0,0:0:0:0:
78,145,177747,1,10,0:0:0:0:
179,364,177918,1,8,2:2:0:0:
179,364,178004,2,0,P|242:321|313:302,1,135.000005149842,8|0,2:2|0:0,0:0:0:0:
379,284,178261,5,8,2:2:0:0:
459,332,178432,1,8,2:2:0:0:
345,143,178604,1,8,2:2:0:0:
474,342,178775,1,8,0:0:0:0:
288,227,178947,1,2,1:2:0:0:
506,76,179118,5,2,1:2:0:0:
449,162,179289,1,2,1:2:0:0:
337,153,179461,1,2,1:2:0:0:
283,54,179632,6,0,P|221:20|151:21,1,135.000005149842,14|0,0:0|0:0,0:0:0:0:
42,229,179975,2,0,P|82:159|78:91,1,135.000005149842,10|0,0:0|0:0,0:0:0:0:
72,91,180232,1,8,2:2:0:0:
62,79,180318,2,0,P|102:156|151:183,1,135.000005149842,10|2,0:0|0:0,0:0:0:0:
298,50,180661,1,8,0:0:0:0:
158,19,180832,6,2,L|171:88,1,54,2|0,0:0|0:0,0:0:0:0:
255,120,181175,2,0,P|285:131|350:117,1,67.5000025749208,2|0,0:0|0:0,0:0:0:0:
487,104,181347,2,0,P|453:102|421:114,1,67.5000025749208,10|0,0:0|2:2,0:0:0:0:
326,208,181518,2,0,P|315:240|314:274,1,67.5000025749208,2|0,0:0|0:0,0:0:0:0:
245,10,181689,2,0,P|266:33|330:51,1,67.5000025749208,2|0,0:0|0:0,0:0:0:0:
391,37,181861,1,8,2:2:0:0:
391,37,181947,1,0,0:0:0:0:
391,37,182032,1,10,0:0:0:0:
244,115,182204,1,2,0:0:0:0:
454,256,182375,6,2,L|400:267,1,54,6|8,0:0|2:2,0:0:0:0:
227,294,182718,1,8,0:0:0:0:
314,363,182889,1,10,0:0:0:0:
314,363,182975,1,0,0:0:0:0:
314,363,183232,1,10,0:0:0:0:
345,93,183404,1,8,2:2:0:0:
376,142,183489,1,8,2:2:0:0:
355,193,183575,6,0,B|136:177,1,202.500007724762,10|0,0:0|0:0,0:0:0:0:
78,205,183918,5,10,2:2:0:0:
81,217,184004,1,10,2:2:0:0:
83,229,184089,1,10,2:2:0:0:
85,240,184175,1,10,2:2:0:0:
89,253,184261,1,10,2:2:0:0:
91,266,184347,1,10,2:2:0:0:
61,307,184432,5,8,0:0:0:0:
71,253,184518,1,8,0:0:0:0:
78,205,184604,1,8,0:0:0:0:
91,158,184689,1,8,0:0:0:0:
39,207,184775,1,8,0:0:0:0:
215,69,184947,1,8,0:0:0:0:
215,69,185032,1,8,0:0:0:0:
215,69,185118,6,0,L|77:44,1,135.000005149842,14|0,0:0|0:0,0:0:0:0:
396,3,185461,2,0,P|353:88|302:121,1,135.000005149842,10|0,0:0|0:0,0:0:0:0:
312,111,185718,1,8,2:2:0:0:
302,107,185804,2,0,P|329:88|370:75,1,67.5000025749208,10|0,0:0|0:0,0:0:0:0:
453,103,185975,1,2,0:0:0:0:
280,13,186147,1,8,0:0:0:0:
391,191,186318,6,2,P|362:211|350:234,1,54,2|0,0:0|0:0,0:0:0:0:
369,306,186661,2,0,L|456:292,1,67.5000025749208,2|0,0:0|0:0,0:0:0:0:
259,216,186832,2,0,L|326:219,1,67.5000025749208,10|0,0:0|2:2,0:0:0:0:
165,362,187004,2,0,L|233:350,1,67.5000025749208,0|0,0:0|0:0,0:0:0:0:
19,200,187175,6,0,L|190:209,1,135.000005149842,2|8,0:0|2:2,0:0:0:0:
153,207,187432,1,0,0:0:0:0:
153,207,187518,1,10,0:0:0:0:
80,287,187689,1,2,0:0:0:0:
170,105,187861,6,2,P|171:74|162:42,1,54,6|8,0:0|2:2,0:0:0:0:
86,23,188204,2,0,L|-42:41,1,67.5000025749208,8|0,0:0|0:0,0:0:0:0:
250,86,188375,2,0,L|289:81,8,33.7500012874604,10|0|0|0|0|0|8|0|10,0:0|0:0|0:0|0:0|0:0|0:0|2:2|0:0|0:0,0:0:0:0:
408,16,188889,1,8,2:2:0:0:
406,33,188975,1,8,2:2:0:0:
404,50,189061,1,10,0:0:0:0:
305,195,189232,6,0,L|458:180,1,135.000005149842,10|8,0:0|2:2,0:0:0:0:
474,274,189575,1,10,0:0:0:0:
287,196,189747,1,8,2:2:0:0:
400,69,189918,1,10,0:0:0:0:
209,323,190089,1,8,2:1:0:0:
200,279,190175,1,8,2:2:0:0:
177,258,190261,1,10,2:1:0:0:
164,252,190347,1,8,2:2:0:0:
156,261,190432,1,10,2:1:0:0:
165,271,190518,1,8,2:2:0:0:
175,268,190604,6,0,P|227:216|212:112,1,135.000005149842,14|0,2:1|0:0,0:0:0:0:
57,105,190861,1,0,0:0:0:0:
69,109,190947,2,0,P|97:95|134:42,1,67.5000025749208,8|0,0:0|0:0,0:0:0:0:
233,17,191118,2,0,P|261:30|298:83,1,67.5000025749208,2|8,0:0|2:2,0:0:0:0:
53,6,191289,2,0,P|24:19|-12:72,1,67.5000025749208,10|0,2:1|0:0,0:0:0:0:
202,100,191461,2,0,P|215:117|227:142,6,33.7500012874604,10|0|0|0|8|0|0,2:1|0:0|0:0|0:0|0:0|0:0|0:0,0:0:0:0:
304,161,191804,6,2,P|326:145|351:137,1,54,2|0,0:0|0:0,0:0:0:0:
429,141,192147,1,10,2:1:0:0:
243,284,192318,1,8,2:2:0:0:
243,284,192404,1,8,2:2:0:0:
243,284,192489,2,0,L|93:259,2,135.000005149842,2|2|10,0:0|0:0|2:1,0:0:0:0:
36,258,193004,2,0,P|100:242|139:189,1,135.000005149842,10|0,1:1|0:0,0:0:0:0:
134,171,193261,1,8,2:2:0:0:
128,150,193347,6,0,P|79:293|97:356,1,202.500007724762,2|0,1:0|0:0,0:0:0:0:
163,384,193689,1,8,0:0:0:0:
284,350,193861,1,10,2:1:0:0:
284,350,193947,1,8,2:2:0:0:
500,379,194204,1,8,2:2:0:0:
461,168,194375,1,10,0:0:0:0:
458,186,194461,1,8,0:0:0:0:
453,203,194547,1,8,0:0:0:0:
443,217,194632,1,8,0:0:0:0:
428,227,194718,6,0,L|366:215,1,54,10|0,0:0|0:0,0:0:0:0:
247,33,195061,5,0,0:0:0:0:
234,40,195118,1,0,0:0:0:0:
231,52,195175,1,0,0:0:0:0:
241,59,195232,1,0,0:0:0:0:
252,52,195289,1,0,0:0:0:0:
256,40,195347,1,0,0:0:0:0:
245,50,195404,2,0,P|268:120|261:197,1,135.000005149842,8|0,2:2|0:0,0:0:0:0:
36,131,196089,6,0,L|189:107,2,135.000005149842,14|0|10,0:0|0:0|0:0,0:0:0:0:
78,40,196604,1,0,0:0:0:0:
78,40,196689,1,8,2:2:0:0:
78,40,196775,1,10,0:0:0:0:
24,136,196947,1,2,0:0:0:0:
284,166,197118,1,8,0:0:0:0:
187,216,197289,6,2,L|177:284,1,54,2|0,0:0|0:0,0:0:0:0:
230,336,197632,2,0,L|316:320,1,67.5000025749208,2|0,0:0|0:0,0:0:0:0:
398,269,197804,2,0,P|368:262|334:217,1,67.5000025749208,10|0,0:0|2:2,0:0:0:0:
268,80,197975,2,0,P|238:87|204:132,1,67.5000025749208,2|0,0:0|0:0,0:0:0:0:
95,320,198147,2,0,P|65:313|36:211,1,135.000005149842,2|0,0:0|0:0,0:0:0:0:
36,217,198404,1,0,0:0:0:0:
45,207,198489,2,0,L|29:358,1,135.000005149842,10|2,0:0|0:0,0:0:0:0:
31,84,198832,6,2,P|49:93|72:97,1,40.4999987640381,6|8,0:0|2:2,0:0:0:0:
144,67,199175,1,8,0:0:0:0:
242,234,199347,1,10,0:0:0:0:
242,234,199432,1,0,0:0:0:0:
242,234,199689,1,10,0:0:0:0:
252,42,199861,1,8,2:2:0:0:
252,42,199947,2,0,B|316:45|309:87|388:74,1,135.000005149842,8|0,2:2|0:0,0:0:0:0:
461,46,200204,5,8,2:2:0:0:
401,151,200375,1,8,2:2:0:0:
449,258,200547,1,8,2:2:0:0:
463,35,200718,1,8,0:0:0:0:
391,146,200889,1,2,1:2:0:0:
423,350,201061,5,2,1:2:0:0:
360,254,201232,1,2,1:2:0:0:
247,237,201404,1,2,1:2:0:0:
161,288,201575,6,0,P|99:314|40:224,1,135.000005149842,14|0,0:0|0:0,0:0:0:0:
0,44,201918,2,0,P|48:58|99:130,1,135.000005149842,10|0,0:0|0:0,0:0:0:0:
108,119,202175,1,8,2:2:0:0:
117,114,202261,2,0,P|155:104|211:108,1,67.5000025749208,10|0,0:0|0:0,0:0:0:0:
126,28,202432,1,2,0:0:0:0:
8,139,202604,1,8,0:0:0:0:
243,219,202775,6,2,P|272:213|300:189,1,54,2|0,0:0|0:0,0:0:0:0:
322,132,203118,2,0,L|302:45,1,67.5000025749208,2|0,0:0|0:0,0:0:0:0:
424,12,203289,2,0,L|408:77,1,67.5000025749208,10|0,0:0|2:2,0:0:0:0:
440,215,203461,2,0,L|519:204,1,67.5000025749208,2|0,0:0|0:0,0:0:0:0:
432,380,203632,2,0,P|403:333|322:309,1,135.000005149842,2|8,0:0|2:2,0:0:0:0:
321,316,203889,1,0,0:0:0:0:
311,328,203975,2,0,P|228:346|176:279,1,135.000005149842,10|2,0:0|0:0,0:0:0:0:
86,187,204318,6,0,P|117:192|145:176,1,54,6|8,0:0|2:2,0:0:0:0:
159,161,204661,6,0,L|139:57,1,67.5000025749208,8|0,0:0|0:0,0:0:0:0:
107,294,204832,1,10,0:0:0:0:
107,294,205175,1,10,0:0:0:0:
18,29,205347,1,8,2:2:0:0:
23,45,205432,1,8,2:2:0:0:
28,60,205518,2,0,L|284:65,1,202.500007724762,10|0,0:0|0:0,0:0:0:0:
299,121,205861,5,10,2:2:0:0:
310,124,205947,1,10,2:2:0:0:
324,125,206032,1,10,2:2:0:0:
336,122,206118,1,10,2:2:0:0:
348,115,206204,1,10,2:2:0:0:
357,106,206290,1,10,2:2:0:0:
405,56,206375,5,8,0:0:0:0:
356,81,206461,1,8,0:0:0:0:
324,125,206547,1,8,0:0:0:0:
319,181,206632,1,8,0:0:0:0:
333,235,206718,1,8,0:0:0:0:
501,258,206889,1,8,0:0:0:0:
505,276,206975,1,8,0:0:0:0:
501,291,207061,2,0,P|447:258|418:187,1,135.000005149842,14|0,0:0|0:0,0:0:0:0:
173,384,207404,2,0,P|229:348|255:287,1,135.000005149842,10|0,0:0|0:0,0:0:0:0:
250,280,207661,1,8,2:2:0:0:
241,274,207747,2,0,B|182:283|182:283|170:291|170:291|98:303,2,135.000005149842,10|0|0,0:0|0:0|0:0,0:0:0:0:
144,47,208261,6,2,L|140:111,1,54,2|0,0:0|0:0,0:0:0:0:
77,149,208604,2,0,P|46:143|18:113,1,67.5000025749208,2|0,0:0|0:0,0:0:0:0:
83,5,208775,2,0,P|114:11|142:41,1,67.5000025749208,10|0,0:0|2:2,0:0:0:0:
150,195,208947,2,0,P|127:223|68:238,1,67.5000025749208,0|0,0:0|0:0,0:0:0:0:
248,69,209118,2,0,B|330:57|299:126|404:106,1,135.000005149842,2|0,0:0|0:0,0:0:0:0:
451,90,209375,1,0,0:0:0:0:
451,90,209461,1,10,0:0:0:0:
247,156,209632,1,2,0:0:0:0:
413,359,209804,6,2,L|423:302,1,54,6|0,0:0|0:0,0:0:0:0:
372,244,210147,2,0,P|342:259|298:264,1,67.5000025749208,8|0,0:0|0:0,0:0:0:0:
452,183,210318,2,0,L|513:199,8,33.7500012874604,10|0|0|0|0|0|0|0|10,0:0|0:0|0:0|0:0|0:0|0:0|0:0|0:0|0:0,0:0:0:0:
267,18,210832,2,0,P|300:23|328:42,1,67.5000025749208,8|8,2:2|2:2,0:0:0:0:
442,95,211004,2,0,P|408:100|380:119,1,67.5000025749208,0|0,0:0|0:0,0:0:0:0:
291,262,211175,6,0,P|225:250|107:238,2,135.000005149842,10|8|10,0:0|2:2|0:0,0:0:0:0:
202,356,211689,1,8,2:2:0:0:
413,261,211861,5,10,0:0:0:0:
301,137,212032,1,8,2:1:0:0:
266,155,212118,1,8,2:2:0:0:
227,159,212204,1,10,2:1:0:0:
195,140,212290,1,8,2:2:0:0:
193,150,212375,1,10,2:1:0:0:
191,162,212461,1,8,2:2:0:0:
187,175,212547,6,2,P|126:202|33:198,1,135.000005149842,14|0,2:1|0:0,0:0:0:0:
44,198,212804,2,0,P|94:269|94:324,1,135.000005149842,0|0,0:0|0:0,0:0:0:0:
25,365,213061,2,0,P|57:347|105:335,1,67.5000025749208,2|8,0:0|2:2,0:0:0:0:
190,326,213232,1,10,2:1:0:0:
190,326,213404,1,10,2:1:0:0:
427,375,213575,1,8,0:0:0:0:
344,143,213747,6,2,L|348:197,1,54,2|0,0:0|0:0,0:0:0:0:
314,265,214089,1,10,2:1:0:0:
423,143,214261,2,0,P|455:145|489:154,1,67.5000025749208,8|8,2:2|2:2,0:0:0:0:
266,190,214432,1,2,0:0:0:0:
209,20,214604,2,0,P|144:7|74:31,1,135.000005149842,2|10,0:0|2:1,0:0:0:0:
234,114,214947,2,0,P|145:162|124:210,1,135.000005149842,10|0,1:1|0:0,0:0:0:0:
141,207,215204,1,8,2:2:0:0:
148,222,215289,6,0,L|159:72,1,135.000005149842,2|0,1:0|0:0,0:0:0:0:
45,326,215632,1,8,0:0:0:0:
45,326,215804,1,10,2:1:0:0:
45,326,215889,1,8,2:2:0:0:
305,288,216147,1,8,2:2:0:0:
152,341,216318,1,10,0:0:0:0:
162,315,216404,1,8,0:0:0:0:
187,307,216489,1,8,0:0:0:0:
205,326,216575,1,8,0:0:0:0:
216,344,216661,6,0,L|153:328,1,54,10|0,0:0|0:0,0:0:0:0:
56,214,217004,1,0,0:0:0:0:
60,221,217061,1,0,0:0:0:0:
65,227,217118,1,0,0:0:0:0:
71,232,217175,1,0,0:0:0:0:
78,234,217232,1,0,0:0:0:0:
85,236,217289,1,0,0:0:0:0:
92,234,217347,2,0,B|175:210|175:210|220:223|220:223|317:200,1,180.000006866455,8|0,2:2|0:0,0:0:0:0:
343,153,217689,1,0,0:0:0:0:
343,153,217804,1,0,0:0:0:0:
343,153,217918,1,0,0:0:0:0:
418,207,218032,5,4,0:0:0:0:
256,192,218118,12,0,219747,0:0:0:0:
