osu file format v14

[General]
AudioFilename: audio.mp3
AudioLeadIn: 0
PreviewTime: 62891
Countdown: 0
SampleSet: Drum
StackLeniency: 0.3
Mode: 0
LetterboxInBreaks: 0
WidescreenStoryboard: 1

[Editor]
Bookmarks: 21281,68122,106135
DistanceSpacing: 1
BeatDivisor: 4
GridSize: 4
TimelineZoom: 1.7

[Metadata]
Title:Catadioptric
TitleUnicode:Catadioptric
Artist:Jerico
ArtistUnicode:Jerico
Creator:SaltyLucario
Version:Insane
Source:SOUND VOLTEX II -infinite infection-
Tags:salty saltking metal electronic wub metalstep video game instrumental ジェリコの法則 jerico's law sdvx zun team shanghai alice U.N.オーエンは彼女なのか? u.n. owen wa kanojo nanoka? was her? flandre scarlet フランドール スカーレット 東方紅魔郷 ~ the Embodiment of Scarlet Devil remix song contest 東方紅魔郷リミックス楽曲コンテスト touhou project ~East Side Reincarnation~ ULTIMATE TRACKS - 東方紅魔郷REMIX - Touhou Koumakyou konami bemani reitaisai 11 例大祭11 short version ver.
BeatmapID:2353367
BeatmapSetID:1113188

[Difficulty]
HPDrainRate:5.5
CircleSize:4
OverallDifficulty:7
ApproachRate:8
SliderMultiplier:2.2
SliderTickRate:1

[Events]
//Background and Video events
0,0,"flandre.jpg",0,0
//Break Periods
2,49629,56898
//Storyboard Layer 0 (Background)
//Storyboard Layer 1 (Fail)
//Storyboard Layer 2 (Pass)
//Storyboard Layer 3 (Foreground)
//Storyboard Layer 4 (Overlay)
//Storyboard Sound Samples

[TimingPoints]
1758,410.958904109589,4,3,1,65,1,0
4121,-100,4,3,2,65,0,0
4429,-100,4,3,3,65,0,0
4634,-100,4,3,1,65,0,0
5765,-100,4,3,2,65,0,0
6073,-100,4,3,3,65,0,0
6278,-100,4,3,1,65,0,0
6689,-100,4,3,3,65,0,0
6997,-100,4,3,1,65,0,0
7408,-100,4,3,2,65,0,0
7717,-100,4,3,3,65,0,0
7922,-100,4,3,1,65,0,0
9052,-100,4,3,2,65,0,0
9360,-83.3333333333333,4,3,1,65,0,0
9566,-83.3333333333333,4,3,4,65,0,0
9771,-83.3333333333333,4,3,1,65,0,0
9977,-100,4,3,1,65,0,0
10696,-100,4,3,2,65,0,0
11004,-100,4,3,3,65,0,0
11210,-100,4,3,1,65,0,0
12340,-100,4,3,2,65,0,0
12648,-100,4,3,3,65,0,0
12854,-100,4,3,1,65,0,0
13265,-100,4,3,3,65,0,0
13573,-100,4,3,1,65,0,0
13984,-100,4,3,2,65,0,0
14292,-100,4,3,3,65,0,0
14497,-100,4,3,1,65,0,0
15628,-100,4,3,2,65,0,0
15936,-83.3333333333333,4,3,1,65,0,0
16141,-83.3333333333333,4,3,4,65,0,0
16449,-83.3333333333333,4,3,99,5,0,0
16552,-83.3333333333333,4,3,1,75,0,0
16758,-83.3333333333333,4,3,99,5,0,0
16860,-83.3333333333333,4,3,1,75,0,0
16963,-83.3333333333333,4,3,5,75,0,0
17066,-83.3333333333333,4,3,99,5,0,0
17169,-83.3333333333333,4,3,2,75,0,0
17271,-83.3333333333333,4,3,99,5,0,0
17579,-83.3333333333333,4,3,2,75,0,0
17785,-83.3333333333333,4,3,1,75,0,0
18299,-83.3333333333333,4,3,99,5,0,0
18400,-83.3333333333333,4,3,1,75,0,0
18504,-83.3333333333333,4,3,99,5,0,0
18607,-83.3333333333333,4,3,4,75,0,0
18710,-83.3333333333333,4,3,99,5,0,0
18812,-83.3333333333333,4,3,1,75,0,0
19121,-83.3333333333333,4,3,99,5,0,0
19223,-83.3333333333333,4,3,1,75,0,0
19326,-83.3333333333333,4,3,99,5,0,0
19429,-83.3333333333333,4,3,5,75,0,0
19634,-83.3333333333333,4,3,1,75,0,0
19737,-83.3333333333333,4,3,99,5,0,0
19840,-100,4,3,1,75,0,0
22511,-83.3333333333333,4,3,1,75,0,0
22614,-83.3333333333333,4,3,99,5,0,0
22717,-83.3333333333333,4,3,4,75,0,0
22922,-83.3333333333333,4,3,1,75,0,0
23025,-83.3333333333333,4,3,99,5,0,0
23127,-83.3333333333333,4,3,1,75,0,0
23333,-83.3333333333333,4,3,99,5,0,0
23436,-83.3333333333333,4,3,1,75,0,0
23538,-83.3333333333333,4,3,5,75,0,0
23641,-83.3333333333333,4,3,99,5,0,0
23744,-83.3333333333333,4,3,2,75,0,0
23847,-83.3333333333333,4,3,99,5,0,0
24155,-83.3333333333333,4,3,2,75,0,0
24360,-83.3333333333333,4,3,1,75,0,0
24874,-83.3333333333333,4,3,99,5,0,0
24975,-83.3333333333333,4,3,1,75,0,0
25079,-83.3333333333333,4,3,99,5,0,0
25182,-83.3333333333333,4,3,4,75,0,0
25285,-83.3333333333333,4,3,99,5,0,0
25388,-83.3333333333333,4,3,1,75,0,0
25696,-83.3333333333333,4,3,99,5,0,0
25799,-83.3333333333333,4,3,1,75,0,0
25901,-83.3333333333333,4,3,99,5,0,0
26003,-83.3333333333333,4,3,1,75,0,0
26312,-83.3333333333333,4,3,99,5,0,0
26415,-100,4,3,1,75,0,0
29086,-83.3333333333333,4,3,1,75,0,0
29189,-83.3333333333333,4,3,99,5,0,0
29292,-83.3333333333333,4,3,4,75,0,0
29497,-83.3333333333333,4,3,1,75,0,0
29600,-83.3333333333333,4,3,99,5,0,0
29703,-83.3333333333333,4,3,1,75,0,0
29908,-83.3333333333333,4,3,2,75,0,0
30114,-83.3333333333333,4,3,3,75,0,0
30319,-83.3333333333333,4,3,2,75,0,0
30525,-83.3333333333333,4,3,3,75,0,0
30730,-83.3333333333333,4,3,2,75,0,0
30936,-83.3333333333333,4,3,3,75,0,0
31038,-83.3333333333333,4,3,2,75,0,0
32169,-83.3333333333333,4,3,3,75,0,0
32271,-83.3333333333333,4,3,2,75,0,0
32580,-83.3333333333333,4,3,3,75,0,0
32682,-83.3333333333333,4,3,2,75,0,0
32785,-83.3333333333333,4,3,1,75,0,0
33196,-83.3333333333333,4,3,2,75,0,0
33402,-83.3333333333333,4,3,3,75,0,0
33607,-83.3333333333333,4,3,2,75,0,0
33812,-83.3333333333333,4,3,3,75,0,0
34018,-83.3333333333333,4,3,2,75,0,0
34223,-83.3333333333333,4,3,3,75,0,0
34326,-83.3333333333333,4,3,2,75,0,0
35456,-83.3333333333333,4,3,3,75,0,0
35662,-83.3333333333333,4,3,1,75,0,0
36278,-86.9565217391304,4,3,1,75,0,0
42032,-86.9565217391304,4,3,3,75,0,0
42134,-86.9565217391304,4,3,1,75,0,0
42442,-133.333333333333,4,3,1,75,0,0
42751,-133.333333333333,4,3,99,5,0,0
42853,-95.2380952380952,4,3,1,75,0,0
43675,-125,4,3,3,75,0,0
43881,-125,4,3,99,5,0,0
43984,-125,4,3,3,75,0,0
44189,-125,4,3,99,5,0,0
44292,-125,4,3,3,75,0,0
44394,-125,4,3,99,5,0,0
44497,-95.2380952380952,4,3,1,75,0,0
49429,-95.2380952380952,4,3,2,75,0,0
62580,-95.2380952380952,4,3,1,75,0,0
64223,-86.9565217391304,4,3,1,75,0,1
64429,-86.9565217391304,4,3,99,5,0,1
64531,-86.9565217391304,4,3,1,75,0,1
64737,-86.9565217391304,4,3,99,5,0,1
64840,-86.9565217391304,4,3,1,75,0,1
65045,-76.9230769230769,4,3,1,75,0,1
65353,-76.9230769230769,4,3,99,5,0,1
65456,-76.9230769230769,4,3,2,75,0,1
65764,-76.9230769230769,4,3,99,5,0,1
65866,-76.9230769230769,4,3,2,75,0,1
66175,-76.9230769230769,4,3,99,5,0,1
66278,-76.9230769230769,4,3,1,75,0,1
66997,-76.9230769230769,4,3,99,5,0,1
67100,-86.9565217391304,4,3,1,75,0,1
68847,-86.9565217391304,4,3,99,5,0,1
68949,-86.9565217391304,4,3,1,75,0,1
69052,-86.9565217391304,4,3,99,5,0,1
69154,-86.9565217391304,4,3,1,75,0,1
69257,-86.9565217391304,4,3,99,5,0,1
69360,-86.9565217391304,4,3,1,75,0,1
69463,-86.9565217391304,4,3,99,5,0,1
69566,-86.9565217391304,4,3,1,75,0,1
69668,-86.9565217391304,4,3,99,5,0,1
69771,-86.9565217391304,4,3,1,75,0,1
69977,-76.9230769230769,4,3,4,75,0,1
70079,-76.9230769230769,4,3,99,5,0,1
70182,-86.9565217391304,4,3,1,75,0,1
70490,-86.9565217391304,4,3,99,5,0,1
70593,-86.9565217391304,4,3,1,75,0,1
71004,-86.9565217391304,4,3,99,5,0,1
71107,-86.9565217391304,4,3,1,75,0,1
71312,-86.9565217391304,4,3,99,5,0,1
71415,-86.9565217391304,4,3,1,75,0,1
71621,-76.9230769230769,4,3,1,75,0,1
71929,-76.9230769230769,4,3,99,5,0,1
72032,-76.9230769230769,4,3,2,75,0,1
72340,-76.9230769230769,4,3,99,5,0,1
72442,-76.9230769230769,4,3,2,75,0,1
72751,-76.9230769230769,4,3,99,5,0,1
72854,-76.9230769230769,4,3,1,75,0,1
73573,-76.9230769230769,4,3,99,5,0,1
73675,-86.9565217391304,4,3,1,75,0,1
75422,-86.9565217391304,4,3,99,5,0,1
75525,-86.9565217391304,4,3,1,75,0,1
75627,-86.9565217391304,4,3,99,5,0,1
75730,-100,4,3,1,75,0,1
76038,-100,4,3,99,5,0,1
76141,-100,4,3,1,75,0,1
77374,-86.9565217391304,4,3,1,75,0,1
77579,-86.9565217391304,4,3,99,5,0,1
77682,-86.9565217391304,4,3,1,75,0,1
77887,-86.9565217391304,4,3,99,5,0,1
77990,-86.9565217391304,4,3,1,75,0,1
78196,-76.9230769230769,4,3,1,75,0,1
78503,-76.9230769230769,4,3,99,5,0,1
78607,-76.9230769230769,4,3,2,75,0,1
78914,-76.9230769230769,4,3,99,5,0,1
79017,-76.9230769230769,4,3,2,75,0,1
79325,-76.9230769230769,4,3,99,5,0,1
79429,-76.9230769230769,4,3,1,75,0,1
80147,-76.9230769230769,4,3,99,5,0,1
80251,-86.9565217391304,4,3,1,75,0,1
81997,-86.9565217391304,4,3,99,5,0,1
82100,-86.9565217391304,4,3,1,75,0,1
82202,-86.9565217391304,4,3,99,5,0,1
82305,-86.9565217391304,4,3,1,75,0,1
82407,-86.9565217391304,4,3,99,5,0,1
82511,-86.9565217391304,4,3,1,75,0,1
82613,-86.9565217391304,4,3,99,5,0,1
82716,-86.9565217391304,4,3,1,75,0,1
82818,-86.9565217391304,4,3,99,5,0,1
82922,-86.9565217391304,4,3,1,75,0,1
83127,-76.9230769230769,4,3,4,75,0,1
83229,-76.9230769230769,4,3,99,5,0,1
83333,-86.9565217391304,4,3,1,75,0,1
83640,-86.9565217391304,4,3,99,5,0,1
83744,-86.9565217391304,4,3,1,75,0,1
84154,-86.9565217391304,4,3,99,5,0,1
84257,-86.9565217391304,4,3,1,75,0,1
84462,-86.9565217391304,4,3,99,5,0,1
84566,-86.9565217391304,4,3,1,75,0,1
84771,-76.9230769230769,4,3,1,75,0,1
85079,-76.9230769230769,4,3,99,5,0,1
85182,-76.9230769230769,4,3,2,75,0,1
85490,-76.9230769230769,4,3,99,5,0,1
85592,-76.9230769230769,4,3,2,75,0,1
85901,-76.9230769230769,4,3,99,5,0,1
86004,-76.9230769230769,4,3,1,75,0,1
86723,-76.9230769230769,4,3,99,5,0,1
86826,-86.9565217391304,4,3,1,75,0,1
88572,-86.9565217391304,4,3,99,5,0,1
88675,-86.9565217391304,4,3,1,75,0,1
88777,-86.9565217391304,4,3,99,5,0,1
88881,-100,4,3,1,75,0,1
89188,-100,4,3,99,5,0,1
89292,-100,4,3,1,75,0,1
90525,-111.111111111111,4,3,1,60,0,0
90936,-111.111111111111,4,3,2,60,0,0
100388,-111.111111111111,4,3,1,60,0,0
100799,-111.111111111111,4,3,2,60,0,0
106141,-111.111111111111,4,3,1,60,0,0
108607,-125,4,3,99,5,0,0

[Colours]
Combo1 : 225,26,175
Combo2 : 231,35,7
Combo3 : 255,136,17
Combo4 : 255,255,0
Combo5 : 95,247,51
Combo6 : 20,248,163
Combo7 : 83,156,230
Combo8 : 92,79,213

[HitObjects]
44,338,2990,6,0,L|40:301,5,36.6666666666667,0|0|0|0|0|0,1:0|1:0|1:0|1:0|1:0|1:0,0:0:0:0:
55,255,3401,6,0,B|134:231|134:231|228:275,1,165,2|0,1:2|1:0,0:0:0:0:
178,335,3812,2,0,L|118:303,1,55,8|0,0:2|0:0,0:0:0:0:
37,186,4018,6,0,B|142:154|142:154|267:212,1,220,2|0,1:2|2:0,0:0:0:0:
403,272,4634,1,8,0:2:0:0:
403,272,4737,1,0,0:0:0:0:
403,272,4840,2,0,L|388:193,1,55,0|0,1:0|0:0,0:0:0:0:
460,73,5045,6,0,B|409:138|409:138|288:132,1,165,2|0,1:2|1:0,0:0:0:0:
320,60,5456,2,0,L|387:64,1,55,8|0,0:2|0:0,0:0:0:0:
512,129,5662,6,0,B|444:216|444:216|283:208,1,220,2|0,1:2|2:0,0:0:0:0:
200,360,6278,2,0,B|212:327|241:316|241:316|185:277|206:196,1,165,10|0,0:2|0:0,0:0:0:0:
210,178,6689,6,0,B|132:198|132:198|47:157,1,165,2|0,2:2|1:0,0:0:0:0:
90,93,7100,2,0,L|171:135,1,55,8|0,0:2|0:0,0:0:0:0:
228,248,7305,6,0,B|124:274|124:274|10:220,1,220,2|0,1:2|2:0,0:0:0:0:
218,347,7922,1,8,0:2:0:0:
218,347,8025,1,0,0:0:0:0:
218,347,8127,2,0,L|311:324,1,55,0|0,1:0|0:0,0:0:0:0:
428,339,8333,6,0,B|368:284|368:284|386:175,1,165,2|0,1:2|1:0,0:0:0:0:
456,201,8744,2,0,L|446:263,1,55,8|0,0:2|0:0,0:0:0:0:
350,366,8949,6,0,B|290:311|290:311|308:202,1,165,2|0,1:2|1:0,0:0:0:0:
319,155,9360,6,0,B|280:134|275:169|209:147,1,65.9999979858399,2|0,1:1|0:0,0:0:0:0:
104,35,9566,2,0,B|163:103|189:-25|226:68|249:110|279:33,1,197.99999395752,10|0,0:2|0:0,0:0:0:0:
187,132,9977,6,0,B|141:199|141:199|18:191,1,165,6|0,1:2|1:0,0:0:0:0:
51,119,10388,2,0,L|130:124,1,55,8|0,0:2|0:0,0:0:0:0:
238,187,10593,6,0,B|178:273|178:273|20:263,1,220,2|0,1:2|2:0,0:0:0:0:
296,296,11210,1,8,0:2:0:0:
296,296,11312,1,0,0:0:0:0:
296,296,11415,2,0,L|380:306,1,55,0|0,1:0|0:0,0:0:0:0:
501,168,11621,6,0,B|417:159|417:159|371:225,1,165,2|0,1:2|1:0,0:0:0:0:
426,286,12031,2,0,L|468:219,1,55,8|0,0:2|0:0,0:0:0:0:
494,93,12237,6,0,B|382:81|382:81|321:169,1,220,2|0,1:2|2:0,0:0:0:0:
167,36,12853,2,0,B|200:43|233:18|233:18|221:107|284:121,1,165,10|0,0:2|0:0,0:0:0:0:
234,151,13264,6,0,B|160:189|160:189|82:163,1,165,2|0,2:2|1:0,0:0:0:0:
102,92,13675,2,0,L|173:117,1,55,8|0,0:2|0:0,0:0:0:0:
264,217,13881,6,0,B|165:267|165:267|62:233,1,220,2|0,1:2|2:0,0:0:0:0:
188,358,14497,1,8,0:2:0:0:
188,358,14600,1,0,0:0:0:0:
188,358,14703,2,0,L|281:309,1,55,0|0,1:0|0:0,0:0:0:0:
340,202,14908,6,0,L|321:389,1,165,6|0,1:2|1:0,0:0:0:0:
402,384,15319,2,0,L|409:318,1,55,8|0,0:2|0:0,0:0:0:0:
257,183,15525,6,0,L|238:370,1,165,6|0,1:2|1:0,0:0:0:0:
163,374,15936,6,0,B|172:357|121:332|175:294,1,65.9999979858399,2|0,1:1|0:0,0:0:0:0:
68,171,16141,2,0,B|53:234|138:257|87:172|76:338|74:366|45:286|99:394|84:390,1,197.99999395752,10|0,0:2|0:0,0:0:0:0:
155,312,16552,6,0,B|167:251|167:251|177:247|177:247|186:182|186:182|176:175|176:175|186:105,1,197.99999395752,0|0,1:0|1:0,0:0:0:0:
196,53,16963,2,0,B|148:38|171:89|76:23,1,65.9999979858399,10|0,0:2|0:0,0:0:0:0:
264,182,17168,2,0,B|312:167|289:218|384:152,1,65.9999979858399,2|0,1:1|0:0,0:0:0:0:
328,183,17579,6,0,B|346:169|346:169|348:223,1,65.9999979858399,0|0,1:0|0:0,0:0:0:0:
269,332,17785,2,0,B|343:278|349:353|394:298,1,131.99999597168,8|0,0:2|1:0,0:0:0:0:
507,174,18196,5,4,1:2:0:0:
336,105,18401,2,0,B|344:138|344:138|340:145|340:145|354:209,1,65.9999979858399,2|0,0:1|0:0,0:0:0:0:
480,70,18607,2,0,B|447:60|447:60|443:53|443:53|380:33,1,65.9999979858399,10|0,0:2|0:0,0:0:0:0:
450,205,18812,2,0,B|475:182|475:182|499:180,3,43.9999986572266,2|2|2|2,1:1|0:1|0:1|0:1,0:0:0:0:
336,105,19223,6,0,B|323:93|323:93|332:31,1,65.9999979858399,2|0,1:2|0:0,0:0:0:0:
249,170,19429,2,0,B|269:190|269:190|286:235|312:228|312:228|276:280|333:312|287:357|287:357,1,197.99999395752,10|0,0:2|0:0,0:0:0:0:
221,369,19840,6,0,L|211:231,1,110,4|0,1:2|0:0,0:0:0:0:
176,191,20148,1,0,1:0:0:0:
176,191,20251,1,8,0:2:0:0:
92,296,20456,2,0,B|100:238|100:238|76:148,1,110,0|0,1:0|0:0,0:0:0:0:
101,62,20867,1,0,1:0:0:0:
176,191,21073,1,8,0:2:0:0:
18,118,21278,1,0,1:0:0:0:
186,63,21484,6,0,B|240:39|240:39|314:56,1,110,0|0,1:0|0:0,0:0:0:0:
372,78,21792,1,0,1:0:0:0:
372,78,21894,1,8,0:2:0:0:
316,229,22100,2,0,B|286:182|286:182|313:119,1,110,0|0,1:0|0:0,0:0:0:0:
462,183,22511,6,0,B|461:219|432:144|350:203|347:195,1,65.9999979858399,2|0,1:1|0:0,0:0:0:0:
299,301,22716,2,0,B|429:328|322:177|427:292|522:284|423:288,1,197.99999395752,10|0,0:2|0:0,0:0:0:0:
403,377,23127,6,0,B|390:368|390:368|327:375|327:375|324:382|324:382|272:385|272:385|260:377|260:377|194:382,1,197.99999395752,0|0,1:0|1:0,0:0:0:0:
139,380,23538,2,0,B|131:301|178:365|161:264,1,65.9999979858399,10|0,0:2|0:0,0:0:0:0:
80,197,23744,2,0,B|72:276|119:212|102:313,1,65.9999979858399,2|0,1:1|0:0,0:0:0:0:
101,254,24155,6,0,B|144:232|144:232|137:280,1,65.9999979858399,0|0,1:0|0:0,0:0:0:0:
288,201,24360,2,0,B|182:231|236:157|160:165,1,131.99999597168,8|0,0:2|1:0,0:0:0:0:
38,153,24771,5,4,1:2:0:0:
188,35,24977,2,0,B|191:56|191:56|197:61|197:61|207:118,1,65.9999979858399,2|0,0:1|0:0,0:0:0:0:
35,59,25182,2,0,B|51:45|51:45|53:38|53:38|97:1,1,65.9999979858399,10|0,0:2|0:0,0:0:0:0:
113,182,25388,2,0,B|94:171|94:171|87:172|87:172|36:144,3,43.9999986572266,2|2|2|2,1:1|0:1|0:1|0:1,0:0:0:0:
108,305,25798,6,0,B|120:292|120:292|182:301,1,65.9999979858399,2|0,1:2|0:0,0:0:0:0:
298,373,26004,2,0,B|291:330|253:340|253:340|225:305|245:240|308:263|206:203,1,197.99999395752,10|0,0:2|0:0,0:0:0:0:
198,152,26415,6,0,L|319:157,1,110,4|0,1:2|0:0,0:0:0:0:
378,132,26723,1,0,1:0:0:0:
378,132,26826,1,8,0:2:0:0:
241,73,27031,2,0,B|298:74|298:74|362:48,1,110,0|0,1:0|0:0,0:0:0:0:
512,78,27442,1,0,1:0:0:0:
378,132,27648,1,8,0:2:0:0:
446,5,27853,1,0,1:0:0:0:
481,171,28059,6,0,B|496:230|496:230|456:307,1,110,0|0,1:0|0:0,0:0:0:0:
433,334,28367,1,0,1:0:0:0:
433,334,28470,1,8,0:2:0:0:
321,250,28675,2,0,B|348:200|348:200|418:202,1,110,0|0,1:0|0:0,0:0:0:0:
319,351,29086,6,0,B|288:363|257:289|217:380,1,65.9999979858399,2|0,1:1|0:0,0:0:0:0:
123,384,29292,2,0,B|185:283|157:377|68:290|176:284|144:184,1,197.99999395752,10|0,0:2|0:0,0:0:0:0:
212,137,29703,6,0,L|42:128,1,131.99999597168,4|8,1:2|2:2,0:0:0:0:
252,284,30114,2,0,L|426:276,1,131.99999597168,0|8,2:0|2:2,0:0:0:0:
430,275,30422,1,0,1:0:0:0:
430,275,30525,2,0,P|423:200|447:136,1,131.99999597168,0|8,2:0|2:2,0:0:0:0:
328,15,30936,1,0,2:0:0:0:
335,60,31038,1,0,2:0:0:0:
312,100,31141,1,8,2:2:0:0:
121,57,31347,6,0,B|196:65|196:65|272:42,1,131.99999597168,0|8,1:0|2:2,0:0:0:0:
147,174,31758,1,0,1:0:0:0:
102,162,31860,1,0,2:0:0:0:
56,171,31963,1,8,2:2:0:0:
109,326,32168,2,0,L|106:233,2,65.9999979858399,0|0|8,2:0|1:0|2:2,0:0:0:0:
225,173,32579,1,0,2:0:0:0:
214,217,32682,1,0,2:0:0:0:
228,261,32785,1,8,0:2:0:0:
353,352,32990,6,0,L|361:212,1,131.99999597168,4|8,1:2|2:2,0:0:0:0:
495,57,33401,2,0,L|502:188,1,131.99999597168,0|8,2:0|2:2,0:0:0:0:
506,234,33710,1,0,1:0:0:0:
506,234,33812,2,0,P|396:188|363:197,1,131.99999597168,0|8,2:0|2:2,0:0:0:0:
262,327,34223,1,0,2:0:0:0:
296,296,34326,1,0,2:0:0:0:
305,250,34429,1,8,2:2:0:0:
104,262,34634,6,0,B|168:240|168:240|255:266,1,131.99999597168,0|8,1:0|2:2,0:0:0:0:
323,115,35045,1,0,1:0:0:0:
277,123,35148,1,0,2:0:0:0:
231,116,35251,1,8,2:2:0:0:
35,57,35456,5,4,2:2:0:0:
137,172,35662,2,0,L|141:128,5,43.9999986572266,8|0|0|0|0|0,1:2|1:0|1:0|1:0|1:0|1:0,0:0:0:0:
100,197,36073,2,0,L|106:287,1,65.9999979858399,0|0,1:0|1:0,0:0:0:0:
232,350,36278,5,6,1:2:0:0:
238,304,36381,1,0,0:0:0:0:
244,258,36484,2,0,L|231:129,1,126.500002412796,8|0,0:2|1:0,0:0:0:0:
341,329,36894,1,10,0:2:0:0:
347,283,36997,1,0,0:0:0:0:
353,237,37100,2,0,L|340:108,1,126.500002412796,0|8,1:0|0:2,0:0:0:0:
490,39,37511,1,0,1:0:0:0:
436,197,37716,1,8,0:2:0:0:
331,35,37922,5,2,1:2:0:0:
287,43,38025,1,0,0:0:0:0:
243,50,38127,2,0,L|100:28,1,126.500002412796,8|0,0:2|1:0,0:0:0:0:
45,176,38538,1,8,0:2:0:0:
200,144,38744,1,0,1:0:0:0:
200,144,38847,1,0,0:0:0:0:
200,144,38949,2,0,L|193:224,1,63.250001206398,8|0,0:2|0:0,0:0:0:0:
321,148,39155,2,0,L|315:84,1,63.250001206398,0|0,1:2|0:0,0:0:0:0:
246,295,39360,1,8,0:2:0:0:
403,207,39566,5,6,1:2:0:0:
361,221,39668,1,0,0:0:0:0:
319,231,39771,2,0,L|182:205,1,126.500002412796,8|0,0:2|1:0,0:0:0:0:
391,308,40182,1,10,0:2:0:0:
349,322,40285,1,0,0:0:0:0:
307,332,40388,2,0,L|170:306,1,126.500002412796,0|8,1:0|0:2,0:0:0:0:
0,263,40799,1,0,1:0:0:0:
191,197,41004,1,8,0:2:0:0:
94,45,41210,5,2,1:2:0:0:
79,86,41312,1,0,0:0:0:0:
63,127,41415,2,0,L|90:283,1,126.500002412796,8|0,0:2|1:0,0:0:0:0:
194,384,41826,1,8,0:2:0:0:
253,210,42031,5,0,2:0:0:0:
253,210,42134,1,0,1:0:0:0:
253,210,42237,2,0,L|171:221,1,63.250001206398,8|0,0:2|0:0,0:0:0:0:
240,102,42442,6,0,B|287:97|287:97|316:115|316:115|394:110,1,123.750004720688,4|0,1:2|0:0,0:0:0:0:
419,36,42853,6,0,B|432:77|432:77|429:84|429:84|441:132|441:132|451:137|451:137|454:149|454:149|418:171|418:171|409:167|409:167|374:187|374:187|370:231|370:231|376:241|376:241|367:318|367:318|359:324|359:324|361:365,1,346.49998942566,4|8,1:2|0:2,0:0:0:0:
208,296,43675,6,0,L|331:269,1,88,0|0,2:0|0:0,0:0:0:0:
227,216,43984,2,0,L|142:122,1,88,0|0,2:0|0:0,0:0:0:0:
146,237,44292,2,0,L|119:316,1,44,0|0,2:0|0:0,0:0:0:0:
96,361,44497,6,0,B|73:344|73:344|61:346|61:346|31:319|31:319|36:305|36:305|35:296|35:296|53:234|53:234|63:228|63:228|72:204|72:204|67:170|67:170|58:165|58:165|51:131|51:131|57:122|57:122|41:42,1,346.49998942566,4|8,1:2|0:2,0:0:0:0:
256,192,45319,5,4,1:2:0:0:
256,192,45422,12,0,49429,2:0:0:0:
256,192,57648,12,4,62579,1:2:0:0:
57,72,64223,6,0,B|87:66|87:66|90:57|90:57|101:63|101:63|130:57|130:57|158:69|158:69|217:60,1,126.500002412796,4|0,1:2|0:0,0:0:0:0:
254,54,64531,2,0,B|244:82|244:82|250:90|250:90|239:96|239:96|230:124|230:124|206:142|206:142|184:198,1,126.500002412796,0|0,1:0|0:0,0:0:0:0:
166,224,64840,1,0,1:0:0:0:
353,300,65045,6,0,B|346:262|346:262|352:255|352:255|343:250|343:250|336:220|336:220|306:212|306:212|305:205|305:205|300:211|300:211|263:205|263:205|233:239|233:239|167:225,1,285.99998690796,8|0,0:2|2:0,0:0:0:0:
437,254,65867,2,0,B|427:210|427:210|433:201|433:201|423:196|423:196|415:157|415:157|371:141|371:141|373:113|373:113|366:105|366:105|375:100|375:100|382:42,1,214.49999018097,0|0,1:0|0:0,0:0:0:0:
403,16,66278,5,2,0:2:0:0:
366,13,66381,1,2,0:2:0:0:
319,40,66484,5,2,0:2:0:0:
282,37,66586,1,2,0:2:0:0:
238,68,66689,6,0,B|230:243|296:86|251:304,1,214.49999018097,12|0,0:2|0:0,0:0:0:0:
183,272,67100,2,0,B|209:157|165:251|167:135,1,126.500002412796,0|0,0:0|1:0,0:0:0:0:
163,77,67408,1,0,1:0:0:0:
163,77,67511,6,0,B|164:57|164:57|110:69|53:134|53:134|61:74,2,189.750003619194,0|0|0,1:0|1:0|1:0,0:0:0:0:
100,213,68333,6,0,B|74:235|71:267|71:267|60:271|60:271|71:274|71:274|71:314|115:340,1,126.500002412796,10|0,0:2|0:0,0:0:0:0:
150,350,68641,1,0,0:0:0:0:
150,350,68744,1,0,0:0:0:0:
189,201,68949,1,0,0:0:0:0:
296,309,69155,6,0,B|289:299|289:299|349:312,1,63.250001206398,2|0,1:2|0:0,0:0:0:0:
367,188,69360,2,0,B|379:186|379:186|337:232,1,63.250001206398
440,311,69566,2,0,B|434:322|434:322|416:263,1,63.250001206398,2|0,1:2|0:0,0:0:0:0:
462,162,69771,1,0,0:0:0:0:
452,145,69874,1,0,0:0:0:0:
441,125,69977,6,0,B|385:127|385:43|366:176,1,71.4999967269899,10|0,0:2|0:0,0:0:0:0:
274,192,70182,2,0,B|210:152|151:200|161:279|80:124|167:185|182:108|33:236|125:207|23:200,1,253.000004825592,2|0,1:1|1:0,0:0:0:0:
128,269,70696,1,0,1:0:0:0:
128,269,70799,6,0,B|152:315|152:315|174:321|174:321|180:312|180:312|181:322|181:322|198:328|198:328|222:369,1,126.500002412796,4|0,1:2|0:0,0:0:0:0:
270,384,71107,2,0,B|297:339|297:339|291:317|291:317|281:316|281:316|289:310|289:310|286:292|286:292|309:252,1,126.500002412796,0|0,1:0|0:0,0:0:0:0:
341,212,71415,1,0,1:0:0:0:
470,88,71621,6,0,B|442:84|442:84|437:76|437:76|432:82|432:82|404:80|404:80|385:125|385:125|410:161|410:161|401:181|401:181|408:190|408:190|398:189|398:189|384:218|384:218|320:210,1,285.99998690796,8|0,0:2|2:0,0:0:0:0:
193,31,72442,2,0,B|232:25|232:25|235:14|235:14|242:23|242:23|283:17|283:17|301:36|301:36|311:34|311:34|307:43|307:43|327:64|327:64|301:131,1,214.49999018097,0|0,1:0|0:0,0:0:0:0:
239,113,72853,5,2,0:2:0:0:
203,118,72956,1,2,0:2:0:0:
152,100,73059,5,2,0:2:0:0:
116,105,73162,1,2,0:2:0:0:
65,94,73264,6,0,B|134:182|27:242|108:175|88:362,1,214.49999018097,12|0,0:2|0:0,0:0:0:0:
161,264,73675,2,0,B|173:196|119:240|184:195|157:130,1,126.500002412796,0|0,0:0|1:0,0:0:0:0:
237,104,73984,1,0,1:0:0:0:
237,104,74086,6,0,B|260:88|260:88|255:167|240:217|240:217|273:190,2,189.750003619194,0|0|0,1:0|1:0|1:0,0:0:0:0:
353,222,74908,2,0,B|371:249|403:253|403:253|404:265|404:265|407:253|407:253|446:254|483:210,1,126.500002412796,10|0,0:2|0:0,0:0:0:0:
499,185,75216,1,0,0:0:0:0:
499,185,75319,1,0,0:0:0:0:
470,332,75525,1,0,0:0:0:0:
413,179,75730,6,0,B|411:145|423:128|423:128|419:119|419:119|428:122|428:122|439:107|461:96|461:96|404:32,1,165,0|0,1:0|0:0,0:0:0:0:
343,61,76141,2,0,L|330:155,2,73.3333333333333,2|2|2,0:2|0:2|0:2,0:0:0:0:
283,2,76552,1,8,0:2:0:0:
257,146,76758,2,0,L|261:215,8,36.6666666666667,0|0|0|0|0|0|0|0|0,1:0|0:0|0:0|0:0|0:0|0:0|1:0|0:0|0:0,0:0:0:0:
300,213,77374,6,0,B|331:199|331:199|354:208|354:208|361:205|361:205|366:212|366:212|378:218|378:218|381:226|381:226|390:222|390:222|453:253|453:253,1,126.500002412796,4|0,1:2|0:0,0:0:0:0:
478,241,77682,2,0,B|474:274|474:274|455:290|455:290|454:297|454:297|445:298|445:298|434:306|434:306|426:304|426:304|425:314|425:314|366:353|366:353,1,126.500002412796,0|0,1:0|0:0,0:0:0:0:
345,363,77990,1,0,1:0:0:0:
143,322,78196,6,0,B|152:323|152:323|157:318|157:318|163:323|163:323|186:323|186:323|207:288|207:288|253:289|253:289|260:296|260:296|264:289|264:289|319:292|319:292|330:323|330:323|328:332|328:332|336:336|336:336|345:363,1,285.99998690796,8|0,0:2|2:0,0:0:0:0:
62,347,79018,2,0,B|69:298|69:298|58:293|58:293|70:288|70:288|74:256|74:256|133:246|133:246|135:226|135:226|141:220|141:220|137:213|137:213|145:147,1,214.49999018097,0|0,1:0|0:0,0:0:0:0:
69,177,79429,5,2,0:2:0:0:
59,142,79531,1,2,0:2:0:0:
78,94,79634,5,2,0:2:0:0:
68,59,79737,1,2,0:2:0:0:
95,16,79840,6,0,B|257:23|187:79|197:66|331:48,1,214.49999018097,12|0,0:2|0:0,0:0:0:0:
258,135,80251,2,0,B|208:141|156:144|204:112|140:107,1,126.500002412796,0|0,0:0|1:0,0:0:0:0:
133,192,80559,1,0,1:0:0:0:
133,192,80662,6,0,B|118:215|118:215|174:212|254:232|254:232|226:184,2,189.750003619194,0|0|0,1:0|1:0|1:0,0:0:0:0:
299,107,81484,2,0,B|323:126|352:123|352:123|355:135|355:135|358:122|358:122|391:118|415:78,1,126.500002412796,10|0,0:2|0:0,0:0:0:0:
422,24,81792,1,0,0:0:0:0:
422,24,81894,1,0,0:0:0:0:
274,34,82100,1,0,0:0:0:0:
424,174,82305,6,0,B|474:258|430:214|430:214,1,63.250001206398,2|0,1:2|0:0,0:0:0:0:
323,263,82511,2,0,B|371:179|354:238|354:238,1,63.250001206398
453,306,82716,2,0,B|356:306|415:291|415:291,1,63.250001206398,2|0,1:2|0:0,0:0:0:0:
248,249,82922,1,0,0:0:0:0:
241,265,83025,1,0,0:0:0:0:
236,281,83127,6,0,B|232:293|195:327|253:369,1,71.4999967269899,10|0,0:2|0:0,0:0:0:0:
82,271,83333,2,0,B|115:153|16:246|103:147|119:326|154:72|38:141|99:41,1,253.000004825592,2|0,1:1|1:0,0:0:0:0:
164,90,83847,1,0,1:0:0:0:
164,90,83949,6,0,B|194:87|194:87|200:97|200:97|204:87|204:87|224:86|224:86|238:66|238:66|305:63,1,126.500002412796,4|0,1:2|0:0,0:0:0:0:
333,99,84258,2,0,B|320:126|320:126|308:126|308:126|315:135|315:135|306:152|306:152|316:175|316:175|285:234,1,126.500002412796,0|0,1:0|0:0,0:0:0:0:
237,238,84566,1,0,1:0:0:0:
421,196,84771,6,0,B|389:197|389:197|372:229|372:229|378:240|378:240|367:237|367:237|343:275|343:275|315:275|315:275|311:290|311:290|307:275|307:275|258:274|258:274|224:217,1,285.99998690796,8|0,0:2|0:0,0:0:0:0:
473,253,85593,2,0,B|488:221|488:221|499:219|499:219|493:209|493:209|503:184|503:184|471:124|471:124|449:124|449:124|442:114|442:114|435:123|435:123|379:121|379:121,1,214.49999018097,0|0,1:0|0:0,0:0:0:0:
346,133,86004,5,2,0:2:0:0:
313,118,86107,1,2,0:2:0:0:
300,68,86210,5,2,0:2:0:0:
267,53,86312,1,2,0:2:0:0:
244,4,86415,6,0,B|151:71|122:60|176:13|103:28|139:50|44:50|14:17,1,214.49999018097,12|0,0:2|0:0,0:0:0:0:
60,110,86826,2,0,B|60:120|123:120|99:106|148:96|112:127|131:134|198:113,1,126.500002412796,0|0,0:0|1:0,0:0:0:0:
251,93,87134,1,0,1:0:0:0:
251,93,87237,6,0,B|275:73|275:73|278:137|251:203|251:203|242:180,2,189.750003619194,0|0|0,1:0|1:0|1:0,0:0:0:0:
449,146,88059,2,0,B|428:168|402:170|402:170|399:181|399:181|396:170|396:170|363:170|339:145,1,126.500002412796,10|0,0:2|0:0,0:0:0:0:
393,94,88367,1,0,0:0:0:0:
393,94,88470,1,0,0:0:0:0:
472,231,88675,1,0,0:0:0:0:
323,230,88881,6,0,B|278:228|278:228|297:254|292:288|292:288|300:298|300:298|290:298|290:298|281:324|235:352,1,165,0|0,1:0|0:0,0:0:0:0:
211,274,89292,2,0,L|117:288,2,73.3333333333333,2|2|2,0:2|0:2|0:2,0:0:0:0:
208,186,89703,1,8,0:2:0:0:
66,208,89908,2,0,L|23:205,8,36.6666666666667,0|0|0|0|0|0|0|0|0,1:0|0:0|0:0|0:0|0:0|0:0|1:0|0:0|0:0,0:0:0:0:
105,176,90525,6,0,L|96:35,1,131.99999597168,4|0,1:2|0:0,0:0:0:0:
227,30,90936,2,0,B|171:-5|212:137|212:137,1,131.99999597168,0|0,2:0|0:0,0:0:0:0:
189,223,91347,2,0,B|273:244|248:188|248:188,1,65.9999979858399,0|0,1:0|0:0,0:0:0:0:
297,144,91621,1,0,0:0:0:0:
357,207,91758,2,0,B|417:204|353:63|353:63,1,131.99999597168
476,32,92168,6,0,L|466:165,1,131.99999597168,0|0,1:0|0:0,0:0:0:0:
497,276,92579,2,0,B|553:226|466:235|396:275|396:275,1,131.99999597168,0|0,2:0|0:0,0:0:0:0:
339,338,92990,2,0,L|324:230,1,65.9999979858399,0|0,1:0|0:0,0:0:0:0:
237,344,93299,2,0,B|220:393|159:408|177:325|222:228|222:228,1,197.99999395752,0|0,1:0|0:0,0:0:0:0:
241,196,93812,6,0,L|91:216,1,131.99999597168,0|0,1:0|0:0,0:0:0:0:
23,140,94223,2,0,B|-11:77|146:126|146:126,1,131.99999597168,0|0,2:0|0:0,0:0:0:0:
212,114,94634,2,0,L|195:34,2,65.9999979858399,0|0|0,1:0|0:0|0:0,0:0:0:0:
310,106,95045,2,0,B|301:263|257:190|257:190,1,131.99999597168
200,269,95456,6,0,L|220:359,2,65.9999979858399,0|0|0,1:0|0:0|0:0,0:0:0:0:
299,291,95867,2,0,B|359:339|448:327|372:295|372:295,1,131.99999597168,0|0,2:0|0:0,0:0:0:0:
370,208,96278,2,0,L|522:194,1,131.99999597168,0|0,1:0|0:0,0:0:0:0:
459,111,96689,2,0,B|363:103|403:134|403:134,2,65.9999979858399,0|0|0,1:0|0:0|0:0,0:0:0:0:
416,32,97100,6,0,L|265:26,1,131.99999597168,0|0,1:0|0:0,0:0:0:0:
200,30,97511,2,0,B|200:203|239:76|239:76,1,131.99999597168,0|0,2:0|0:0,0:0:0:0:
117,119,97922,2,0,L|107:53,2,65.9999979858399,0|0|0,1:0|0:0|0:0,0:0:0:0:
156,205,98333,2,0,B|228:141|158:322|158:322,1,131.99999597168
133,361,98744,6,0,B|203:394|204:350|204:350,1,65.9999979858399,0|0,1:0|0:0,0:0:0:0:
256,301,99018,1,0,0:0:0:0:
320,361,99155,2,0,B|386:371|340:229|340:229,1,131.99999597168,0|0,2:0|0:0,0:0:0:0:
304,184,99566,2,0,B|360:153|381:192|381:192|371:201,1,65.9999979858399,0|0,1:0|0:0,0:0:0:0:
432,231,99840,1,0,0:0:0:0:
456,144,99977,2,0,B|476:30|432:74|432:74,1,98.9999969787599,0|0,0:0|1:0,0:0:0:0:
239,108,100388,6,0,L|231:13,2,65.9999979858399,4|0|0,1:2|0:0|0:0,0:0:0:0:
175,177,100799,2,0,B|173:264|234:225|198:301,1,131.99999597168,0|0,2:0|0:0,0:0:0:0:
113,356,101210,2,0,L|116:267,1,65.9999979858399,0|0,1:0|0:0,0:0:0:0:
74,230,101484,1,0,0:0:0:0:
74,230,101621,2,0,B|30:186|118:183|65:90,1,131.99999597168
17,35,102031,6,0,L|196:35,1,131.99999597168,0|0,1:0|0:0,0:0:0:0:
218,79,102442,2,0,B|244:53|213:47|241:-20,1,65.9999979858399,0|0,2:0|0:0,0:0:0:0:
304,44,102716,1,0,0:0:0:0:
304,44,102853,2,0,L|314:214,1,131.99999597168,0|0,1:0|0:0,0:0:0:0:
395,192,103264,2,0,B|431:167|455:217|483:139,2,65.9999979858399,0|0|0,1:0|0:0|0:0,0:0:0:0:
386,277,103675,6,0,L|367:360,1,65.9999979858399,0|0,1:0|0:0,0:0:0:0:
298,310,103949,1,0,0:0:0:0:
298,310,104086,2,0,B|244:248|205:355|131:272,1,131.99999597168,0|0,2:0|0:0,0:0:0:0:
106,265,104497,2,0,L|25:283,2,65.9999979858399,0|0|0,1:0|0:0|0:0,0:0:0:0:
184,217,104908,2,0,B|124:147|122:220|20:159,1,131.99999597168
26,113,105319,6,0,B|42:78|96:132|131:78,1,65.9999979858399,0|0,1:0|0:0,0:0:0:0:
145,45,105593,1,0,0:0:0:0:
190,112,105730,2,0,B|268:72|168:4|321:2,1,131.99999597168,0|0,2:0|0:0,0:0:0:0:
316,84,106141,5,4,1:2:0:0:
256,192,106244,12,0,108607,0:0:0:0:
