osu file format v14

[General]
AudioFilename: audio.mp3
AudioLeadIn: 0
PreviewTime: 62891
Countdown: 0
SampleSet: Drum
StackLeniency: 0.3
Mode: 0
LetterboxInBreaks: 0
WidescreenStoryboard: 1

[Editor]
Bookmarks: 21281,68122,106135
DistanceSpacing: 1.3
BeatDivisor: 4
GridSize: 4
TimelineZoom: 1.6

[Metadata]
Title:Catadioptric
TitleUnicode:Catadioptric
Artist:Jerico
ArtistUnicode:Jerico
Creator:SaltyLucario
Version:Hard
Source:SOUND VOLTEX II -infinite infection-
Tags:salty saltking metal electronic wub metalstep video game instrumental ジェリコの法則 jerico's law sdvx zun team shanghai alice U.N.オーエンは彼女なのか? u.n. owen wa kanojo nanoka? was her? flandre scarlet フランドール スカーレット 東方紅魔郷 ~ the Embodiment of Scarlet Devil remix song contest 東方紅魔郷リミックス楽曲コンテスト touhou project ~East Side Reincarnation~ ULTIMATE TRACKS - 東方紅魔郷REMIX - Touhou Koumakyou konami bemani reitaisai 11 例大祭11 short version ver.
BeatmapID:2349447
BeatmapSetID:1113188

[Difficulty]
HPDrainRate:4.5
CircleSize:4
OverallDifficulty:6.5
ApproachRate:7
SliderMultiplier:1.7
SliderTickRate:1

[Events]
//Background and Video events
0,0,"flandre.jpg",0,0
//Break Periods
2,49629,56748
//Storyboard Layer 0 (Background)
//Storyboard Layer 1 (Fail)
//Storyboard Layer 2 (Pass)
//Storyboard Layer 3 (Foreground)
//Storyboard Layer 4 (Overlay)
//Storyboard Sound Samples

[TimingPoints]
1758,410.958904109589,4,3,1,65,1,0
4121,-100,4,3,2,65,0,0
4429,-100,4,3,3,65,0,0
4634,-100,4,3,1,65,0,0
5765,-100,4,3,2,65,0,0
6073,-100,4,3,3,65,0,0
6278,-100,4,3,1,65,0,0
6689,-100,4,3,3,65,0,0
6997,-100,4,3,1,65,0,0
7408,-100,4,3,2,65,0,0
7717,-100,4,3,3,65,0,0
7922,-100,4,3,1,65,0,0
9052,-100,4,3,2,65,0,0
9360,-100,4,3,1,65,0,0
9566,-100,4,3,4,65,0,0
9771,-100,4,3,1,65,0,0
10696,-100,4,3,2,65,0,0
11004,-100,4,3,3,65,0,0
11210,-100,4,3,1,65,0,0
12340,-100,4,3,2,65,0,0
12648,-100,4,3,3,65,0,0
12854,-100,4,3,1,65,0,0
13265,-100,4,3,3,65,0,0
13573,-100,4,3,1,65,0,0
13984,-100,4,3,2,65,0,0
14292,-100,4,3,3,65,0,0
14497,-100,4,3,1,65,0,0
15628,-100,4,3,2,65,0,0
15936,-100,4,3,1,65,0,0
16141,-100,4,3,4,65,0,0
16449,-100,4,3,99,5,0,0
16552,-100,4,3,1,75,0,0
16758,-100,4,3,99,5,0,0
16860,-100,4,3,1,75,0,0
16963,-100,4,3,5,75,0,0
17066,-100,4,3,99,5,0,0
17169,-100,4,3,2,75,0,0
17271,-100,4,3,99,5,0,0
17579,-100,4,3,2,75,0,0
17785,-100,4,3,1,75,0,0
18299,-100,4,3,99,5,0,0
18400,-100,4,3,1,75,0,0
18504,-100,4,3,99,5,0,0
18607,-100,4,3,4,75,0,0
18710,-100,4,3,99,5,0,0
18812,-100,4,3,1,75,0,0
19121,-100,4,3,99,5,0,0
19223,-100,4,3,1,75,0,0
19326,-100,4,3,99,5,0,0
19429,-100,4,3,5,75,0,0
19634,-100,4,3,1,75,0,0
19737,-100,4,3,99,5,0,0
19839,-100,4,3,1,75,0,0
22614,-100,4,3,99,5,0,0
22717,-100,4,3,4,75,0,0
22922,-100,4,3,1,75,0,0
23025,-100,4,3,99,5,0,0
23127,-100,4,3,1,75,0,0
23333,-100,4,3,99,5,0,0
23436,-100,4,3,1,75,0,0
23538,-100,4,3,5,75,0,0
23641,-100,4,3,99,5,0,0
23744,-100,4,3,2,75,0,0
23847,-100,4,3,99,5,0,0
24155,-100,4,3,2,75,0,0
24360,-100,4,3,1,75,0,0
24874,-100,4,3,99,5,0,0
24975,-100,4,3,1,75,0,0
25079,-100,4,3,99,5,0,0
25182,-100,4,3,4,75,0,0
25285,-100,4,3,99,5,0,0
25388,-100,4,3,1,75,0,0
25696,-100,4,3,99,5,0,0
25799,-100,4,3,1,75,0,0
25901,-100,4,3,99,5,0,0
26003,-100,4,3,1,75,0,0
26312,-100,4,3,99,5,0,0
26414,-100,4,3,1,75,0,0
29189,-100,4,3,99,5,0,0
29292,-100,4,3,4,75,0,0
29497,-100,4,3,1,75,0,0
29600,-100,4,3,99,5,0,0
29703,-90.9090909090909,4,3,1,75,0,0
29908,-90.9090909090909,4,3,2,75,0,0
30114,-90.9090909090909,4,3,3,75,0,0
30319,-90.9090909090909,4,3,2,75,0,0
30525,-90.9090909090909,4,3,3,75,0,0
30730,-90.9090909090909,4,3,2,75,0,0
30936,-90.9090909090909,4,3,3,75,0,0
31038,-90.9090909090909,4,3,2,75,0,0
32169,-90.9090909090909,4,3,3,75,0,0
32271,-90.9090909090909,4,3,2,75,0,0
32580,-90.9090909090909,4,3,3,75,0,0
32682,-90.9090909090909,4,3,2,75,0,0
32785,-90.9090909090909,4,3,1,75,0,0
33196,-90.9090909090909,4,3,2,75,0,0
33402,-90.9090909090909,4,3,3,75,0,0
33607,-90.9090909090909,4,3,2,75,0,0
33812,-90.9090909090909,4,3,3,75,0,0
34018,-90.9090909090909,4,3,2,75,0,0
34223,-90.9090909090909,4,3,3,75,0,0
34326,-90.9090909090909,4,3,2,75,0,0
35456,-90.9090909090909,4,3,3,75,0,0
35662,-90.9090909090909,4,3,1,75,0,0
42032,-90.9090909090909,4,3,3,75,0,0
42134,-90.9090909090909,4,3,1,75,0,0
42751,-90.9090909090909,4,3,99,5,0,0
42853,-90.9090909090909,4,3,1,75,0,0
43675,-100,4,3,3,75,0,0
43881,-100,4,3,99,5,0,0
43984,-100,4,3,3,75,0,0
44189,-100,4,3,99,5,0,0
44292,-100,4,3,3,75,0,0
44497,-90.9090909090909,4,3,1,75,0,0
49429,-90.9090909090909,4,3,2,75,0,0
62580,-90.9090909090909,4,3,1,75,0,0
64223,-90.9090909090909,4,3,1,75,0,1
64429,-90.9090909090909,4,3,99,5,0,1
64531,-90.9090909090909,4,3,1,75,0,1
64737,-90.9090909090909,4,3,99,5,0,1
64840,-90.9090909090909,4,3,1,75,0,1
65353,-90.9090909090909,4,3,99,5,0,1
65456,-90.9090909090909,4,3,2,75,0,1
65764,-90.9090909090909,4,3,99,5,0,1
65866,-90.9090909090909,4,3,2,75,0,1
66175,-90.9090909090909,4,3,99,5,0,1
66278,-90.9090909090909,4,3,1,75,0,1
66997,-90.9090909090909,4,3,99,5,0,1
67100,-90.9090909090909,4,3,1,75,0,1
68847,-90.9090909090909,4,3,99,5,0,1
68949,-90.9090909090909,4,3,1,75,0,1
69052,-90.9090909090909,4,3,99,5,0,1
69154,-90.9090909090909,4,3,1,75,0,1
69257,-90.9090909090909,4,3,99,5,0,1
69360,-90.9090909090909,4,3,1,75,0,1
69463,-90.9090909090909,4,3,99,5,0,1
69566,-90.9090909090909,4,3,1,75,0,1
69668,-90.9090909090909,4,3,99,5,0,1
69771,-90.9090909090909,4,3,1,75,0,1
69977,-90.9090909090909,4,3,4,75,0,1
70079,-90.9090909090909,4,3,99,5,0,1
70182,-90.9090909090909,4,3,1,75,0,1
70490,-90.9090909090909,4,3,99,5,0,1
70593,-90.9090909090909,4,3,1,75,0,1
71004,-90.9090909090909,4,3,99,5,0,1
71107,-90.9090909090909,4,3,1,75,0,1
71312,-90.9090909090909,4,3,99,5,0,1
71415,-90.9090909090909,4,3,1,75,0,1
71929,-90.9090909090909,4,3,99,5,0,1
72032,-90.9090909090909,4,3,2,75,0,1
72340,-90.9090909090909,4,3,99,5,0,1
72442,-90.9090909090909,4,3,2,75,0,1
72751,-90.9090909090909,4,3,99,5,0,1
72854,-90.9090909090909,4,3,1,75,0,1
73573,-90.9090909090909,4,3,99,5,0,1
73675,-90.9090909090909,4,3,1,75,0,1
75422,-90.9090909090909,4,3,99,5,0,1
75525,-90.9090909090909,4,3,1,75,0,1
75627,-90.9090909090909,4,3,99,5,0,1
75730,-90.9090909090909,4,3,1,75,0,1
76038,-90.9090909090909,4,3,99,5,0,1
76141,-90.9090909090909,4,3,1,75,0,1
77579,-90.9090909090909,4,3,99,5,0,1
77682,-90.9090909090909,4,3,1,75,0,1
77887,-90.9090909090909,4,3,99,5,0,1
77990,-90.9090909090909,4,3,1,75,0,1
78503,-90.9090909090909,4,3,99,5,0,1
78607,-90.9090909090909,4,3,2,75,0,1
78914,-90.9090909090909,4,3,99,5,0,1
79017,-90.9090909090909,4,3,2,75,0,1
79325,-90.9090909090909,4,3,99,5,0,1
79429,-90.9090909090909,4,3,1,75,0,1
80147,-90.9090909090909,4,3,99,5,0,1
80251,-90.9090909090909,4,3,1,75,0,1
81997,-90.9090909090909,4,3,99,5,0,1
82100,-90.9090909090909,4,3,1,75,0,1
82202,-90.9090909090909,4,3,99,5,0,1
82305,-90.9090909090909,4,3,1,75,0,1
82407,-90.9090909090909,4,3,99,5,0,1
82511,-90.9090909090909,4,3,1,75,0,1
82613,-90.9090909090909,4,3,99,5,0,1
82716,-90.9090909090909,4,3,1,75,0,1
82818,-90.9090909090909,4,3,99,5,0,1
82922,-90.9090909090909,4,3,1,75,0,1
83127,-90.9090909090909,4,3,4,75,0,1
83229,-90.9090909090909,4,3,99,5,0,1
83333,-90.9090909090909,4,3,1,75,0,1
83640,-90.9090909090909,4,3,99,5,0,1
83744,-90.9090909090909,4,3,1,75,0,1
84154,-90.9090909090909,4,3,99,5,0,1
84257,-90.9090909090909,4,3,1,75,0,1
84462,-90.9090909090909,4,3,99,5,0,1
84566,-90.9090909090909,4,3,1,75,0,1
85079,-90.9090909090909,4,3,99,5,0,1
85182,-90.9090909090909,4,3,2,75,0,1
85490,-90.9090909090909,4,3,99,5,0,1
85592,-90.9090909090909,4,3,2,75,0,1
85901,-90.9090909090909,4,3,99,5,0,1
86004,-90.9090909090909,4,3,1,75,0,1
86723,-90.9090909090909,4,3,99,5,0,1
86826,-90.9090909090909,4,3,1,75,0,1
88572,-90.9090909090909,4,3,99,5,0,1
88675,-90.9090909090909,4,3,1,75,0,1
88777,-90.9090909090909,4,3,99,5,0,1
88881,-90.9090909090909,4,3,1,75,0,1
89188,-90.9090909090909,4,3,99,5,0,1
89292,-90.9090909090909,4,3,1,75,0,1
90525,-105.263157894737,4,3,1,60,0,0
90936,-105.263157894737,4,3,2,60,0,0
100390,-105.263157894737,4,3,1,60,0,0
100801,-105.263157894737,4,3,2,60,0,0
106143,-105.263157894737,4,3,1,60,0,0
108607,-105.263157894737,4,3,99,5,0,0

[Colours]
Combo1 : 225,26,175
Combo2 : 231,35,7
Combo3 : 255,136,17
Combo4 : 255,255,0
Combo5 : 95,247,51
Combo6 : 20,248,163
Combo7 : 83,156,230
Combo8 : 92,79,213

[HitObjects]
308,331,3401,6,0,B|388:301|388:301|488:328,1,170,2|8,1:2|0:2,0:0:0:0:
465,246,4018,2,0,B|383:223|383:223|303:253,1,170,2|0,1:2|2:0,0:0:0:0:
225,285,4634,1,8,0:2:0:0:
230,199,4840,1,0,1:0:0:0:
234,114,5045,6,0,B|154:84|154:84|72:106,1,170,2|8,1:2|0:2,0:0:0:0:
77,29,5662,2,0,B|159:6|159:6|239:36,1,170,2|0,1:2|2:0,0:0:0:0:
318,70,6278,2,0,B|344:79|344:79|385:41|445:50,1,127.5,10|0,0:2|0:0,0:0:0:0:
463,81,6689,6,0,B|504:154|504:154|484:263,1,170,2|8,2:2|0:2,0:0:0:0:
404,254,7305,2,0,B|419:169|419:169|378:96,1,170,2|0,1:2|2:0,0:0:0:0:
293,105,7922,1,8,0:2:0:0:
208,112,8127,1,0,1:0:0:0:
123,119,8333,6,0,B|82:192|82:192|97:276,1,170,2|8,1:2|0:2,0:0:0:0:
182,267,8949,2,0,B|172:205|172:205|205:142,1,127.5,2|0,1:2|1:0,0:0:0:0:
243,141,9360,5,2,1:1:0:0:
260,239,9566,2,0,B|308:285|212:321|325:319|264:369,1,127.5,10|0,0:2|0:0,0:0:0:0:
316,368,9977,6,0,B|402:388|402:388|500:337,1,170,6|8,1:2|0:2,0:0:0:0:
462,265,10593,2,0,B|389:302|389:302|303:282,1,170,2|0,1:2|2:0,0:0:0:0:
289,197,11210,1,8,0:2:0:0:
274,113,11415,1,0,1:0:0:0:
262,28,11621,6,0,B|176:7|176:7|103:45,1,170,2|8,1:2|0:2,0:0:0:0:
115,132,12237,2,0,B|188:95|188:95|274:115,1,170,2|0,1:2|2:0,0:0:0:0:
204,191,12853,2,0,B|172:208|172:208|199:268|202:331,1,127.5,10|0,0:2|0:0,0:0:0:0:
236,319,13264,6,0,B|322:312|322:312|397:387,1,170,2|8,2:2|0:2,0:0:0:0:
411,291,13881,2,0,B|351:231|351:231|265:238,1,170,2|0,1:2|2:0,0:0:0:0:
180,247,14497,1,8,0:2:0:0:
95,256,14703,1,0,1:0:0:0:
10,267,14908,6,0,L|23:87,1,170,6|8,1:2|0:2,0:0:0:0:
105,128,15525,2,0,L|92:285,1,127.5,6|0,1:2|1:0,0:0:0:0:
90,297,15936,5,2,1:1:0:0:
175,351,16141,2,0,B|276:370|203:268|303:373|304:301,1,127.5,10|0,0:2|0:0,0:0:0:0:
338,304,16552,6,0,B|379:307|379:307|382:318|382:318|432:321|432:321|439:312|439:312|477:316,1,127.5,0|0,1:0|1:0,0:0:0:0:
487,289,16963,1,10,0:2:0:0:
416,229,17168,2,0,B|399:181|462:172|427:111,1,85,2|0,1:1|0:0,0:0:0:0:
498,61,17579,6,0,B|474:68|474:68|452:53,1,42.5,0|0,1:0|0:0,0:0:0:0:
405,64,17785,2,0,B|368:53|368:53|345:130,1,85,8|0,0:2|1:0,0:0:0:0:
321,218,18196,5,4,1:2:0:0:
258,142,18401,2,0,B|257:112|257:112|265:100|265:100|250:51,1,85,2|10,0:1|0:2,0:0:0:0:
166,1,18812,1,2,1:1:0:0:
90,74,19018,2,0,B|62:69|62:69|19:124,1,85,2|2,0:1|1:2,0:0:0:0:
98,177,19429,2,0,B|121:195|121:195|93:240|130:261|110:296,1,127.5,10|0,0:2|0:0,0:0:0:0:
146,334,19840,6,0,B|334:317,1,170,4|8,1:2|0:2,0:0:0:0:
415,357,20456,2,0,B|398:272|398:272|424:180,1,170,0|0,1:0|1:0,0:0:0:0:
454,106,21073,1,8,0:2:0:0:
370,119,21278,1,0,1:0:0:0:
345,37,21484,6,0,B|268:6|268:6|179:29,1,170,0|8,1:0|0:2,0:0:0:0:
99,67,22100,2,0,B|139:117|139:117|126:209,1,127.5,0|0,1:0|0:0,0:0:0:0:
123,220,22511,5,2,1:1:0:0:
38,185,22716,2,0,B|17:223|17:273|72:242|37:332,1,127.5,10|0,0:2|0:0,0:0:0:0:
75,339,23127,6,0,B|117:331|117:331|120:319|120:319|160:314|160:314|168:320|168:320|224:314,1,127.5,0|0,1:0|1:0,0:0:0:0:
231,326,23538,1,10,0:2:0:0:
203,233,23744,2,0,B|276:210|262:256|311:233,1,85,2|0,1:1|0:0,0:0:0:0:
388,249,24155,6,0,B|384:277|384:277|365:301,1,42.5,0|0,1:0|0:0,0:0:0:0:
371,330,24360,2,0,B|400:354|400:354|459:343,1,85,8|0,0:2|1:0,0:0:0:0:
503,233,24771,5,4,1:2:0:0:
464,145,24977,2,0,B|427:132|427:132|413:136|413:136|341:139,1,85,2|10,0:1|0:2,0:0:0:0:
276,178,25388,1,2,1:1:0:0:
284,75,25593,2,0,B|272:42|272:42|204:60,1,85,2|2,0:1|1:2,0:0:0:0:
113,76,26004,2,0,B|86:68|86:68|125:108|89:147|143:187,1,127.5,10|0,0:2|0:0,0:0:0:0:
161,188,26415,6,0,L|154:359,1,170,4|8,1:2|0:2,0:0:0:0:
251,313,27031,2,0,B|334:305|334:305|439:335,1,170,0|0,1:0|1:0,0:0:0:0:
492,270,27648,1,8,0:2:0:0:
413,236,27853,1,0,1:0:0:0:
479,182,28059,2,0,B|499:99|499:99|451:8,1,170,0|8,1:0|0:2,0:0:0:0:
390,74,28675,2,0,B|335:111|335:111|256:86,1,127.5,0|0,1:0|0:0,0:0:0:0:
247,61,29086,5,2,1:1:0:0:
206,144,29292,2,0,B|200:205|252:192|222:270,1,127.5,10|0,0:2|0:0,0:0:0:0:
207,318,29703,6,0,L|331:307,1,93.5000028533936,4|8,1:2|2:2,0:0:0:0:
367,241,30114,2,0,L|491:230,1,93.5000028533936,0|8,2:0|2:2,0:0:0:0:
510,258,30422,1,0,1:0:0:0:
510,258,30525,2,0,P|483:186|495:140,1,93.5000028533936,0|8,2:0|2:2,0:0:0:0:
502,69,30936,2,0,L|490:5,2,46.7500014266968,0|0|8,2:0|2:0|2:2,0:0:0:0:
405,104,31347,6,0,B|276:92,1,93.5000028533936,0|8,1:0|2:2,0:0:0:0:
245,174,31758,2,0,B|116:162,1,93.5000028533936,0|8,1:0|2:2,0:0:0:0:
100,88,32168,1,0,2:0:0:0:
100,88,32271,1,0,1:0:0:0:
100,88,32374,1,8,2:2:0:0:
39,171,32579,2,0,L|44:228,2,46.7500014266968,0|0|8,2:0|2:0|0:2,0:0:0:0:
142,240,32990,6,0,B|130:369,1,93.5000028533936,4|8,1:2|2:2,0:0:0:0:
245,379,33401,2,0,B|236:285,1,93.5000028533936,0|8,2:0|2:2,0:0:0:0:
249,235,33710,1,0,1:0:0:0:
249,235,33812,2,0,P|320:258|375:243,1,93.5000028533936,0|8,2:0|2:2,0:0:0:0:
431,213,34223,2,0,L|495:222,2,46.7500014266968,0|0|8,2:0|2:0|2:2,0:0:0:0:
374,126,34634,6,0,L|391:27,1,93.5000028533936,0|8,1:0|2:2,0:0:0:0:
288,52,35045,2,0,L|223:43,2,46.7500014266968,0|0|8,1:0|2:0|2:2,0:0:0:0:
291,164,35456,1,4,2:2:0:0:
189,146,35662,2,0,B|92:134|92:134|1:204,1,187.000005706787,8|0,1:2|1:0,0:0:0:0:
52,235,36175,1,0,1:0:0:0:
52,235,36278,6,0,L|55:310,2,46.7500014266968,6|0|8,1:2|0:0|0:2,0:0:0:0:
155,232,36689,1,0,1:0:0:0:
149,334,36894,2,0,L|146:409,2,46.7500014266968,10|0|0,0:2|0:0|1:0,0:0:0:0:
239,284,37305,1,8,0:2:0:0:
321,345,37511,1,0,1:0:0:0:
411,288,37716,1,8,0:2:0:0:
343,210,37922,6,0,L|296:213,2,46.7500014266968,2|0|8,1:2|0:0|0:2,0:0:0:0:
445,199,38333,1,0,1:0:0:0:
380,119,38538,2,0,L|255:124,1,93.5000028533936,8|0,0:2|1:0,0:0:0:0:
193,167,38949,1,8,0:2:0:0:
197,129,39052,1,0,0:0:0:0:
182,94,39155,2,0,P|161:73|127:68,2,46.7500014266968,0|0|8,1:2|0:0|0:2,0:0:0:0:
61,160,39566,6,0,L|107:153,2,46.7500014266968,6|0|8,1:2|0:0|0:2,0:0:0:0:
17,253,39977,1,0,1:0:0:0:
118,271,40182,2,0,L|164:277,2,46.7500014266968,10|0|0,0:2|0:0|1:0,0:0:0:0:
79,175,40593,1,8,0:2:0:0:
181,161,40799,1,0,1:0:0:0:
254,232,41004,1,8,0:2:0:0:
355,211,41210,6,0,L|347:138,2,46.7500014266968,2|0|8,1:2|0:0|0:2,0:0:0:0:
447,256,41621,2,0,L|438:361,1,93.5000028533936,0|8,1:0|0:2,0:0:0:0:
319,313,42031,1,0,2:0:0:0:
282,304,42134,1,0,1:0:0:0:
245,313,42237,1,8,0:2:0:0:
154,361,42442,2,0,L|140:215,1,140.25000428009,4|0,1:2|0:0,0:0:0:0:
169,178,42853,6,0,B|139:167|139:167|133:161|133:161|125:165|125:165|79:155|79:155|69:160|69:160|72:148|72:148|63:106|63:106|113:67|113:67|112:57|112:57|127:59|127:59|176:21,1,280.500008560181,4|8,1:2|0:2,0:0:0:0:
223,98,43675,2,0,L|364:109,2,127.5,0|0|0,2:0|2:0|2:0,0:0:0:0:
279,205,44497,6,0,B|343:200|343:200|348:193|348:193|356:198|356:198|402:194|402:194|432:218|432:218|433:232|433:232|446:231|446:231|471:250|471:250|491:229|491:229|490:220|490:220|501:221|501:221|535:186,1,280.500008560181,4|8,1:2|0:2,0:0:0:0:
468,117,45319,1,4,1:2:0:0:
256,192,45422,12,0,49429,2:0:0:0:
256,192,57648,12,4,62579,1:2:0:0:
333,77,64223,6,0,B|371:56|371:56|411:63|411:63|418:58|418:58|424:66|424:66|499:81,2,140.25000428009,4|0|0,1:2|1:0|1:0,0:0:0:0:
275,162,65045,2,0,B|304:171|304:171|307:181|307:181|316:175|316:175|341:182|341:182|391:160|391:160|419:165|419:165|426:158|426:158|434:168|434:168|479:180,1,187.000005706787,8|0,0:2|2:0,0:0:0:0:
434,375,65867,2,0,B|405:339|405:339|407:331|407:331|398:330|398:330|381:309|381:309|335:319|335:319|310:312|310:312|304:317|304:317|302:309|302:309|261:293|261:293,1,187.000005706787,0|2,1:0|0:2,0:0:0:0:
264,292,66381,1,2,0:2:0:0:
233,305,66484,1,2,0:2:0:0:
199,299,66586,1,2,0:2:0:0:
174,317,66689,6,0,B|52:282|139:220|8:219,1,187.000005706787,12|0,0:2|0:0,0:0:0:0:
60,127,67305,1,0,1:0:0:0:
60,127,67408,1,0,1:0:0:0:
60,127,67511,6,0,B|73:130|73:130|57:69|59:19|59:19|78:40,2,140.25000428009,0|0|0,1:0|1:0|1:0,0:0:0:0:
161,90,68333,2,0,B|185:73|202:72|202:72|206:65|206:65|212:72|212:72|237:72|275:93,1,93.5000028533936,10|0,0:2|0:0,0:0:0:0:
274,117,68641,1,0,0:0:0:0:
274,117,68744,2,0,B|278:122|303:122|303:122|309:129|309:129|312:122|312:122|330:121|354:104,1,93.5000028533936
442,50,69155,6,0,B|450:34|450:34|443:122|443:122,1,93.5000028533936,2|0,1:2|0:0,0:0:0:0:
392,198,69566,2,0,B|384:182|384:182|391:270|391:270,1,93.5000028533936,2|0,1:2|0:0,0:0:0:0:
399,293,69874,1,0,0:0:0:0:
399,293,69977,5,10,0:2:0:0:
306,351,70182,2,0,B|209:246|404:206|200:346|363:184|252:174,1,187.000005706787,2|0,1:1|1:0,0:0:0:0:
236,151,70696,1,0,1:0:0:0:
236,151,70799,6,0,B|203:136|203:136|196:91|196:91|190:90|190:90|200:73|200:73|194:68|194:68|188:17,2,140.25000428009,4|0|0,1:2|1:0|1:0,0:0:0:0:
176,234,71621,2,0,B|148:221|148:221|146:213|146:213|137:216|137:216|122:212|122:212|108:162|108:162|69:149|69:149|58:153|58:153|54:144|54:144|6:130,1,187.000005706787,8|0,0:2|2:0,0:0:0:0:
72,346,72442,2,0,B|126:313|126:313|146:321|146:321|150:330|150:330|159:327|159:327|178:333|178:333|206:322|206:322|210:312|210:312|217:316|217:316|254:298,1,187.000005706787,0|2,1:0|0:2,0:0:0:0:
255,289,72956,1,2,0:2:0:0:
281,308,73059,1,2,0:2:0:0:
310,293,73162,1,2,0:2:0:0:
335,313,73264,6,0,B|453:327|351:258|515:306,1,187.000005706787,12|0,0:2|0:0,0:0:0:0:
488,204,73881,1,0,1:0:0:0:
488,204,73984,1,0,1:0:0:0:
488,204,74086,6,0,B|485:190|485:190|413:219|377:215|377:215|400:186,2,140.25000428009,0|0|0,1:0|1:0|1:0,0:0:0:0:
433,116,74908,2,0,B|447:91|444:68|444:68|450:65|450:65|442:61|442:61|436:41|419:28,1,93.5000028533936,10|0,0:2|0:0,0:0:0:0:
380,37,75216,1,0,0:0:0:0:
380,37,75319,2,0,B|375:44|355:50|355:50|351:58|351:58|348:52|348:52|325:55|300:41,1,93.5000028533936
200,15,75730,6,0,B|193:45|199:69|199:69|190:72|190:72|201:74|201:74|204:87|224:114|224:114|272:102,1,140.25000428009,0|0,1:0|0:0,0:0:0:0:
288,133,76141,2,0,L|366:145,2,62.3333352355958,2|2|2,0:2|0:2|0:2,0:0:0:0:
235,187,76552,1,8,0:2:0:0:
144,140,76758,2,0,L|50:156,1,93.5000028533936,0|0,1:0|0:0,0:0:0:0:
35,273,77168,1,0,1:0:0:0:
35,273,77271,1,0,1:0:0:0:
35,273,77374,6,0,B|78:266|78:266|84:274|84:274|90:264|90:264|126:258|126:258|165:214,2,140.25000428009,4|0|0,1:2|1:0|1:0,0:0:0:0:
89,360,78196,2,0,B|130:354|130:354|134:348|134:348|144:352|144:352|169:349|169:349|202:310|202:310|225:306|225:306|232:309|232:309|238:304|238:304|292:297,1,187.000005706787,8|0,0:2|2:0,0:0:0:0:
447,260,79018,2,0,B|419:255|419:255|412:247|412:247|405:252|405:252|376:248|376:248|361:230|361:230|353:229|353:229|355:222|355:222|343:204|343:204|269:192,1,187.000005706787,0|2,1:0|0:2,0:0:0:0:
262,184,79531,1,2,0:2:0:0:
257,151,79634,1,2,0:2:0:0:
235,125,79737,1,2,0:2:0:0:
247,94,79840,6,0,B|160:47|213:126|37:73,1,187.000005706787,12|0,0:2|0:0,0:0:0:0:
84,182,80456,1,0,1:0:0:0:
84,182,80559,1,0,1:0:0:0:
84,182,80662,6,0,B|104:180|104:180|86:224|81:282|81:282|65:268,2,140.25000428009,0|0|0,1:0|1:0|1:0,0:0:0:0:
189,225,81484,2,0,B|172:253|175:275|175:275|168:277|168:277|176:282|176:282|179:300|204:324,1,93.5000028533936,10|0,0:2|0:0,0:0:0:0:
226,334,81792,1,0,0:0:0:0:
226,334,81894,2,0,B|254:351|276:348|276:348|278:355|278:355|283:347|283:347|301:344|325:319,1,93.5000028533936
385,273,82305,6,0,B|371:265|371:265|460:269,1,93.5000028533936,2|0,1:2|0:0,0:0:0:0:
495,176,82716,2,0,B|509:168|509:168|420:172,1,93.5000028533936,2|0,1:2|0:0,0:0:0:0:
394,174,83025,1,0,0:0:0:0:
394,174,83127,5,10,0:2:0:0:
415,81,83333,2,0,B|352:57|342:128|221:136|299:28|215:91,1,187.000005706787,2|0,1:1|1:0,0:0:0:0:
191,88,83847,1,0,1:0:0:0:
191,88,83949,6,0,B|142:110|142:110|118:102|118:102|115:95|115:95|90:100|90:100|89:90|89:90|39:71,2,140.25000428009,4|0|0,1:2|1:0|1:0,0:0:0:0:
194,191,84771,2,0,B|181:198|181:198|177:209|177:209|172:202|172:202|155:211|155:211|155:245|155:245|148:253|148:253|155:259|155:259|155:313|155:313|102:347,1,187.000005706787,8|0,0:2|2:0,0:0:0:0:
332,270,85593,2,0,B|295:229|295:229|304:194|304:194|312:190|312:190|307:182|307:182|313:153|313:153|302:137|302:137|303:130|303:130|294:133|294:133|264:97,1,187.000005706787,0|2,1:0|0:2,0:0:0:0:
259,113,86107,1,2,0:2:0:0:
251,81,86210,1,2,0:2:0:0:
232,54,86312,1,2,0:2:0:0:
249,26,86415,6,0,B|317:8|429:89|330:-2|465:35,1,187.000005706787,12|0,0:2|0:0,0:0:0:0:
432,138,87031,1,0,1:0:0:0:
432,138,87134,1,0,1:0:0:0:
432,138,87237,6,0,B|450:134|450:134|424:209|430:236|430:236|416:215,2,140.25000428009,0|0|0,1:0|1:0|1:0,0:0:0:0:
340,176,88059,2,0,B|320:198|320:215|320:215|313:221|313:221|320:224|320:224|319:252|350:283,1,93.5000028533936,10|0,0:2|0:0,0:0:0:0:
367,287,88367,1,0,0:0:0:0:
367,287,88470,2,0,B|387:309|387:326|387:326|394:332|394:332|387:335|387:335|388:363|357:394,1,93.5000028533936
284,336,88881,6,0,B|261:320|239:322|239:322|230:312|230:312|226:323|226:323|207:327|189:344|189:344|143:307,1,140.25000428009,0|0,1:0|0:0,0:0:0:0:
129,297,89292,2,0,L|142:221,2,62.3333352355958,2|2|2,0:2|0:2|0:2,0:0:0:0:
77,353,89703,1,8,0:2:0:0:
53,253,89908,2,0,L|74:130,1,93.5000028533936,0|0,1:0|0:0,0:0:0:0:
94,66,90319,1,0,1:0:0:0:
94,66,90422,1,0,1:0:0:0:
94,66,90525,6,0,L|231:91,1,107.666663791657,4|0,1:2|0:0,0:0:0:0:
259,48,90936,2,0,B|297:87|238:165|238:165,1,107.666663791657,0|0,2:0|0:0,0:0:0:0:
179,155,91347,1,0,1:0:0:0:
239,286,91621,1,0,0:0:0:0:
239,286,91758,2,0,B|322:230|353:291|353:291,1,107.666663791657
380,331,92168,5,0,1:0:0:0:
380,331,92579,2,0,B|437:338|406:210|406:210,1,107.666663791657,0|0,2:0|0:0,0:0:0:0:
391,175,92990,1,0,1:0:0:0:
494,56,93299,2,0,B|481:116|336:72|336:72,1,161.499995687485,0|0,1:0|0:0,0:0:0:0:
300,51,93812,5,0,1:0:0:0:
300,51,94223,2,0,B|355:132|293:175|293:175,1,107.666663791657,0|0,2:0|0:0,0:0:0:0:
259,200,94634,2,0,L|186:189,2,53.8333318958283,0|0|0,1:0|0:0|0:0,0:0:0:0:
319,237,95045,2,0,B|366:317|293:364,1,107.666663791657
253,358,95456,5,0,1:0:0:0:
253,358,95867,2,0,B|237:318|128:332,1,107.666663791657,0|0,2:0|0:0,0:0:0:0:
92,360,96278,1,0,1:0:0:0:
92,360,96689,2,0,B|39:335|73:213|73:213,1,107.666663791657,0|0,1:0|0:0,0:0:0:0:
52,193,97100,6,0,L|-42:212,2,53.8333318958283,0|0|0,1:0|0:0|0:0,0:0:0:0:
118,216,97511,2,0,B|167:176|67:99,1,107.666663791657,0|0,2:0|0:0,0:0:0:0:
41,83,97922,2,0,L|29:0,2,53.8333318958283,0|0|0,1:0|0:0|0:0,0:0:0:0:
108,54,98333,2,0,B|206:86|214:66|214:66,1,107.666663791657
254,11,98744,5,0,1:0:0:0:
380,82,99018,1,0,0:0:0:0:
380,82,99155,2,0,B|455:26|382:189|382:189,1,107.666663791657,0|0,2:0|0:0,0:0:0:0:
363,204,99566,1,0,1:0:0:0:
486,279,99840,1,0,0:0:0:0:
486,279,99977,2,0,B|541:326|427:329|427:329,1,80.7499978437424,0|0,0:0|1:0,0:0:0:0:
362,356,100388,6,0,L|287:353,2,53.8333318958283,4|0|0,1:2|0:0|0:0,0:0:0:0:
369,285,100799,2,0,B|303:298|292:230|236:295,1,107.666663791657,0|0,2:0|0:0,0:0:0:0:
201,299,101210,2,0,L|219:374,2,53.8333318958283,0|0|0,1:0|0:0|0:0,0:0:0:0:
132,280,101621,2,0,B|61:246|127:218|77:154,1,107.666663791657
38,147,102031,6,0,L|51:33,1,107.666663791657,0|0,1:0|0:0,0:0:0:0:
119,52,102442,2,0,B|207:74|184:18|252:71,1,107.666663791657,0|0,2:0|0:0,0:0:0:0:
280,94,102853,1,0,1:0:0:0:
280,94,103264,2,0,B|243:144|324:143|302:233,1,107.666663791657,0|0,1:0|0:0,0:0:0:0:
272,252,103675,6,0,L|198:266,2,53.8333318958283,0|0|0,1:0|0:0|0:0,0:0:0:0:
313,308,104086,2,0,B|386:282|346:326|449:321,1,107.666663791657,0|0,2:0|0:0,0:0:0:0:
459,265,104497,2,0,L|528:275,2,53.8333318958283,0|0|0,1:0|0:0|0:0,0:0:0:0:
410,213,104908,2,0,B|447:153|383:141|448:81,1,107.666663791657
478,65,105319,5,0,1:0:0:0:
345,35,105593,1,0,0:0:0:0:
345,35,105730,2,0,B|270:36|325:100|213:78,1,107.666663791657,0|0,2:0|0:0,0:0:0:0:
187,62,106141,5,4,1:2:0:0:
256,192,106244,12,0,108607,0:0:0:0:
