osu file format v14

[General]
AudioFilename: audio.mp3
AudioLeadIn: 0
PreviewTime: 119233
Countdown: 0
SampleSet: Soft
StackLeniency: 0.7
Mode: 0
LetterboxInBreaks: 0
WidescreenStoryboard: 1

[Editor]
Bookmarks: 10067,10483,10900,11317,11733,12150,12567,55067,61733,76771,83400,99649,113399,132992,133096,133200,133304,133408
DistanceSpacing: 1.5
BeatDivisor: 4
GridSize: 32
TimelineZoom: 1.7

[Metadata]
Title:Safe Return [Lo-Fi] (PhysX remix)
TitleUnicode:Safe Return [Lo-Fi] (PhysX remix)
Artist:Jeremy Zuckerman & Benjamin Wynn
ArtistUnicode:Jeremy Zuckerman & Benjamin Wynn
Creator:Liiraye
Version:yip yip
Source:Avatar: The Last Airbender
Tags:The Track Team
BeatmapID:1876342
BeatmapSetID:898202

[Difficulty]
HPDrainRate:6
CircleSize:4.6
OverallDifficulty:7.5
ApproachRate:9
SliderMultiplier:1.8
SliderTickRate:1

[Events]
//Background and Video events
0,0,"appa.jpg",0,0
//Break Periods
2,61660,68244
2,76305,85992
//Storyboard Layer 0 (Background)
//Storyboard Layer 1 (Fail)
//Storyboard Layer 2 (Pass)
//Storyboard Layer 3 (Foreground)
//Storyboard Layer 4 (Overlay)
//Storyboard Sound Samples

[TimingPoints]
67,416.666666666667,4,2,0,35,1,0
14962,-100,4,2,0,5,0,0
15067,-100,4,2,0,35,0,0
16629,-100,4,2,0,5,0,0
16733,-100,4,2,0,35,0,0
18296,-100,4,2,0,5,0,0
18400,-100,4,2,0,35,0,0
21629,-100,4,2,0,5,0,0
21733,-100,4,2,0,35,0,0
23296,-100,4,2,0,5,0,0
23400,-100,4,2,0,35,0,0
24962,-100,4,2,0,5,0,0
25067,-100,4,2,0,35,0,0
28296,-100,4,2,0,5,0,0
28400,-100,4,2,0,35,0,0
29962,-100,4,2,0,5,0,0
30067,-100,4,2,0,35,0,0
31629,-100,4,2,0,5,0,0
31733,-100,4,2,0,35,0,0
34962,-100,4,2,0,5,0,0
35067,-100,4,2,0,35,0,0
36629,-100,4,2,0,5,0,0
36733,-100,4,2,0,35,0,0
38296,-100,4,2,0,5,0,0
38400,-100,4,2,0,35,0,0
40067,-100,4,2,0,15,0,0
41733,-100,4,2,0,20,0,0
43400,-100,4,2,0,25,0,0
45067,-100,4,2,0,30,0,0
46733,-100,4,2,0,40,0,0
47129,434.782608695652,4,2,0,35,1,0
47129,-100,4,2,0,50,0,0
47563,-100,4,2,0,25,0,0
48009,468.75,4,2,0,35,1,0
48009,-100,4,2,0,40,0,0
48477,-100,4,2,0,50,0,0
48960,526.315789473684,4,2,0,25,1,0
49486,-100,4,2,0,40,0,0
50032,612.244897959184,4,2,0,50,1,0
50644,-100,4,2,0,60,0,0
51343,869.565217391304,4,2,0,25,1,0
53355,1515.15151515152,4,2,0,50,1,0
56068,416.666666666667,4,2,0,35,1,0
56068,-133.333333333333,4,2,0,35,0,0
58966,444.444444444444,4,2,0,35,1,0
59883,444.444444444444,4,2,0,35,1,0
76105,444.444444444444,4,2,0,35,1,0
86742,416.666666666667,4,2,0,35,1,0
103304,-100,4,2,0,5,0,0
103408,-100,4,2,0,35,0,0
106637,-100,4,2,0,5,0,0
106742,-100,4,2,0,35,0,0
109971,-100,4,2,0,5,0,0
110075,-100,4,2,0,35,0,0
120075,-100,4,2,0,35,0,1
146742,-100,4,2,0,35,0,0

[HitObjects]
305,247,12567,5,0,1:0:0:0:
367,151,12775,1,8,0:0:0:0:
209,61,13192,2,0,L|187:56,3,22.5
231,87,13400,6,0,P|221:131|238:172,1,90,6|0,0:0|0:0,0:0:0:0:
257,177,13817,2,0,P|235:137|241:93,1,90,2|0,0:0|0:0,0:0:0:0:
378,112,14233,1,8,0:0:0:0:
184,222,14442,1,2,3:0:0:0:
184,222,14650,2,0,P|233:206|326:232,1,135,2|0,0:0|0:0,0:0:0:0:
355,157,15067,6,0,P|333:196|330:241,1,90,2|0,0:0|0:0,0:0:0:0:
408,308,15483,2,0,P|384:271|343:254,1,90,2|0,0:0|0:0,0:0:0:0:
325,343,15900,1,8,0:0:0:0:
455,168,16108,1,2,3:0:0:0:
455,168,16317,2,0,P|397:156|301:181,1,135,2|0,0:0|0:0,0:0:0:0:
281,228,16733,6,0,P|275:191|286:123,1,90,2|0,0:0|0:0,0:0:0:0:
294,131,17150,2,0,P|286:175|291:219,1,90,2|0,0:0|0:0,0:0:0:0:
429,190,17567,1,8,0:0:0:0:
211,332,17775,1,2,3:0:0:0:
211,332,17983,2,0,P|153:278|188:231,1,135
244,189,18400,6,0,B|213:186|213:186|188:174|188:174|156:173,1,90,2|0,0:0|0:0,0:0:0:0:
156,261,18817,2,0,P|164:217|156:173,1,90,2|0,0:0|0:0,0:0:0:0:
103,78,19233,1,8,0:0:0:0:
351,163,19442,2,0,P|399:106|326:108,1,180,4|0,3:0|0:0,0:0:0:0:
321,98,19962,1,0,0:0:0:0:
313,92,20067,6,0,P|353:69|392:78,1,90,4|0,1:0|0:0,0:0:0:0:
411,75,20483,2,0,P|370:56|324:67,1,90,4|0,3:0|0:0,0:0:0:0:
152,137,20900,1,8,0:0:0:0:
152,137,21317,2,0,P|124:228|141:308,1,135,2|0,0:0|0:0,0:0:0:0:
43,240,21733,6,0,P|83:261|128:266,1,90,4|0,3:0|0:0,0:0:0:0:
214,317,22150,2,0,P|174:337|129:342,1,90,2|0,3:0|0:0,0:0:0:0:
180,107,22567,1,2,0:0:0:0:
114,108,22775,1,2,0:0:0:0:
58,143,22983,2,0,P|115:107|181:108,1,135,4|0,3:0|0:0,0:0:0:0:
233,153,23400,6,0,B|223:92|223:92|234:52,1,90,0|0,1:0|0:0,0:0:0:0:
244,72,23817,2,0,B|236:99|236:99|246:160,1,90,4|0,3:0|0:0,0:0:0:0:
281,300,24233,1,8,0:0:0:0:
281,300,24650,2,0,P|351:340|428:328,1,135,2|0,0:0|0:0,0:0:0:0:
421,225,25067,6,0,P|397:298|402:324,1,90,4|0,3:0|0:0,0:0:0:0:
303,129,25483,2,0,P|322:194|314:247,1,90,2|0,3:0|0:0,0:0:0:0:
478,289,25900,1,8,3:0:0:0:
389,304,26108,1,0,1:0:0:0:
258,243,26317,1,2,0:0:0:0:
171,265,26525,1,2,0:0:0:0:
348,222,26733,6,0,B|392:210|392:210|436:220,1,90,6|0,0:0|0:0,0:0:0:0:
437,207,27150,2,0,B|392:196|392:196|348:208,1,90,2|0,0:0|0:0,0:0:0:0:
321,294,27567,1,8,0:0:0:0:
210,40,27775,1,2,3:0:0:0:
210,40,27983,2,0,P|235:109|190:189,1,135,2|0,0:0|0:0,0:0:0:0:
150,207,28400,6,0,P|205:193|250:220,1,90,2|0,0:0|0:0,0:0:0:0:
321,294,28817,2,0,L|227:309,1,90,2|0,0:0|0:0,0:0:0:0:
68,265,29233,1,8,0:0:0:0:
301,113,29442,1,2,3:0:0:0:
300,112,29650,2,0,P|368:118|433:105,1,135,2|0,0:0|0:0,0:0:0:0:
403,215,30067,6,0,P|404:170|415:126,1,90,2|0,0:0|0:0,0:0:0:0:
396,142,30483,2,0,P|388:186|390:231,1,90,2|0,0:0|0:0,0:0:0:0:
461,321,30900,1,8,0:0:0:0:
146,224,31108,1,2,3:0:0:0:
146,224,31317,2,0,P|205:258|199:342,1,135,2|0,0:0|0:0,0:0:0:0:
102,317,31733,6,0,B|138:316|138:316|156:323|156:323|190:321,1,90,2|0,0:0|0:0,0:0:0:0:
358,197,32150,2,0,B|323:195|323:195|305:202|305:202|269:201,1,90,2|0,0:0|0:0,0:0:0:0:
285,105,32567,1,8,0:0:0:0:
381,334,32775,2,0,P|335:278|318:348,1,180,4|0,3:0|0:0,0:0:0:0:
309,350,33296,1,0,0:0:0:0:
300,352,33400,6,0,P|296:291|319:269,1,90,4|0,1:0|0:0,0:0:0:0:
317,254,33817,2,0,P|283:283|280:337,1,90,4|0,3:0|0:0,0:0:0:0:
110,347,34233,1,8,0:0:0:0:
110,347,34650,2,0,P|100:280|115:215,1,135,2|0,0:0|0:0,0:0:0:0:
177,165,35067,6,0,P|129:195|75:191,1,90,4|0,3:0|0:0,0:0:0:0:
168,62,35483,2,0,P|212:65|250:88,1,90,8|0,0:0|0:0,0:0:0:0:
293,264,35900,1,2,0:0:0:0:
359,260,36108,1,2,0:0:0:0:
427,255,36317,2,0,L|265:266,1,135,4|0,3:0|0:0,0:0:0:0:
229,196,36733,6,0,L|319:189,1,90,0|0,1:0|0:0,0:0:0:0:
331,175,37150,2,0,L|241:182,1,90,4|0,3:0|0:0,0:0:0:0:
79,62,37567,1,8,0:0:0:0:
79,62,37983,2,0,P|128:95|139:193,1,135,2|0,0:0|0:0,0:0:0:0:
69,221,38400,6,0,P|93:179|154:163,1,90,4|0,3:0|0:0,0:0:0:0:
259,265,38817,2,0,L|156:257,1,90,2|0,3:0|0:0,0:0:0:0:
194,87,39233,1,8,3:0:0:0:
282,106,39442,1,0,1:0:0:0:
347,246,39650,1,2,0:0:0:0:
259,265,39859,1,2,0:0:0:0:
283,178,40067,5,2,0:0:0:0:
283,178,40483,1,2,0:0:0:0:
197,204,40900,1,0,3:0:0:0:
197,204,41317,1,0,3:0:0:0:
83,77,41733,5,2,0:0:0:0:
86,89,42150,1,2,0:0:0:0:
176,109,42567,1,0,3:0:0:0:
173,122,42983,1,0,3:0:0:0:
411,95,43400,5,2,0:0:0:0:
384,92,43817,1,2,0:0:0:0:
332,200,44233,1,0,3:0:0:0:
359,197,44650,1,0,3:0:0:0:
188,272,45067,5,2,0:0:0:0:
202,234,45483,1,2,0:0:0:0:
56,185,45900,1,0,3:0:0:0:
70,223,46316,1,0,3:0:0:0:
83,59,46733,5,0,3:0:0:0:
197,79,47129,5,2,0:0:0:0:
278,56,47563,1,2,0:0:0:0:
330,178,48009,5,2,0:0:0:0:
229,171,48477,1,2,0:0:0:0:
93,284,48960,5,2,0:0:0:0:
206,324,49486,1,2,0:0:0:0:
414,205,50032,5,2,0:0:0:0:
451,333,50644,1,2,0:0:0:0:
258,272,51343,5,2,0:0:0:0:
279,89,52212,1,2,0:0:0:0:
60,52,53355,5,2,0:0:0:0:
100,323,54870,5,2,0:0:0:0:
100,323,56068,5,0,0:0:0:0:
100,323,56484,2,0,B|175:338|223:277|223:277|245:290|245:290|263:276|281:279,1,202.500007724762,2|0,0:0|0:0,0:0:0:0:
131,211,57318,2,0,B|81:204|81:204|57:187|57:187|2:177,2,135.000005149842,2|2|2,0:0|0:0|0:0,0:0:0:0:
319,111,58966,5,0,0:0:0:0:
290,196,59410,1,2,0:0:0:0:
230,128,59883,1,0,0:0:0:0:
256,192,68994,12,0,71660,0:0:0:0:
256,192,72327,12,0,76105,0:0:0:0:
210,235,86742,5,0,0:0:0:0:
316,209,87159,1,0,0:0:0:0:
240,130,87992,5,2,0:0:0:0:
346,104,90075,5,0,0:0:0:0:
286,314,90491,1,0,0:0:0:0:
134,157,91325,5,2,0:0:0:0:
261,193,93200,5,0,0:0:0:0:
261,193,93408,2,0,P|200:182|143:193,1,90,4|0,0:0|0:0,0:0:0:0:
39,120,93825,2,0,P|100:109|157:120,1,90,2|0,0:0|0:0,0:0:0:0:
128,112,94242,2,0,P|138:59|140:13,1,90,8|0,0:0|0:0,0:0:0:0:
318,79,94658,5,2,0:0:0:0:
152,24,94867,1,0,0:0:0:0:
221,139,95075,1,2,3:0:0:0:
221,139,95700,5,0,0:0:0:0:
221,139,95908,2,0,L|230:233,1,90,8|0,0:0|0:0,0:0:0:0:
229,228,96533,1,0,0:0:0:0:
388,297,96742,6,0,P|405:266|412:202,1,90,2|0,0:0|0:0,0:0:0:0:
341,48,97158,2,0,P|337:92|342:137,1,90,2|0,0:0|0:0,0:0:0:0:
343,138,97575,2,0,P|298:140|254:130,1,90,8|0,0:0|0:0,0:0:0:0:
95,217,97992,5,2,0:0:0:0:
248,118,98200,1,0,0:0:0:0:
83,86,98408,1,2,3:0:0:0:
83,86,99033,5,0,0:0:0:0:
15,168,99242,2,0,P|34:210|44:265,1,90,8|0,0:0|0:0,0:0:0:0:
203,166,99867,1,8,0:0:0:0:
261,250,100075,6,0,P|250:300|250:355,1,90,2|0,0:0|0:0,0:0:0:0:
336,316,100492,1,2,0:0:0:0:
423,294,100700,1,0,0:0:0:0:
370,172,100908,2,0,P|356:130|356:77,1,90,8|0,0:0|0:0,0:0:0:0:
191,182,101325,5,2,0:0:0:0:
367,82,101533,1,0,0:0:0:0:
234,36,101742,1,2,3:0:0:0:
234,36,102158,1,0,0:0:0:0:
273,133,102367,1,0,0:0:0:0:
121,109,102575,2,0,P|54:108|17:116,1,90,8|0,0:0|0:0,0:0:0:0:
120,304,102992,2,0,P|139:229|183:180,1,135,2|0,0:0|0:0,0:0:0:0:
184,202,103408,6,0,P|197:170|191:103,1,90,2|0,0:0|0:0,0:0:0:0:
106,97,103825,1,2,0:0:0:0:
286,35,104033,1,0,0:0:0:0:
336,194,104242,2,0,L|348:290,1,90,8|0,0:0|0:0,0:0:0:0:
473,233,104658,5,2,0:0:0:0:
358,293,104867,1,0,0:0:0:0:
214,317,105075,1,2,3:0:0:0:
214,317,105492,1,0,0:0:0:0:
251,217,105700,1,0,0:0:0:0:
414,351,105908,2,0,P|438:273|433:233,1,90,8|0,0:0|0:0,0:0:0:0:
137,143,106325,2,0,P|185:211|254:229,1,135,2|0,0:0|0:0,0:0:0:0:
251,217,106742,6,0,P|246:284|232:306,1,90,2|0,0:0|0:0,0:0:0:0:
150,333,107158,1,2,0:0:0:0:
64,304,107367,1,0,0:0:0:0:
330,253,107575,2,0,B|392:247|392:247|440:258,1,90,8|0,0:0|0:0,0:0:0:0:
224,172,107992,5,2,0:0:0:0:
137,195,108200,1,0,0:0:0:0:
140,54,108408,1,2,3:0:0:0:
140,54,108825,1,0,0:0:0:0:
235,70,109033,1,0,0:0:0:0:
61,125,109242,2,0,P|39:210|44:242,1,90,8|0,0:0|0:0,0:0:0:0:
209,349,109658,2,0,P|190:283|211:183,1,135,2|0,0:0|0:0,0:0:0:0:
282,267,110075,6,0,P|237:263|205:233,1,90,2|0,0:0|0:0,0:0:0:0:
201,66,110492,1,2,0:0:0:0:
271,175,110700,1,0,0:0:0:0:
124,340,110908,2,0,P|112:293|116:236,1,90,8|0,0:0|0:0,0:0:0:0:
282,182,111325,5,2,0:0:0:0:
386,342,111533,1,0,0:0:0:0:
440,248,111742,1,2,3:0:0:0:
440,248,112158,1,0,0:0:0:0:
318,266,112367,1,0,0:0:0:0:
372,151,112575,2,0,P|390:92|389:55,1,90,8|0,0:0|0:0,0:0:0:0:
216,122,112992,2,0,P|171:128|131:148,1,90,2|0,0:0|0:0,0:0:0:0:
181,287,113408,1,4,0:0:0:0:
256,192,115075,12,0,119242,0:0:0:0:
118,248,120075,6,0,P|165:206|299:242,1,180,4|2,0:0|0:0,0:0:0:0:
212,312,120700,1,0,0:0:0:0:
284,209,120908,2,0,P|200:183|117:231,1,180,8|0,0:0|0:0,0:0:0:0:
80,331,121533,1,0,0:0:0:0:
48,102,121742,2,0,P|132:104|226:49,1,180,2|2,0:0|0:0,0:0:0:0:
336,123,122367,1,0,0:0:0:0:
135,223,122575,2,0,P|70:226|14:237,1,90,8|0,0:0|0:0,0:0:0:0:
290,333,122992,1,0,0:0:0:0:
435,214,123200,1,0,0:0:0:0:
301,100,123408,6,0,B|215:69|215:137|125:103,1,180,2|2,0:0|0:0,0:0:0:0:
168,19,124033,1,0,0:0:0:0:
261,206,124242,2,0,P|267:262|251:324,1,90,8|0,0:0|0:0,0:0:0:0:
142,322,124658,1,0,0:0:0:0:
403,305,124867,1,0,0:0:0:0:
121,177,125075,2,0,P|37:168|-4:171,1,90,2|0,0:0|0:0,0:0:0:0:
271,111,125492,2,0,P|303:66|317:13,1,90,2|0,0:0|0:0,0:0:0:0:
392,256,125908,1,8,0:0:0:0:
316,171,126117,1,0,0:0:0:0:
267,347,126325,1,2,0:0:0:0:
220,255,126533,1,0,0:0:0:0:
285,241,126637,1,0,0:0:0:0:
351,227,126742,6,0,P|363:184|359:140,1,90,2|0,0:0|0:0,0:0:0:0:
157,154,127158,2,0,P|113:162|69:161,1,90,2|0,0:0|0:0,0:0:0:0:
306,328,127575,2,0,P|292:286|285:241,1,90,8|0,0:0|0:0,0:0:0:0:
359,42,127991,2,0,P|390:132|450:145,1,135,2|0,0:0|0:0,0:0:0:0:
477,267,128408,6,0,P|430:270|386:258,1,90,2|0,0:0|0:0,0:0:0:0:
105,99,128825,2,0,P|104:188|143:269,1,180,2|8,3:0|0:0,0:0:0:0:
374,272,129450,1,2,0:0:0:0:
160,277,129658,1,2,3:0:0:0:
228,183,129866,1,0,0:0:0:0:
228,183,130075,6,0,B|235:128|235:128|225:94|225:94|229:50,1,135.000005149842,2|0,0:0|0:0,0:0:0:0:
326,71,130492,2,0,P|266:82|210:59,1,90,2|0,0:0|0:0,0:0:0:0:
109,219,130908,2,0,P|95:258|94:307,1,90,8|0,0:0|0:0,0:0:0:0:
310,206,131325,1,2,0:0:0:0:
222,285,131533,1,0,0:0:0:0:
143,69,131741,5,0,0:0:0:0:
143,69,132158,1,2,0:0:0:0:
143,69,132575,1,0,0:0:0:0:
456,267,132783,1,8,0:0:0:0:
360,292,132992,1,2,0:0:0:0:
268,316,133200,2,0,L|277:359,2,33.7500012874604,0|0|0,1:0|1:0|1:0,1:0:0:0:
235,295,133408,6,0,P|219:253|232:200,1,90,4|0,0:0|0:0,0:0:0:0:
310,246,133825,1,2,0:0:0:0:
77,188,134033,1,0,0:0:0:0:
155,101,134242,2,0,P|163:42|154:-8,1,90,8|0,0:0|0:0,0:0:0:0:
329,257,134658,2,0,P|390:274|447:262,1,90,2|0,0:0|0:0,0:0:0:0:
394,87,135075,6,0,P|394:157|401:189,1,90,2|0,0:0|0:0,0:0:0:0:
217,317,135492,1,2,0:0:0:0:
254,158,135700,1,0,0:0:0:0:
90,240,135908,2,0,P|52:262|8:269,1,90,8|0,0:0|0:0,0:0:0:0:
105,20,136325,2,0,P|140:75|140:122,1,90,2|0,0:0|0:0,0:0:0:0:
290,338,136742,6,0,P|359:344|412:330,1,90,2|0,0:0|0:0,0:0:0:0:
448,231,137158,1,2,0:0:0:0:
86,98,137367,1,0,0:0:0:0:
170,302,137575,1,8,0:0:0:0:
204,184,137783,1,0,0:0:0:0:
52,228,137992,2,0,P|29:308|41:340,1,90,2|0,0:0|0:0,0:0:0:0:
341,124,138408,6,0,P|424:114|458:120,1,90,2|0,0:0|0:0,0:0:0:0:
406,240,138825,1,2,0:0:0:0:
332,20,139033,1,0,0:0:0:0:
225,347,139242,1,8,0:0:0:0:
65,186,139450,1,0,0:0:0:0:
264,169,139658,1,2,0:0:0:0:
176,269,139867,1,0,0:0:0:0:
155,100,140075,6,0,P|152:38|163:0,1,90,2|0,0:0|0:0,0:0:0:0:
386,150,140492,2,0,P|441:178|468:207,1,90,2|0,0:0|0:0,0:0:0:0:
226,325,140908,2,0,P|174:359|136:368,1,90,8|0,0:0|0:0,0:0:0:0:
263,108,141325,2,0,P|274:174|235:238,1,135,2|0,3:0|0:0,0:0:0:0:
61,191,141742,6,0,P|110:168|152:183,1,90,2|0,0:0|0:0,0:0:0:0:
336,353,142158,2,0,P|314:299|319:255,1,90,2|0,0:0|0:0,0:0:0:0:
440,150,142575,1,8,0:0:0:0:
328,260,142783,1,2,0:0:0:0:
221,66,142992,1,2,3:0:0:0:
358,116,143200,1,0,0:0:0:0:
130,203,143408,6,0,P|85:204|33:213,1,90,2|0,0:0|0:0,0:0:0:0:
340,103,143825,2,0,P|427:106|450:102,1,90,2|0,0:0|0:0,0:0:0:0:
120,98,144242,2,0,L|127:209,1,90,8|0,0:0|0:0,0:0:0:0:
386,330,144658,2,0,P|349:281|251:273,1,135,2|0,3:0|0:0,0:0:0:0:
156,364,145075,6,0,P|143:306|146:253,1,90,2|0,0:0|0:0,0:0:0:0:
212,184,145492,2,0,P|219:122|212:73,1,90,2|0,0:0|0:0,0:0:0:0:
113,144,145908,1,8,0:0:0:0:
366,64,146117,1,2,0:0:0:0:
344,325,146325,1,2,0:0:0:0:
301,206,146533,2,0,L|304:181,4,22.5,0|0|0|0|0,1:0|1:0|1:0|1:0|1:0,1:0:0:0:
