osu file format v14

[General]
AudioFilename: audio.mp3
AudioLeadIn: 0
PreviewTime: 90514
Countdown: 0
SampleSet: Soft
StackLeniency: 0.7
Mode: 0
LetterboxInBreaks: 0
SkinPreference:Default
WidescreenStoryboard: 1

[Editor]
Bookmarks: 101481,106967
DistanceSpacing: 1.2
BeatDivisor: 4
GridSize: 4
TimelineZoom: 2.800005

[Metadata]
Title:Somebody (Cc.K Remix Edit) (Nightcore Mix)
TitleUnicode:Somebody (Cc.K Remix Edit) (Nightcore Mix)
Artist:Jens O.
ArtistUnicode:Jens O.
Creator:Appetible
Version:Normal
Source:
Tags:Appe Leomine LeomineXD Hands Up Hard Trance Techno Electronic English
BeatmapID:3494663
BeatmapSetID:1710258

[Difficulty]
HPDrainRate:4
CircleSize:3.5
OverallDifficulty:5
ApproachRate:6
SliderMultiplier:0.999999999999999
SliderTickRate:1

[Events]
//Background and Video events
0,0,"sfondoandrea.jpg",0,0
//Break Periods
2,101681,105917
//Storyboard Layer 0 (Background)
//Storyboard Layer 1 (Fail)
//Storyboard Layer 2 (Pass)
//Storyboard Layer 3 (Foreground)
//Storyboard Layer 4 (Overlay)
//Storyboard Sound Samples

[TimingPoints]
-4,342.857142857143,4,2,1,80,1,0
13710,-100,4,2,1,65,0,0
24681,-100,4,2,2,70,0,0
35653,-100,4,2,1,75,0,0
43881,-100,4,2,1,72,0,0
44224,-100,4,2,1,69,0,0
44567,-100,4,2,1,66,0,0
44910,-100,4,2,1,63,0,0
45253,-100,4,2,1,60,0,0
46624,-100,4,2,1,80,0,1
56224,-100,4,2,1,72,0,0
57938,-100,4,2,1,80,0,1
65824,-100,4,2,1,80,0,0
67196,-100,4,2,1,70,0,0
68567,-100,4,2,1,72,0,0
78167,-100,4,2,1,68,0,0
79538,-100,4,2,1,75,0,0
87767,-100,4,2,1,68,0,0
87853,-100,4,2,2,68,0,0
90510,-100,4,2,2,78,0,0
93253,-100,4,2,2,75,0,0
101481,-100,4,2,2,71,0,0
106967,-100,4,2,1,78,0,0
112453,-100,4,2,1,80,0,1
122053,-100,4,2,1,72,0,0
123424,-100,4,2,1,80,0,1
131653,-100,4,2,1,78,0,0
131996,-100,4,2,1,76,0,0
132338,-100,4,2,1,74,0,0
132681,-100,4,2,1,72,0,0
133024,-100,4,2,1,68,0,0
133367,-100,4,2,1,64,0,0
133710,-100,4,2,2,70,0,0
134396,-100,4,2,2,80,0,1
145367,-100,4,2,1,78,0,0
145710,-100,4,2,1,74,0,0
146053,-100,4,2,1,70,0,0
146396,-100,4,2,1,66,0,0
146738,-100,4,2,1,62,0,0
147081,-100,4,2,1,58,0,0
147424,-100,4,2,1,54,0,0
147767,-100,4,2,1,50,0,0
148110,-100,4,2,1,5,0,0

[Colours]
Combo1 : 250,180,133
Combo2 : 247,157,224
Combo3 : 133,186,250

[HitObjects]
188,192,13710,5,4,0:3:0:0:
256,120,14053,2,0,L|256:20,2,99.9999999999999,2|2|2,2:2|2:2|2:2,0:0:0:0:
306,120,14910,2,0,B|355:111|355:111|404:120,1,99.9999999999999,2|2,2:2|2:2,0:0:0:0:
256,256,15938,2,0,L|256:312,2,50,2|2|2,2:2|2:2|2:2,0:0:0:0:
205,256,16453,6,0,B|155:264|155:264|106:256,2,99.9999999999999,2|2|2,0:1|2:2|0:1,0:0:0:0:
280,192,17481,1,2,2:2:0:0:
330,192,17653,2,0,B|365:168|400:186|400:192|400:197|436:215|471:192,1,150,2|2,2:2|2:2,0:0:0:0:
471,142,18338,2,0,L|471:42,1,99.9999999999999,2|2,2:2|2:2,0:0:0:0:
320,42,19196,5,2,0:1:0:0:
256,120,19538,2,0,B|207:120|207:120|173:81,2,99.9999999999999,2|2|2,2:2|2:2|2:2,0:0:0:0:
300,144,20396,2,0,B|313:192|313:192|300:240,1,99.9999999999999,2|2,2:2|2:2,0:0:0:0:
104,192,21424,2,0,L|54:192,2,50,2|2|2,2:2|2:2|2:2,0:0:0:0:
104,141,21938,6,0,P|88:94|104:47,2,99.9999999999999,2|2|2,0:1|2:2|0:1,0:0:0:0:
192,192,22967,1,2,2:2:0:0:
192,192,23138,2,0,L|256:268,1,99.9999999999999,2|2,2:2|2:2,0:0:0:0:
406,268,23996,2,0,L|470:192,1,99.9999999999999,2|2,0:1|2:2,0:0:0:0:
470,91,24681,5,0,3:3:0:0:
399,20,25024,2,0,L|349:20,1,50,2|0,2:2|0:0,0:0:0:0:
323,63,25367,2,0,P|337:110|322:157,1,99.9999999999999,2|2,3:2|2:2,0:0:0:0:
287,192,25881,2,0,P|272:239|287:286,2,99.9999999999999,2|2|0,2:2|2:2|0:0,0:0:0:0:
186,192,26910,1,2,2:2:0:0:
186,192,27081,2,0,L|137:192,1,50,2|2,2:2|2:2,0:0:0:0:
85,192,27424,6,0,L|85:292,2,99.9999999999999,0|2|2,3:3|2:2|3:2,0:0:0:0:
106,93,28453,1,2,2:2:0:0:
106,93,28624,2,0,L|206:93,1,99.9999999999999,2|2,2:2|2:2,0:0:0:0:
256,93,29138,1,2,2:2:0:0:
306,93,29310,2,0,L|406:93,1,99.9999999999999,2|2,2:2|2:2,0:0:0:0:
512,192,30167,5,0,3:3:0:0:
468,282,30510,2,0,L|468:332,1,50,2|0,2:2|0:0,0:0:0:0:
432,367,30853,2,0,P|385:351|338:366,1,99.9999999999999,2|2,3:2|2:2,0:0:0:0:
303,331,31367,2,0,P|256:346|209:330,2,99.9999999999999,2|2|0,2:2|2:2|0:0,0:0:0:0:
256,243,32396,1,2,2:2:0:0:
256,243,32567,2,0,L|256:193,1,50,2|2,2:2|2:2,0:0:0:0:
256,142,32910,6,0,B|247:92|247:92|256:43,1,99.9999999999999,0|2,3:3|2:2,0:0:0:0:
356,43,33596,2,0,B|364:92|364:92|356:141,1,99.9999999999999,2|2,3:2|2:2,0:0:0:0:
355,192,34110,1,2,2:2:0:0:
356,242,34281,2,0,B|364:291|364:291|356:341,1,99.9999999999999,0|2,3:3|2:2,0:0:0:0:
256,340,34967,2,0,B|247:291|247:291|256:242,1,99.9999999999999,2|2,3:2|2:2,0:0:0:0:
256,141,35653,6,0,B|156:141,1,99.9999999999999,12|10,1:2|2:2,0:0:0:0:
105,141,36167,1,2,2:2:0:0:
55,141,36338,2,0,L|55:92,1,50,10|0,2:2|0:0,0:0:0:0:
131,26,36853,1,2,2:2:0:0:
131,26,37024,2,0,L|231:26,1,99.9999999999999,10|10,2:2|2:2,0:0:0:0:
281,26,37538,2,0,L|381:26,1,99.9999999999999,2|2,2:2|2:2,0:0:0:0:
481,26,38224,1,2,1:2:0:0:
481,26,38396,6,0,P|465:72|481:119,1,99.9999999999999,8|10,2:2|2:2,0:0:0:0:
446,155,38910,1,2,2:2:0:0:
480,192,39081,2,0,L|480:242,1,50,10|0,2:2|0:0,0:0:0:0:
409,312,39596,1,2,2:2:0:0:
373,276,39767,2,0,B|337:242|337:242|337:192,1,99.9999999999999,10|10,2:2|2:2,0:0:0:0:
256,136,40453,2,0,L|256:86,2,50,8|2|10,2:2|2:2|2:2,0:0:0:0:
175,192,41138,6,0,B|175:242|175:242|139:276,1,99.9999999999999,12|10,2:2|2:2,0:0:0:0:
174,312,41653,1,2,2:2:0:0:
209,347,41824,2,0,L|258:347,1,50,10|0,2:2|0:0,0:0:0:0:
329,276,42338,1,2,2:2:0:0:
329,276,42510,2,0,L|410:216,1,99.9999999999999,10|10,2:2|2:2,0:0:0:0:
407,166,43024,2,0,L|326:106,1,99.9999999999999,2|2,2:2|2:2,0:0:0:0:
256,40,43710,1,2,2:2:0:0:
256,40,43881,6,0,P|209:24|162:39,1,99.9999999999999,10|10,1:2|1:2,0:0:0:0:
162,90,44396,1,2,1:2:0:0:
162,139,44567,2,0,P|208:154|255:138,1,99.9999999999999,10|10,1:2|1:2,0:0:0:0:
344,192,45253,2,0,L|344:246,1,50,10|0,1:2|1:1,0:0:0:0:
344,292,45596,2,0,L|344:346,1,50,0|0,1:1|1:1,0:0:0:0:
393,342,45938,1,0,1:1:0:0:
192,342,46624,6,0,B|161:342|161:342|122:342|98:317,1,99.9999999999999,4|2,1:2|1:2,0:0:0:0:
54,292,47138,1,2,2:2:0:0:
54,241,47310,2,0,L|54:192,1,50,2|0,1:2|0:0,0:0:0:0:
124,120,47824,1,2,2:2:0:0:
174,120,47996,2,0,L|256:64,1,99.9999999999999,2|2,1:2|1:2,0:0:0:0:
306,63,48510,2,0,B|329:57|329:57|353:63,1,50,2|0,2:2|1:1,0:0:0:0:
404,63,48853,1,2,2:2:0:0:
463,143,49196,1,2,2:2:0:0:
463,192,49367,6,0,P|478:238|463:285,1,99.9999999999999,2|2,1:2|1:2,0:0:0:0:
412,285,49881,1,2,2:2:0:0:
361,285,50053,2,0,L|361:335,1,50,2|0,1:2|0:0,0:0:0:0:
256,335,50567,1,2,2:2:0:0:
206,335,50738,2,0,L|157:335,1,50,2|2,1:2|2:2,0:0:0:0:
105,335,51081,2,0,L|56:335,1,50,2|2,1:2|2:2,0:0:0:0:
26,293,51424,2,0,L|26:244,1,50,2|2,1:2|2:2,0:0:0:0:
26,192,51767,1,2,1:2:0:0:
126,192,52110,6,0,B|176:192|176:192|213:158,1,99.9999999999999,4|10,1:2|2:2,0:0:0:0:
256,132,52624,1,2,2:2:0:0:
298,158,52796,2,0,L|335:192,1,50,2|0,1:2|0:0,0:0:0:0:
416,254,53310,1,2,2:2:0:0:
416,303,53481,2,0,B|390:325|390:362|390:362|356:362,1,99.9999999999999,2|10,1:2|2:2,0:0:0:0:
306,362,53996,2,0,L|256:362,1,50,2|0,2:2|1:1,0:0:0:0:
256,312,54338,1,2,2:2:0:0:
256,211,54681,1,2,2:2:0:0:
256,160,54853,6,0,B|256:129|240:113|240:113|256:98|256:67,1,99.9999999999999,2|10,1:2|2:2,0:0:0:0:
306,67,55367,1,2,2:2:0:0:
355,67,55538,2,0,L|404:67,1,50,2|0,1:2|0:0,0:0:0:0:
475,137,56053,1,2,1:2:0:0:
475,137,56224,2,0,B|424:192|424:192|475:247,2,150,2|2|2,2:2|1:2|2:2,0:0:0:0:
404,67,57596,1,2,0:1:0:0:
305,67,57938,6,0,L|256:67,1,50,12|2,1:2|2:2,0:0:0:0:
204,67,58281,2,0,L|155:67,1,50,2|0,1:2|0:0,0:0:0:0:
58,96,58796,1,2,2:2:0:0:
58,145,58967,2,0,P|73:191|57:238,1,99.9999999999999,2|10,1:2|2:2,0:0:0:0:
57,288,59481,2,0,L|106:288,1,50,2|0,2:2|1:1,0:0:0:0:
157,288,59824,1,2,2:2:0:0:
256,288,60167,1,2,2:2:0:0:
305,288,60338,6,0,P|351:303|398:288,1,99.9999999999999,6|10,1:2|2:2,0:0:0:0:
398,237,60853,1,2,2:2:0:0:
398,187,61024,2,0,L|398:137,1,50,2|0,1:2|0:0,0:0:0:0:
398,36,61538,1,2,2:2:0:0:
347,36,61710,2,0,B|322:36|322:36|303:52,1,50,2|2,1:2|2:2,0:0:0:0:
279,97,62053,2,0,B|255:104|255:104|232:97,1,50,10|2,2:2|2:2,0:0:0:0:
208,52,62396,2,0,B|190:36|190:36|165:36,1,50,2|2,1:2|2:2,0:0:0:0:
114,36,62738,1,10,2:2:0:0:
43,106,63081,6,0,L|93:192,1,99.9999999999999,4|10,1:2|2:2,0:0:0:0:
93,242,63596,1,2,2:2:0:0:
93,291,63767,2,0,L|93:341,1,50,2|0,1:2|0:0,0:0:0:0:
193,341,64281,1,2,2:2:0:0:
206,292,64453,2,0,L|306:292,1,99.9999999999999,2|10,1:2|2:2,0:0:0:0:
319,341,64967,2,0,L|419:341,1,99.9999999999999,2|2,2:2|2:2,0:0:0:0:
419,240,65653,1,2,2:2:0:0:
419,240,65824,6,0,P|374:221|329:240,1,99.9999999999999,6|10,1:2|2:2,0:0:0:0:
301,123,66510,2,0,P|256:141|211:123,1,99.9999999999999,2|8,1:2|2:2,0:0:0:0:
183,240,67196,1,0,1:1:0:0:
96,240,68567,6,0,B|81:192|81:192|96:144,1,99.9999999999999,4|0,1:2|1:1,0:0:0:0:
203,144,69253,1,2,1:2:0:0:
309,144,69596,1,0,1:1:0:0:
416,144,69938,2,0,B|430:192|430:192|416:240,1,99.9999999999999,2|0,1:1|1:1,0:0:0:0:
486,310,70624,1,2,1:2:0:0:
415,380,70967,1,0,1:1:0:0:
345,309,71310,6,0,P|300:328|255:308,1,99.9999999999999,2|0,1:1|1:1,0:0:0:0:
180,241,71996,1,2,1:2:0:0:
180,143,72338,1,0,1:1:0:0:
255,75,72681,2,0,P|300:55|345:75,1,99.9999999999999,2|0,1:1|1:1,0:0:0:0:
419,143,73367,1,2,1:2:0:0:
419,241,73709,1,0,1:1:0:0:
345,310,74053,6,0,P|300:290|255:310,1,99.9999999999999,2|8,1:1|2:2,0:0:0:0:
205,310,74567,1,2,2:2:0:0:
155,310,74738,2,0,P|110:329|65:310,1,99.9999999999999,2|8,1:2|2:2,0:0:0:0:
0,237,75424,2,0,P|-19:192|0:147,1,99.9999999999999,2|8,1:1|2:2,0:0:0:0:
30,108,75938,1,2,2:2:0:0:
65,73,76110,2,0,P|110:54|155:74,1,99.9999999999999,0|8,1:1|2:2,0:0:0:0:
212,156,76796,2,0,P|256:175|301:156,1,99.9999999999999,2|8,1:1|2:2,0:0:0:0:
336,121,77310,1,2,2:2:0:0:
371,85,77481,2,0,P|415:65|460:85,1,99.9999999999999,2|8,1:2|2:2,0:0:0:0:
460,192,78167,5,2,0:1:0:0:
39,36,79538,6,0,B|39:62|17:79|17:79|39:95|39:122,1,99.9999999999999,4|8,1:2|2:2,0:0:0:0:
74,157,80053,1,2,2:2:0:0:
109,192,80224,2,0,B|135:192|152:213|152:213|168:192|195:192,1,99.9999999999999,2|8,1:2|2:2,0:0:0:0:
256,112,80910,2,0,B|303:96|303:96|350:112,1,99.9999999999999,2|8,1:1|2:2,0:0:0:0:
445,145,81596,2,0,B|460:192|460:192|445:239,1,99.9999999999999,2|8,1:2|2:2,0:0:0:0:
350,272,82281,6,0,B|303:287|303:287|256:272,1,99.9999999999999,2|8,1:1|2:2,0:0:0:0:
220,307,82796,1,2,2:2:0:0:
184,342,82967,2,0,B|136:326|136:326|89:342,1,99.9999999999999,2|8,1:2|2:2,0:0:0:0:
14,274,83653,2,0,L|108:241,1,99.9999999999999,2|8,1:1|2:2,0:0:0:0:
108,142,84338,2,0,L|14:110,1,99.9999999999999,2|8,1:2|2:2,0:0:0:0:
89,42,85024,6,0,B|136:26|136:26|183:42,1,99.9999999999999,4|8,1:2|2:2,0:0:0:0:
219,77,85538,1,2,2:2:0:0:
256,112,85710,2,0,B|307:112|307:112|343:144,1,99.9999999999999,2|8,1:2|2:2,0:0:0:0:
343,239,86396,2,0,B|307:272|307:272|256:272,1,99.9999999999999,2|8,1:1|2:2,0:0:0:0:
183,342,87082,2,0,B|136:357|136:357|89:342,1,99.9999999999999,2|8,1:2|2:2,0:0:0:0:
88,239,87767,6,0,P|72:192|87:145,1,99.9999999999999,2|0,1:1|0:0,0:0:0:0:
123,110,88281,2,0,L|172:110,1,50,0|8,1:1|2:2,0:0:0:0:
424,145,89138,2,0,P|440:192|425:239,1,99.9999999999999,2|0,1:1|0:0,0:0:0:0:
389,274,89652,2,0,L|340:274,1,50,2|8,0:0|2:2,0:0:0:0:
213,192,90338,5,2,2:2:0:0:
213,192,90510,2,0,L|163:192,1,50,4|0,3:2|0:0,0:0:0:0:
112,192,90853,2,0,B|67:192|67:192|59:184|59:184|15:184,2,99.9999999999999,2|2|2,2:2|2:2|2:2,0:0:0:0:
112,141,91710,2,0,B|112:96|112:96|104:88|104:88|104:44,1,99.9999999999999,2|2,2:2|2:2,0:0:0:0:
256,44,92567,1,8,2:2:0:0:
256,44,92738,2,0,L|311:44,2,50,2|2|2,2:2|2:2|2:2,0:0:0:0:
256,94,93253,6,0,B|256:147|256:147|303:147,1,99.9999999999999,4|2,3:2|2:2,0:0:0:0:
303,237,93938,2,0,B|256:237|256:237|256:290,1,99.9999999999999,10|2,2:2|3:2,0:0:0:0:
155,290,94624,2,0,B|155:237|155:237|108:237,1,99.9999999999999,0|2,3:3|2:2,0:0:0:0:
108,147,95310,2,0,B|155:147|155:147|155:94,1,99.9999999999999,8|0,2:2|0:0,0:0:0:0:
256,94,95996,5,4,3:2:0:0:
357,94,96338,2,0,B|402:94|402:94|410:86|410:86|454:86,2,99.9999999999999,2|10|2,2:2|2:2|2:2,0:0:0:0:
357,144,97196,2,0,B|357:189|357:189|365:197|365:197|365:241,1,99.9999999999999,2|2,2:2|2:2,0:0:0:0:
256,335,98053,1,8,2:2:0:0:
256,335,98224,2,0,L|207:335,2,50,2|2|2,2:2|2:2|2:2,0:0:0:0:
306,335,98738,6,0,P|323:289|305:243,1,99.9999999999999,4|2,3:2|2:2,0:0:0:0:
305,140,99424,2,0,P|323:94|306:49,1,99.9999999999999,10|2,2:2|3:2,0:0:0:0:
256,49,99938,2,0,P|210:31|164:49,1,99.9999999999999,2|2,2:2|2:2,0:0:0:0:
122,192,100796,2,0,L|22:192,1,99.9999999999999,10|2,2:2|2:2,0:0:0:0:
22,292,101481,1,4,3:2:0:0:
256,192,106967,12,8,111081,1:2:0:0:
209,83,112453,6,0,P|255:67|302:83,1,99.9999999999999,4|2,1:2|1:2,0:0:0:0:
352,83,112967,1,2,2:2:0:0:
401,83,113138,2,0,L|401:137,1,50,2|0,1:2|0:0,0:0:0:0:
480,192,113653,1,2,2:2:0:0:
480,241,113824,2,0,L|480:341,1,99.9999999999999,2|2,1:2|1:2,0:0:0:0:
429,341,114338,2,0,B|405:335|405:335|381:341,1,50,2|0,2:2|1:1,0:0:0:0:
345,305,114681,1,2,2:2:0:0:
256,260,115024,1,2,2:2:0:0:
210,239,115196,6,0,P|194:192|209:145,1,99.9999999999999,2|2,1:2|1:2,0:0:0:0:
174,110,115710,1,2,2:2:0:0:
138,74,115881,2,0,L|106:33,1,50,2|0,1:2|0:0,0:0:0:0:
6,34,116396,1,2,2:2:0:0:
6,83,116567,2,0,L|6:133,1,50,2|2,1:2|2:2,0:0:0:0:
41,168,116910,2,0,L|41:218,1,50,2|2,1:2|2:2,0:0:0:0:
6,251,117253,2,0,L|6:301,1,50,2|2,1:2|2:2,0:0:0:0:
6,350,117596,1,2,1:2:0:0:
105,350,117938,6,0,B|205:350,1,99.9999999999999,4|10,1:2|2:2,0:0:0:0:
256,350,118453,1,2,2:2:0:0:
307,350,118624,2,0,B|357:350,1,50,2|0,1:2|0:0,0:0:0:0:
457,350,119138,1,2,2:2:0:0:
457,299,119310,2,0,P|472:252|456:205,1,99.9999999999999,2|10,1:2|2:2,0:0:0:0:
421,170,119824,2,0,B|415:146|415:146|420:122,1,50,2|0,2:2|1:1,0:0:0:0:
456,86,120167,1,2,2:2:0:0:
385,15,120510,1,2,2:2:0:0:
349,50,120681,6,0,B|301:50|301:50|256:75,1,99.9999999999999,2|10,1:2|2:2,0:0:0:0:
219,110,121196,1,2,2:2:0:0:
169,110,121367,2,0,L|118:110,1,50,2|0,1:2|0:0,0:0:0:0:
64,192,121881,1,2,2:2:0:0:
64,242,122053,2,0,L|64:292,2,50,2|2|8,1:2|1:2|2:2,0:0:0:0:
160,242,122738,2,0,L|160:292,2,50,2|2|10,2:2|1:2|2:2,0:0:0:0:
257,242,123424,6,0,B|292:242|292:242|322:242|347:271,1,99.9999999999999,4|10,1:2|2:2,0:0:0:0:
383,306,123938,1,2,2:2:0:0:
418,341,124110,2,0,L|468:341,1,50,2|0,1:2|0:0,0:0:0:0:
468,240,124624,1,2,2:2:0:0:
503,204,124796,2,0,B|516:156|516:156|503:108,1,99.9999999999999,2|10,1:2|2:2,0:0:0:0:
467,72,125310,2,0,L|434:29,1,50,2|0,2:2|1:1,0:0:0:0:
386,32,125653,1,2,2:2:0:0:
315,102,125996,1,2,2:2:0:0:
265,102,126167,6,0,B|236:102|236:102|202:102|176:69,1,99.9999999999999,6|10,1:2|2:2,0:0:0:0:
140,33,126681,1,2,2:2:0:0:
89,33,126853,2,0,L|32:33,1,50,2|0,1:2|0:0,0:0:0:0:
39,133,127367,1,2,2:2:0:0:
74,168,127538,2,0,P|68:192|74:216,1,50,2|2,1:2|2:2,0:0:0:0:
109,251,127881,2,0,P|103:275|109:299,1,50,10|2,2:2|2:2,0:0:0:0:
144,334,128224,2,0,P|138:358|144:382,1,50,2|2,1:2|2:2,0:0:0:0:
194,382,128567,1,10,2:2:0:0:
256,304,128910,6,0,L|333:236,1,99.9999999999999,4|10,1:2|2:2,0:0:0:0:
352,192,129424,1,2,2:2:0:0:
330,146,129596,2,0,L|330:96,1,50,2|0,1:2|0:0,0:0:0:0:
256,32,130110,1,2,2:2:0:0:
206,32,130281,2,0,B|156:32|156:32|125:71,1,99.9999999999999,2|10,1:2|2:2,0:0:0:0:
79,93,130796,2,0,L|79:142,1,50,2|0,2:2|1:1,0:0:0:0:
79,192,131138,1,2,2:2:0:0:
149,262,131481,1,2,2:2:0:0:
149,262,131653,6,0,P|196:258|211:213,1,99.9999999999999,12|10,1:2|2:2,0:0:0:0:
256,184,132167,1,10,2:2:0:0:
300,213,132338,2,0,P|315:258|362:262,1,99.9999999999999,10|8,2:2|2:2,0:0:0:0:
432,192,133024,2,0,L|432:142,1,50,8|0,2:2|1:1,0:0:0:0:
467,106,133367,2,0,L|467:56,1,50,8|0,2:2|1:1,0:0:0:0:
431,20,133710,2,0,B|386:20|386:20|378:12|378:12|334:12,1,99.9999999999999,2|0,1:1|0:0,0:0:0:0:
256,75,134396,6,0,L|207:75,1,50,4|0,3:2|0:0,0:0:0:0:
156,75,134738,1,2,2:2:0:0:
55,75,135081,2,0,B|55:124|55:124|13:157,1,99.9999999999999,10|2,2:2|2:2,0:0:0:0:
14,255,135767,2,0,L|66:255,1,50,0|2,3:3|2:2,0:0:0:0:
99,290,136110,1,2,0:0:0:0:
203,290,136453,1,10,2:2:0:0:
203,345,136624,2,0,L|309:345,1,99.9999999999999,2|2,2:2|2:2,0:0:0:0:
353,368,137138,6,0,B|376:362|376:362|400:368,1,50,0|0,3:3|0:0,0:0:0:0:
436,332,137481,2,0,B|442:306|442:306|436:283,1,50,2|0,3:2|0:0,0:0:0:0:
471,248,137824,1,10,2:2:0:0:
388,192,138167,1,2,2:2:0:0:
338,192,138338,1,2,2:2:0:0:
302,156,138510,2,0,L|256:68,1,99.9999999999999,0|2,3:3|2:2,0:0:0:0:
154,67,139196,2,0,L|92:67,1,50,8|2,2:2|2:2,0:0:0:0:
68,102,139538,1,2,2:2:0:0:
24,192,139881,5,4,3:2:0:0:
24,291,140224,2,0,L|75:291,1,50,2|0,2:2|0:0,0:0:0:0:
109,326,140567,2,0,L|160:326,1,50,10|0,2:2|0:0,0:0:0:0:
256,326,141081,1,2,2:2:0:0:
306,326,141253,2,0,B|329:320|329:320|353:326,1,50,0|2,3:3|2:2,0:0:0:0:
389,290,141596,1,0,0:0:0:0:
472,254,141938,1,10,2:2:0:0:
472,203,142110,2,0,L|403:132,1,99.9999999999999,2|2,2:2|2:2,0:0:0:0:
352,131,142624,6,0,B|352:84|352:84|307:56,1,99.9999999999999,0|2,3:3|2:2,0:0:0:0:
256,56,143138,1,2,0:0:0:0:
205,56,143310,2,0,B|160:84|160:84|160:131,1,99.9999999999999,10|2,2:2|2:2,0:0:0:0:
150,230,143996,2,0,P|191:256|206:303,1,99.9999999999999,0|2,3:3|0:0,0:0:0:0:
256,303,144510,1,2,0:0:0:0:
305,303,144681,2,0,P|320:256|361:229,1,99.9999999999999,10|2,2:2|2:2,0:0:0:0:
396,192,145196,1,2,3:2:0:0:
256,192,145367,12,0,148110,0:0:0:0:
