osu file format v14

[General]
AudioFilename: audio.mp3
AudioLeadIn: 0
PreviewTime: 90514
Countdown: 0
SampleSet: Soft
StackLeniency: 0.7
Mode: 0
LetterboxInBreaks: 0
SkinPreference:Default
WidescreenStoryboard: 1

[Editor]
Bookmarks: 101481,106967
DistanceSpacing: 1.2
BeatDivisor: 4
GridSize: 8
TimelineZoom: 3.799999

[Metadata]
Title:Somebody (Cc.K Remix Edit) (Nightcore Mix)
TitleUnicode:Somebody (Cc.K Remix Edit) (Nightcore Mix)
Artist:Jens O.
ArtistUnicode:Jens O.
Creator:Appetible
Version:Forever
Source:
Tags:Appe Leomine LeomineXD Hands Up Hard Trance Techno Electronic English
BeatmapID:3494661
BeatmapSetID:1710258

[Difficulty]
HPDrainRate:6
CircleSize:4
OverallDifficulty:7.5
ApproachRate:9
SliderMultiplier:1.8
SliderTickRate:2

[Events]
//Background and Video events
0,0,"sfondoandrea.jpg",0,0
//Break Periods
2,101681,106367
//Storyboard Layer 0 (Background)
//Storyboard Layer 1 (Fail)
//Storyboard Layer 2 (Pass)
//Storyboard Layer 3 (Foreground)
//Storyboard Layer 4 (Overlay)
//Storyboard Sound Samples

[TimingPoints]
-4,342.857142857143,4,2,1,80,1,0
13710,-125,4,2,1,65,0,0
24681,-125,4,2,2,70,0,0
35653,-100,4,2,1,75,0,0
43881,-100,4,2,1,72,0,0
44224,-100,4,2,1,69,0,0
44567,-100,4,2,1,66,0,0
44910,-100,4,2,1,63,0,0
45253,-100,4,2,1,60,0,0
46624,-90.9090909090909,4,2,1,80,0,1
56224,-100,4,2,1,72,0,0
57938,-90.9090909090909,4,2,1,80,0,1
65824,-100,4,2,1,80,0,0
67196,-100,4,2,1,70,0,0
68567,-100,4,2,1,72,0,0
78167,-100,4,2,1,68,0,0
79538,-100,4,2,1,75,0,0
87767,-100,4,2,1,68,0,0
87853,-100,4,2,2,68,0,0
90510,-100,4,2,2,78,0,0
93253,-100,4,2,2,75,0,0
101481,-100,4,2,2,71,0,0
106967,-100,4,2,1,78,0,0
112453,-90.9090909090909,4,2,1,80,0,1
122053,-100,4,2,1,72,0,0
123424,-90.9090909090909,4,2,1,80,0,1
131653,-100,4,2,1,78,0,0
131738,-100,4,2,1,5,0,0
131824,-100,4,2,1,78,0,0
131910,-100,4,2,1,5,0,0
131996,-100,4,2,1,76,0,0
132081,-100,4,2,1,5,0,0
132167,-100,4,2,1,76,0,0
132253,-100,4,2,1,5,0,0
132338,-100,4,2,1,74,0,0
132424,-100,4,2,1,5,0,0
132510,-100,4,2,1,74,0,0
132596,-100,4,2,1,5,0,0
132681,-100,4,2,1,72,0,0
132767,-100,4,2,1,5,0,0
132853,-100,4,2,1,72,0,0
132938,-100,4,2,1,5,0,0
133024,-100,4,2,1,68,0,0
133367,-100,4,2,1,64,0,0
133710,-100,4,2,2,70,0,0
134396,-90.9090909090909,4,2,2,80,0,1
145367,-100,4,2,1,78,0,0
145710,-100,4,2,1,74,0,0
146053,-100,4,2,1,70,0,0
146396,-100,4,2,1,66,0,0
146738,-100,4,2,1,62,0,0
147081,-100,4,2,1,58,0,0
147424,-100,4,2,1,54,0,0
147767,-100,4,2,1,50,0,0
148110,-100,4,2,1,5,0,0

[Colours]
Combo1 : 250,180,133
Combo2 : 247,157,224
Combo3 : 133,186,250

[HitObjects]
181,63,13710,6,0,P|154:127|181:192,1,144,4|2,0:3|2:2,0:0:0:0:
256,236,14224,1,0,0:0:0:0:
330,192,14396,2,0,P|357:127|331:63,1,144,2|2,2:2|2:2,0:0:0:0:
256,236,14910,2,0,L|256:308,1,72,2|2,2:2|0:1,0:0:0:0:
182,192,15253,2,0,B|256:114|256:114|330:192,1,216,2|2,2:2|0:1,0:0:0:0:
391,253,15938,1,2,2:2:0:0:
452,192,16110,1,2,2:2:0:0:
391,253,16281,1,2,2:2:0:0:
391,131,16453,6,0,L|340:80,1,72,2|0,0:1|0:0,0:0:0:0:
391,253,16796,2,0,L|340:303,1,72,2|0,2:2|0:0,0:0:0:0:
256,303,17138,2,0,B|218:303|218:303|182:303|151:274|151:235,1,144,2|2,0:1|2:2,0:0:0:0:
151,148,17653,2,0,B|151:109|182:81|218:81|218:81|256:81,1,144,2|2,2:2|2:2,0:0:0:0:
318,19,18167,1,2,2:2:0:0:
378,79,18338,2,0,B|416:79|416:79|445:100,1,72,2|2,2:2|0:1,0:0:0:0:
387,232,18681,2,0,B|328:192|328:192|387:151,1,144,2|0,2:2|0:0,0:0:0:0:
256,158,19196,2,0,B|243:192|243:192|256:225,1,72,2|0,0:1|0:0,0:0:0:0:
195,287,19538,6,0,B|233:300|256:324|256:324|282:298|317:287,2,144,2|2|2,2:2|2:2|2:2,0:0:0:0:
132,225,20396,2,0,B|119:191|119:191|132:158,1,72,2|2,2:2|0:1,0:0:0:0:
195,97,20738,2,0,B|245:69|256:12|256:12|267:69|317:97,1,216,2|2,2:2|0:1,0:0:0:0:
379,157,21424,1,2,2:2:0:0:
442,97,21596,1,2,2:2:0:0:
380,37,21767,1,2,2:2:0:0:
442,97,21938,6,0,L|492:147,1,72,2|0,0:1|0:0,0:0:0:0:
442,287,22281,2,0,L|492:236,1,72,2|0,2:2|0:0,0:0:0:0:
418,192,22624,2,0,B|377:192|377:192|315:192|296:245,1,144,2|2,0:1|2:2,0:0:0:0:
215,245,23138,2,0,B|197:192|135:192|135:192|94:192,1,144,2|2,2:2|2:2,0:0:0:0:
36,247,23653,1,2,2:2:0:0:
36,247,23824,1,0,0:0:0:0:
36,383,23996,2,0,B|14:349|31:315|36:315|42:315|59:281|36:247,1,144,2|2,0:1|2:2,0:0:0:0:
94,192,24510,1,2,2:2:0:0:
36,0,24681,6,0,B|58:34|41:68|36:68|30:68|13:102|36:136,1,144,0|2,3:3|2:2,0:0:0:0:
94,192,25196,1,0,0:0:0:0:
150,65,25367,2,0,B|144:100|144:100|150:135,1,72,2|0,3:2|0:0,0:0:0:0:
216,192,25710,1,2,2:2:0:0:
216,192,25881,1,2,2:2:0:0:
150,319,26053,2,0,B|144:283|144:283|150:248,1,72,0|2,3:3|2:2,0:0:0:0:
291,368,26396,2,0,B|256:374|256:374|220:368,1,72,0|0,0:0|0:0,0:0:0:0:
362,319,26738,2,0,B|367:283|367:283|362:248,1,72,0|2,3:3|2:2,0:0:0:0:
296,121,27081,2,0,B|290:156|290:156|296:192,1,72,2|2,2:2|2:2,0:0:0:0:
382,120,27424,6,0,B|382:77|382:77|382:41|352:13|317:13,1,144,0|2,3:3|2:2,0:0:0:0:
256,64,27938,1,0,0:0:0:0:
194,13,28110,2,0,B|160:13|130:41|130:77|130:77|130:120,1,144,2|2,3:2|2:2,0:0:0:0:
81,192,28624,2,0,B|117:204|129:240|129:240|166:253|178:289,1,144,2|2,2:2|2:2,0:0:0:0:
256,329,29138,1,2,2:2:0:0:
333,289,29310,2,0,L|333:217,1,72,2|0,2:2|3:3,0:0:0:0:
178,289,29653,2,0,L|179:217,1,72,2|0,2:2|0:0,0:0:0:0:
256,179,29996,1,0,0:0:0:0:
256,47,30167,6,0,B|256:84|231:112|231:112|256:141|256:178,1,144,0|2,3:3|2:2,0:0:0:0:
333,217,30681,1,0,0:0:0:0:
410,179,30853,2,0,B|410:141|434:113|434:113|410:84|410:47,1,144,2|2,3:2|2:2,0:0:0:0:
333,111,31367,1,2,2:2:0:0:
256,47,31538,2,0,B|220:47|220:47|193:71,1,72,0|2,3:3|2:2,0:0:0:0:
131,156,31881,2,0,B|125:192|125:192|131:227,1,72,0|0,0:0|0:0,0:0:0:0:
193,313,32224,2,0,B|220:337|220:337|256:337,1,72,0|2,3:3|2:2,0:0:0:0:
317,275,32567,1,2,2:2:0:0:
377,335,32738,1,2,2:2:0:0:
317,275,32910,6,0,L|317:203,1,72,0|0,3:3|0:0,0:0:0:0:
256,47,33253,2,0,L|256:119,1,72,2|0,2:2|0:0,0:0:0:0:
195,275,33596,2,0,B|195:203|195:203|157:143,1,144,2|2,3:2|2:2,0:0:0:0:
355,143,34110,2,0,B|317:203|317:203|317:275,1,144,2|2,2:2|2:2,0:0:0:0:
195,275,34624,2,0,L|195:204,1,72,2|0,2:2|0:0,0:0:0:0:
317,275,34967,2,0,B|350:252|384:269|384:275|384:280|418:297|452:275,1,144,2|2,3:2|2:2,0:0:0:0:
484,192,35481,1,2,2:2:0:0:
453,23,35653,6,0,P|463:66|452:109,1,90,12|0,1:2|0:0,0:0:0:0:
382,192,35996,1,10,2:2:0:0:
382,192,36167,1,2,2:2:0:0:
306,109,36338,2,0,B|271:89|256:37|256:37|241:89|206:109,1,180,10|8,2:2|2:2,0:0:0:0:
130,192,36853,1,2,2:2:0:0:
59,23,37024,2,0,P|49:66|60:109,1,90,10|2,2:2|2:2,0:0:0:0:
130,192,37367,1,10,2:2:0:0:
59,361,37538,2,0,P|49:318|60:275,1,90,2|8,2:2|2:2,0:0:0:0:
206,361,37881,2,0,P|215:317|204:274,1,90,2|8,2:2|2:2,0:0:0:0:
130,192,38223,1,2,1:2:0:0:
206,109,38396,6,0,B|241:89|256:37|256:37|271:89|306:109,1,180,8|10,2:2|2:2,0:0:0:0:
382,192,38910,1,2,2:2:0:0:
306,274,39081,2,0,B|271:295|256:347|256:347|241:295|206:275,1,180,10|8,2:2|2:2,0:0:0:0:
130,192,39596,1,2,2:2:0:0:
60,274,39767,2,0,B|49:317|49:317|60:360,1,90,10|2,2:2|2:2,0:0:0:0:
130,192,40110,1,10,2:2:0:0:
206,275,40281,1,2,2:2:0:0:
206,275,40367,1,2,0:0:0:0:
206,275,40453,1,8,2:2:0:0:
50,274,40624,2,0,B|39:317|39:317|50:360,2,90,2|10|2,2:2|2:2|1:2,0:0:0:0:
140,192,41138,6,0,B|150:148|150:148|140:105,1,90,12|0,2:2|0:0,0:0:0:0:
256,191,41481,2,0,B|266:147|266:147|256:104,1,90,10|2,2:2|2:2,0:0:0:0:
372,192,41824,2,0,B|382:148|382:148|372:105,1,90,10|0,2:2|0:0,0:0:0:0:
488,193,42167,2,0,B|498:149|498:149|488:106,1,90,8|2,2:2|2:2,0:0:0:0:
372,192,42510,6,0,B|361:235|361:235|372:278,1,90,10|2,2:2|2:2,0:0:0:0:
256,193,42853,2,0,B|245:236|245:236|256:279,1,90,10|2,2:2|2:2,0:0:0:0:
140,192,43196,2,0,B|129:235|129:235|140:278,1,90,8|2,2:2|2:2,0:0:0:0:
24,191,43539,2,0,B|13:234|13:234|24:277,1,90,8|2,2:2|2:2,0:0:0:0:
139,104,43881,5,10,1:2:0:0:
140,114,44053,1,0,1:1:0:0:
256,192,44224,5,10,1:2:0:0:
255,182,44396,1,2,1:2:0:0:
372,104,44567,5,10,1:2:0:0:
372,114,44739,1,0,1:1:0:0:
256,34,44910,5,10,1:2:0:0:
255,44,45082,1,2,1:2:0:0:
200,192,45253,5,10,1:2:0:0:
179,231,45338,1,0,1:1:0:0:
184,275,45424,1,0,1:1:0:0:
212,309,45510,1,0,1:1:0:0:
255,322,45595,1,0,1:1:0:0:
297,310,45681,1,0,1:1:0:0:
326,276,45767,1,0,1:1:0:0:
332,232,45852,1,0,1:1:0:0:
312,193,45938,1,0,1:1:0:0:
311,191,46624,6,0,P|356:210|401:191,1,99.0000030212403,4|0,1:2|0:0,0:0:0:0:
471,74,46967,1,2,1:2:0:0:
471,154,47138,1,2,2:2:0:0:
400,35,47310,2,0,P|356:17|311:35,1,99.0000030212403,2|0,1:2|0:0,0:0:0:0:
111,36,47653,2,0,P|155:17|200:35,1,99.0000030212403,0|2,1:1|2:2,0:0:0:0:
312,113,47996,5,2,1:2:0:0:
200,35,48167,1,2,2:2:0:0:
88,113,48338,1,2,1:2:0:0:
200,192,48510,2,0,B|218:237|218:237|200:282,1,99.0000030212403,2|0,2:2|1:1,0:0:0:0:
315,373,48853,2,0,B|297:328|297:328|316:283,1,99.0000030212403,2|0,2:2|1:1,0:0:0:0:
431,191,49196,1,2,2:2:0:0:
315,10,49367,6,0,B|297:55|297:55|316:101,1,99.0000030212403,2|0,1:2|0:0,0:0:0:0:
256,192,49710,1,2,1:2:0:0:
196,101,49881,1,2,2:2:0:0:
376,192,50053,2,0,P|418:277|376:362,1,198.000006042481,2|0,1:2|1:1,0:0:0:0:
316,283,50567,1,2,2:2:0:0:
491,229,50738,6,0,B|499:277|499:277|491:325,1,99.0000030212403,2|2,1:2|2:2,0:0:0:0:
377,192,51081,1,2,1:2:0:0:
491,58,51253,1,2,2:2:0:0:
491,58,51338,1,2,2:2:0:0:
491,58,51424,2,0,B|499:106|499:106|491:155,1,99.0000030212403,2|2,1:2|2:2,0:0:0:0:
377,288,51767,2,0,B|368:240|368:240|377:192,1,99.0000030212403,2|2,1:2|1:2,0:0:0:0:
175,97,52110,6,0,B|208:58|208:58|256:58,1,99.0000030212403,4|0,1:2|0:0,0:0:0:0:
256,240,52453,1,10,2:2:0:0:
256,144,52624,1,2,2:2:0:0:
256,326,52796,2,0,B|208:326|208:326|175:286,1,99.0000030212403,2|0,1:2|0:0,0:0:0:0:
256,58,53138,2,0,B|208:58|208:58|175:97,1,99.0000030212403,8|2,2:2|2:2,0:0:0:0:
80,192,53481,5,2,1:2:0:0:
176,97,53653,1,2,2:2:0:0:
80,192,53824,1,10,2:2:0:0:
175,97,53996,2,0,B|183:48|183:48|175:0,1,99.0000030212403,2|0,2:2|1:1,0:0:0:0:
80,192,54338,2,0,B|71:240|71:240|80:288,1,99.0000030212403,2|8,2:2|2:2,0:0:0:0:
175,370,54681,1,2,2:2:0:0:
361,240,54853,6,0,B|315:208|268:232|268:240|268:247|221:271|175:240,1,198.000006042481,2|10,1:2|2:2,0:0:0:0:
80,192,55367,1,2,2:2:0:0:
174,45,55538,2,0,B|199:77|258:94|258:94|199:111|174:145,1,198.000006042481,2|8,1:2|2:2,0:0:0:0:
80,96,56053,1,2,1:2:0:0:
337,144,56224,5,2,2:2:0:0:
337,144,56396,1,2,1:2:0:0:
174,144,56567,5,2,2:2:0:0:
174,144,56739,1,2,1:2:0:0:
337,239,56910,5,2,2:2:0:0:
337,239,57082,1,0,1:1:0:0:
174,239,57253,5,2,2:2:0:0:
174,239,57425,1,2,2:2:0:0:
256,30,57596,5,2,0:1:0:0:
256,30,57938,6,0,B|280:30|298:8|298:8|316:30|340:30,1,99.0000030212403,12|2,1:2|2:2,0:0:0:0:
426,279,58281,2,0,B|460:244|469:191|469:191|460:139|426:104,1,198.000006042481,2|8,1:2|2:2,0:0:0:0:
341,192,58796,1,2,2:2:0:0:
256,104,58967,6,0,P|211:85|166:104,1,99.0000030212403,2|2,1:2|2:2,0:0:0:0:
81,191,59310,1,10,2:2:0:0:
256,280,59481,2,0,P|211:298|166:279,1,99.0000030212403,2|0,2:2|1:1,0:0:0:0:
256,104,59824,2,0,P|211:85|166:104,1,99.0000030212403,2|8,2:2|2:2,0:0:0:0:
81,191,60167,1,2,2:2:0:0:
341,192,60338,6,0,P|385:210|429:192,1,99.0000030212403,6|0,1:2|0:0,0:0:0:0:
512,31,60681,1,10,2:2:0:0:
512,160,60853,1,2,2:2:0:0:
429,0,61024,2,0,P|384:-18|340:0,1,99.0000030212403,2|0,1:2|0:0,0:0:0:0:
167,102,61367,2,0,P|211:120|255:101,1,99.0000030212403,8|2,2:2|2:2,0:0:0:0:
341,192,61710,5,2,1:2:0:0:
256,0,61881,1,2,2:2:0:0:
171,192,62053,1,10,2:2:0:0:
256,102,62224,1,2,2:2:0:0:
256,102,62310,1,2,2:2:0:0:
256,102,62396,1,2,1:2:0:0:
86,0,62567,1,2,2:2:0:0:
171,192,62738,1,10,2:2:0:0:
256,0,62910,1,2,1:2:0:0:
341,192,63081,6,0,P|359:236|340:280,1,99.0000030212403,4|0,1:2|0:0,0:0:0:0:
256,102,63424,1,10,2:2:0:0:
256,102,63596,1,2,2:2:0:0:
172,280,63767,2,0,P|153:236|171:191,1,99.0000030212403,2|0,1:2|0:0,0:0:0:0:
339,280,64110,2,0,P|358:236|340:191,1,99.0000030212403,8|2,2:2|2:2,0:0:0:0:
257,13,64453,6,0,P|237:56|255:101,1,99.0000030212403,2|2,1:2|2:2,0:0:0:0:
171,192,64796,1,10,2:2:0:0:
86,101,64967,2,0,P|104:56|85:13,1,99.0000030212403,2|0,2:2|1:1,0:0:0:0:
171,192,65310,2,0,P|151:235|169:280,1,99.0000030212403,2|8,2:2|2:2,0:0:0:0:
256,347,65653,1,2,2:2:0:0:
342,280,65824,6,0,B|355:192|355:192|343:103,1,180,6|10,1:2|2:2,0:0:0:0:
256,37,66338,1,2,2:2:0:0:
169,103,66510,2,0,B|157:192|157:192|169:281,1,180,2|8,1:2|2:2,0:0:0:0:
89,347,67024,1,2,2:2:0:0:
57,204,67196,6,0,B|57:228|37:242|37:242|57:257|57:281,1,90,0|2,1:1|2:2,0:0:0:0:
169,281,67538,2,0,B|169:257|188:243|188:243|169:228|169:204,1,90,2|2,2:2|2:2,0:0:0:0:
343,204,67881,2,0,B|343:228|323:242|323:242|343:257|343:281,1,90,2|2,2:2|2:2,0:0:0:0:
455,281,68223,2,0,B|455:257|474:243|474:243|455:228|455:204,1,90,2|2,2:2|2:2,0:0:0:0:
343,72,68567,6,0,P|256:75|204:146,1,180,4|0,1:2|1:1,0:0:0:0:
256,240,69081,1,2,2:2:0:0:
307,146,69253,2,0,P|255:75|168:71,1,180,2|0,1:2|1:1,0:0:0:0:
82,136,69767,1,2,2:2:0:0:
82,248,69938,2,0,B|139:305|139:305|144:322|144:322|202:379,1,180,2|0,1:1|1:1,0:0:0:0:
256,284,70453,1,2,2:2:0:0:
309,379,70624,2,0,B|367:322|367:322|372:305|372:305|430:248,1,180,2|0,1:2|1:1,0:0:0:0:
337,192,71138,1,2,2:2:0:0:
429,135,71310,6,0,B|450:92|419:33|363:33|363:33|328:33,1,180,2|0,1:1|1:1,0:0:0:0:
256,112,71824,1,2,2:2:0:0:
184,33,71996,2,0,B|149:33|149:33|93:33|62:92|83:135,1,180,2|0,1:2|1:1,0:0:0:0:
0,192,72510,1,2,2:2:0:0:
82,249,72681,2,0,B|55:279|5:294|5:294|55:309|82:340,1,180,2|0,1:1|1:1,0:0:0:0:
169,294,73196,1,2,2:2:0:0:
256,249,73367,2,0,B|282:279|332:294|332:294|282:309|256:340,1,180,2|0,1:2|1:1,0:0:0:0:
169,192,73881,1,0,1:1:0:0:
256,44,74053,6,0,B|298:15|344:36|340:44|337:51|383:72|425:44,1,180,2|8,1:1|2:2,0:0:0:0:
502,118,74567,1,2,2:2:0:0:
502,118,74653,1,0,0:0:0:0:
502,118,74738,1,2,1:2:0:0:
425,192,74910,1,0,0:0:0:0:
502,342,75081,2,0,B|517:327|517:327|517:281|517:281|502:266,1,90,8|2,2:2|2:2,0:0:0:0:
425,192,75424,6,0,B|425:158|418:132|385:118|385:118|351:132|345:158|345:192,1,180,2|8,1:1|2:2,0:0:0:0:
256,254,75938,1,2,2:2:0:0:
256,254,76024,1,2,2:2:0:0:
256,254,76110,1,0,1:1:0:0:
166,192,76281,1,0,0:0:0:0:
71,339,76453,2,0,B|60:295|60:295|71:252,1,90,8|2,2:2|2:2,0:0:0:0:
71,50,76796,6,0,B|115:71|118:120|118:120|163:142|166:191,1,180,2|8,1:1|2:2,0:0:0:0:
256,130,77310,1,2,2:2:0:0:
256,130,77396,1,0,0:0:0:0:
256,130,77481,1,2,1:2:0:0:
345,191,77653,1,0,0:0:0:0:
435,130,77824,2,0,B|445:86|445:86|435:43,1,90,8|2,2:2|2:2,0:0:0:0:
256,43,78167,5,2,0:1:0:0:
256,43,78681,5,0,0:0:0:0:
256,37,78767,1,0,1:1:0:0:
256,31,78852,1,0,1:1:0:0:
256,192,79024,1,0,1:1:0:0:
256,192,79367,5,0,1:1:0:0:
256,43,79538,2,0,P|214:27|173:43,1,90,4|0,1:2|0:0,0:0:0:0:
26,107,79881,2,0,P|67:91|109:107,1,90,8|2,2:2|2:2,0:0:0:0:
256,170,80224,2,0,P|214:233|173:169,1,180,2|8,1:2|2:2,0:0:0:0:
109,107,80738,1,2,2:2:0:0:
256,43,80910,6,0,P|297:27|338:43,1,90,2|0,1:1|0:0,0:0:0:0:
485,107,81253,2,0,P|444:91|403:107,1,90,8|2,2:2|2:2,0:0:0:0:
256,170,81596,2,0,P|297:233|338:169,1,180,2|8,1:2|2:2,0:0:0:0:
486,107,82110,1,2,2:2:0:0:
340,44,82281,6,0,B|298:27|298:27|256:43,1,90,2|0,1:1|0:0,0:0:0:0:
191,107,82624,2,0,B|149:90|149:90|107:106,1,90,8|2,2:2|2:2,0:0:0:0:
41,325,82967,2,0,P|3:247|42:170,1,180,2|8,1:2|2:2,0:0:0:0:
103,247,83481,1,2,2:2:0:0:
219,378,83653,6,0,B|191:378|191:378|190:343|164:325,1,90,2|0,1:1|0:0,0:0:0:0:
347,325,83996,2,0,B|322:343|321:378|321:378|293:378,1,90,8|2,2:2|2:2,0:0:0:0:
208,192,84338,2,0,B|256:268|256:268|304:192,1,180,2|8,1:2|2:2,0:0:0:0:
368,127,84853,1,0,1:1:0:0:
207,62,85024,6,0,P|255:1|304:62,1,180,4|8,1:2|2:2,0:0:0:0:
144,127,85538,1,2,2:2:0:0:
144,127,85624,1,0,0:0:0:0:
144,127,85710,2,0,B|100:127|100:127|67:93,1,90,2|0,1:2|0:0,0:0:0:0:
144,257,86053,2,0,B|100:257|100:257|67:290,1,90,8|2,2:2|2:2,0:0:0:0:
208,192,86396,6,0,B|256:116|256:116|304:192,1,180,2|8,1:1|2:2,0:0:0:0:
368,257,86910,1,2,2:2:0:0:
368,257,86996,1,0,0:0:0:0:
368,257,87081,2,0,B|412:257|412:257|444:290,1,90,2|0,1:2|0:0,0:0:0:0:
444,93,87424,2,0,B|412:127|412:127|368:127,1,90,8|2,2:2|2:2,0:0:0:0:
304,192,87767,6,0,B|304:283|208:243|208:334,1,180,2|0,1:1|0:0,0:0:0:0:
256,128,88281,1,0,1:1:0:0:
303,330,88453,2,0,B|304:243|208:283|208:192,1,180,8|2,2:2|2:2,0:0:0:0:
256,128,88967,1,2,2:2:0:0:
173,22,89138,6,0,B|222:38|256:5|256:5|289:38|339:22,1,180,2|0,1:1|0:0,0:0:0:0:
403,86,89653,1,2,0:0:0:0:
339,149,89824,2,0,B|351:192|351:192|339:235,1,90,8|0,2:2|0:0,0:0:0:0:
256,377,90167,2,0,B|244:334|244:334|256:291,1,90,0|2,0:0|2:2,0:0:0:0:
173,149,90510,5,4,3:2:0:0:
173,149,90853,6,0,B|161:192|161:192|173:235,1,90,2|0,2:2|0:0,0:0:0:0:
306,47,91196,2,0,B|270:76|256:119|256:119|241:76|205:47,1,180,2|2,2:2|2:2,0:0:0:0:
339,235,91710,2,0,B|351:192|351:192|339:149,1,90,2|2,2:2|2:2,0:0:0:0:
205,336,92053,2,0,B|241:307|256:264|256:264|270:307|306:336,1,180,2|0,2:2|0:0,0:0:0:0:
173,235,92567,1,8,2:2:0:0:
256,120,92738,1,2,2:2:0:0:
339,235,92910,2,0,B|384:235|384:235|414:268,1,90,2|2,2:2|2:2,0:0:0:0:
479,108,93253,6,0,P|493:149|479:192,1,90,4|0,3:2|0:0,0:0:0:0:
413,351,93596,2,0,P|398:309|414:267,1,90,2|0,2:2|3:3,0:0:0:0:
348,108,93938,2,0,P|362:149|348:191,1,90,10|0,2:2|0:0,0:0:0:0:
256,268,94281,1,2,3:2:0:0:
165,192,94453,2,0,B|118:192|118:192|87:161|87:161|57:192|57:192|10:192,1,180,2|2,2:2|2:2,0:0:0:0:
88,268,94967,1,2,2:2:0:0:
133,93,95138,2,0,B|89:82|89:82|46:93,1,90,2|8,3:2|2:2,0:0:0:0:
165,192,95481,2,0,B|208:202|208:202|252:192,1,90,2|0,2:2|0:0,0:0:0:0:
256,28,95824,1,0,3:3:0:0:
338,148,95996,1,4,3:2:0:0:
339,149,96338,6,0,B|351:192|351:192|339:235,1,90,2|0,2:2|0:0,0:0:0:0:
206,337,96681,2,0,B|242:308|256:265|256:265|271:308|307:337,1,180,10|2,2:2|2:2,0:0:0:0:
173,235,97195,2,0,B|161:192|161:192|173:149,1,90,2|2,2:2|2:2,0:0:0:0:
307,48,97538,2,0,B|271:77|256:120|256:120|242:77|206:48,1,180,2|0,2:2|0:0,0:0:0:0:
339,148,98053,1,8,2:2:0:0:
256,264,98224,1,2,2:2:0:0:
173,148,98396,2,0,B|130:133|130:133|88:148,1,90,2|2,2:2|2:2,0:0:0:0:
131,370,98738,6,0,P|92:292|130:214,1,180,4|2,3:2|2:2,0:0:0:0:
256,120,99253,1,0,3:3:0:0:
342,291,99424,2,0,L|300:374,1,90,10|0,2:2|0:0,0:0:0:0:
256,192,99767,1,2,3:2:0:0:
170,291,99938,2,0,L|210:371,1,90,2|0,2:2|3:3,0:0:0:0:
342,291,100281,2,0,L|301:371,1,90,2|2,2:2|2:2,0:0:0:0:
130,214,100624,1,0,0:0:0:0:
130,214,100710,1,0,3:3:0:0:
130,214,100796,6,0,P|92:292|131:370,1,180,10|2,2:2|2:2,0:0:0:0:
256,290,101310,1,2,3:2:0:0:
380,370,101481,5,4,3:2:0:0:
453,14,106967,6,0,B|439:-4|416:-9|416:-9|393:-4|380:14,1,90,8|0,1:2|0:0,0:0:0:0:
453,103,107310,2,0,B|439:85|416:80|416:80|393:85|380:103,1,90,8|0,1:2|0:0,0:0:0:0:
453,192,107653,2,0,B|439:174|416:169|416:169|393:174|380:192,1,90,8|0,1:2|0:0,0:0:0:0:
256,192,107996,1,8,1:2:0:0:
132,14,108167,1,0,0:0:0:0:
132,14,108253,1,8,2:2:0:0:
132,14,108338,6,0,B|118:-4|95:-9|95:-9|72:-4|58:14,1,90,8|0,1:2|0:0,0:0:0:0:
132,103,108681,2,0,B|118:85|95:80|95:80|72:85|58:103,1,90,8|0,1:2|0:0,0:0:0:0:
132,192,109024,2,0,B|118:174|95:169|95:169|72:174|58:192,1,90,8|0,1:2|0:0,0:0:0:0:
256,281,109367,1,8,1:2:0:0:
379,369,109538,1,0,0:0:0:0:
379,369,109624,1,8,2:2:0:0:
379,369,109710,6,0,B|423:369|423:369|460:340,1,90,8|0,1:2|1:1,0:0:0:0:
460,192,110053,1,8,1:2:0:0:
460,44,110224,1,0,1:1:0:0:
460,44,110310,1,8,2:2:0:0:
460,44,110396,2,0,B|423:15|423:15|380:14,1,90,8|0,1:2|1:1,0:0:0:0:
256,104,110738,1,8,1:2:0:0:
132,192,110910,1,0,1:1:0:0:
132,192,110996,1,8,2:2:0:0:
132,192,111081,5,8,1:2:0:0:
325,299,111253,1,8,1:2:0:0:
256,104,111424,1,8,1:2:0:0:
187,299,111596,1,8,1:2:0:0:
380,192,111767,2,0,L|470:192,2,90,8|8|8,1:2|1:2|1:2,0:0:0:0:
256,352,112281,1,8,1:2:0:0:
187,108,112453,6,0,B|150:95|117:112|117:112|93:125,1,99.0000030212403,4|0,1:2|0:0,0:0:0:0:
0,258,112796,1,2,1:2:0:0:
0,125,112967,1,2,2:2:0:0:
93,258,113138,2,0,B|117:272|117:272|150:289|187:276,1,99.0000030212403,2|0,1:2|0:0,0:0:0:0:
187,108,113481,2,0,B|150:95|117:112|117:112|93:125,1,99.0000030212403,0|2,1:1|2:2,0:0:0:0:
256,192,113824,5,2,1:2:0:0:
325,108,113996,1,2,2:2:0:0:
256,24,114167,1,2,1:2:0:0:
417,107,114338,2,0,P|370:91|324:107,1,99.0000030212403,2|0,2:2|1:1,0:0:0:0:
164,24,114681,2,0,P|210:39|256:23,1,99.0000030212403,2|0,2:2|1:1,0:0:0:0:
417,107,115024,1,2,2:2:0:0:
256,192,115196,6,0,B|256:240|207:273|207:273|256:305|256:354,1,198.000006042481,2|2,1:2|1:2,0:0:0:0:
417,277,115710,1,2,2:2:0:0:
256,192,115881,2,0,P|210:176|164:192,1,99.0000030212403,2|0,1:2|0:0,0:0:0:0:
164,355,116224,2,0,P|210:370|256:354,1,99.0000030212403,0|2,1:1|2:2,0:0:0:0:
417,277,116567,5,2,1:2:0:0:
256,192,116738,1,2,2:2:0:0:
417,107,116910,1,2,1:2:0:0:
256,23,117081,1,2,2:2:0:0:
256,23,117167,1,2,2:2:0:0:
256,23,117253,2,0,P|209:7|163:22,1,99.0000030212403,2|2,1:2|2:2,0:0:0:0:
94,107,117596,1,2,1:2:0:0:
256,192,117767,1,2,1:2:0:0:
94,107,117938,6,0,B|73:107|73:107|29:107|14:148,1,99.0000030212403,4|0,1:2|0:0,0:0:0:0:
176,277,118281,1,10,2:2:0:0:
176,107,118453,1,2,2:2:0:0:
94,277,118624,2,0,B|73:277|73:277|29:277|14:236,1,99.0000030212403,2|0,1:2|0:0,0:0:0:0:
94,107,118967,2,0,B|73:107|73:107|29:107|14:148,1,99.0000030212403,8|2,2:2|2:2,0:0:0:0:
176,277,119310,5,2,1:2:0:0:
256,106,119481,1,2,2:2:0:0:
336,277,119653,1,10,2:2:0:0:
414,106,119824,2,0,P|456:127|499:105,1,99.0000030212403,2|0,2:2|1:1,0:0:0:0:
298,38,120167,2,0,P|255:16|214:39,1,99.0000030212403,2|8,2:2|2:2,0:0:0:0:
98,106,120510,1,2,2:2:0:0:
214,192,120681,6,0,B|179:238|208:284|214:284|219:284|248:331|214:377,1,198.000006042481,2|10,1:2|2:2,0:0:0:0:
298,190,121196,1,2,2:2:0:0:
155,330,121367,2,0,B|128:336|115:356|115:356|101:336|75:330,1,99.0000030212403,2|0,1:2|0:0,0:0:0:0:
16,192,121710,1,8,2:2:0:0:
16,192,121881,1,2,2:2:0:0:
214,192,122053,5,2,1:2:0:0:
214,192,122224,1,2,1:2:0:0:
298,67,122396,5,8,2:2:0:0:
298,67,122568,1,2,1:2:0:0:
298,192,122739,5,2,2:2:0:0:
298,192,122910,1,2,1:2:0:0:
214,67,123081,5,10,2:2:0:0:
214,67,123253,1,2,2:2:0:0:
397,67,123424,6,0,B|443:67|443:67|477:107,1,99.0000030212403,4|0,1:2|0:0,0:0:0:0:
397,240,123767,1,10,2:2:0:0:
397,144,123938,1,2,2:2:0:0:
477,276,124110,2,0,B|443:317|443:317|397:317,1,99.0000030212403,2|0,1:2|0:0,0:0:0:0:
397,67,124453,2,0,B|443:67|443:67|477:107,1,99.0000030212403,8|2,2:2|2:2,0:0:0:0:
304,192,124796,5,2,1:2:0:0:
397,67,124967,1,2,2:2:0:0:
490,192,125138,1,10,2:2:0:0:
304,67,125310,2,0,B|256:55|256:55|208:67,1,99.0000030212403,2|0,2:2|1:1,0:0:0:0:
112,192,125653,2,0,B|159:203|159:203|207:192,1,99.0000030212403,2|8,2:2|2:2,0:0:0:0:
256,128,125996,1,2,2:2:0:0:
256,256,126167,6,0,B|306:238|328:192|328:192|306:146|256:128,1,198.000006042481,6|10,1:2|2:2,0:0:0:0:
112,192,126681,1,2,2:2:0:0:
208,316,126853,2,0,P|256:328|304:317,1,99.0000030212403,2|0,1:2|0:0,0:0:0:0:
420,192,127196,2,0,P|372:180|324:191,1,99.0000030212403,8|2,2:2|2:2,0:0:0:0:
208,316,127538,5,2,1:2:0:0:
112,192,127710,1,2,2:2:0:0:
16,316,127881,1,10,2:2:0:0:
208,192,128053,1,2,2:2:0:0:
208,192,128138,1,2,2:2:0:0:
208,192,128224,2,0,B|208:142|208:142|170:110,1,99.0000030212403,2|2,1:2|2:2,0:0:0:0:
341,110,128567,2,0,B|304:142|304:142|304:192,1,99.0000030212403,10|2,2:2|1:2,0:0:0:0:
177,40,128910,6,0,B|159:40|159:40|139:40|110:52|102:89,1,99.0000030212403,4|0,1:2|0:0,0:0:0:0:
16,264,129253,1,10,2:2:0:0:
16,120,129424,1,2,2:2:0:0:
102,296,129596,2,0,B|111:332|140:344|160:344|160:344|178:344,1,99.0000030212403,2|0,1:2|0:0,0:0:0:0:
410,295,129938,2,0,B|402:332|373:344|353:344|353:344|335:344,1,99.0000030212403,8|2,2:2|2:2,0:0:0:0:
208,192,130281,5,2,1:2:0:0:
256,40,130453,1,2,2:2:0:0:
304,192,130624,1,10,2:2:0:0:
410,89,130796,2,0,B|427:89|427:89|447:89|476:101|485:137,1,99.0000030212403,2|0,2:2|1:1,0:0:0:0:
410,295,131138,2,0,B|427:295|427:295|447:295|476:282|485:246,1,99.0000030212403,2|8,2:2|2:2,0:0:0:0:
416,192,131481,1,2,2:2:0:0:
255,261,131653,6,0,L|295:240,1,45,12|0,1:2|0:0,0:0:0:0:
265,271,131824,2,0,L|305:250,1,45,8|0,2:2|0:0,0:0:0:0:
255,122,131996,6,0,L|295:144,1,45,10|0,2:2|0:0,0:0:0:0:
265,112,132167,2,0,L|305:134,1,45,10|0,2:2|0:0,0:0:0:0:
360,306,132338,6,0,L|400:285,1,45,10|0,2:2|0:0,0:0:0:0:
370,316,132509,2,0,L|410:295,1,45,8|0,2:2|0:0,0:0:0:0:
360,77,132681,6,0,L|400:99,1,45,8|0,2:2|0:0,0:0:0:0:
370,67,132852,2,0,L|410:89,1,45,10|0,2:2|0:0,0:0:0:0:
255,261,133024,5,8,2:2:0:0:
221,234,133109,1,0,1:1:0:0:
208,191,133195,1,0,1:1:0:0:
221,149,133281,1,0,1:1:0:0:
255,122,133366,1,8,2:2:0:0:
416,192,133538,5,0,1:1:0:0:
416,192,133624,1,0,1:1:0:0:
414,192,133710,2,0,B|382:192|382:192|374:195|374:195|374:188|374:188|366:192|366:192|335:192,1,90,2|0,1:1|0:0,0:0:0:0:
175,261,134053,2,0,B|206:261|206:261|214:257|214:257|214:264|214:264|222:261|222:261|254:261,1,90,0|0,0:0|1:1,0:0:0:0:
433,356,134396,6,0,B|388:330|351:356|351:356|344:359|344:359|344:352|344:352|336:356|336:356|299:330|255:356,1,198.000006042481,4|2,3:2|2:2,0:0:0:0:
175,261,134910,1,0,0:0:0:0:
4,356,135081,2,0,B|31:369|31:369|68:369|68:369|96:356,1,99.0000030212403,10|0,2:2|0:0,0:0:0:0:
50,123,135424,1,2,2:2:0:0:
50,261,135596,1,2,2:2:0:0:
96,28,135767,6,0,B|68:14|68:14|31:14|31:14|4:28,1,99.0000030212403,0|2,3:3|2:2,0:0:0:0:
256,28,136110,2,0,B|284:14|284:14|321:14|321:14|348:28,1,99.0000030212403,2|2,0:0|0:0,0:0:0:0:
175,123,136453,1,10,2:2:0:0:
175,123,136538,1,2,2:2:0:0:
175,123,136624,1,2,2:2:0:0:
96,28,136796,1,2,2:2:0:0:
175,192,136967,1,2,2:2:0:0:
256,28,137138,6,0,B|289:28|289:28|298:15|298:15|306:28|306:28|340:28,1,99.0000030212403,0|0,3:3|0:0,0:0:0:0:
439,234,137481,2,0,B|439:200|439:200|452:192|452:192|439:183|439:183|439:149,1,99.0000030212403,2|0,3:2|0:0,0:0:0:0:
340,356,137824,2,0,B|306:356|306:356|298:368|298:368|289:356|289:356|256:356,1,99.0000030212403,10|0,2:2|0:0,0:0:0:0:
337,192,138167,1,2,2:2:0:0:
256,284,138338,1,2,2:2:0:0:
175,11,138510,6,0,B|144:55|178:97|178:97|170:104|170:104|204:145|175:191,1,198.000006042481,0|2,3:3|2:2,0:0:0:0:
256,284,139024,1,2,2:2:0:0:
256,284,139110,1,0,0:0:0:0:
256,284,139196,2,0,L|256:383,1,99.0000030212403,8|2,2:2|2:2,0:0:0:0:
256,100,139538,6,0,L|256:1,1,99.0000030212403,2|2,2:2|0:0,0:0:0:0:
175,192,139881,5,4,3:2:0:0:
337,192,140053,1,2,2:2:0:0:
337,192,140139,1,2,2:2:0:0:
337,192,140224,1,2,2:2:0:0:
174,100,140396,1,0,0:0:0:0:
338,100,140567,2,0,B|370:83|386:51|386:19|386:19|386:51|402:83|435:100,1,198.000006042481,10|2,2:2|2:2,0:0:0:0:
256,192,141081,1,2,2:2:0:0:
174,100,141253,6,0,B|139:100|139:100|131:87|131:87|122:100|122:100|88:100,1,99.0000030212403,0|2,3:3|2:2,0:0:0:0:
88,284,141596,2,0,B|122:284|122:284|131:296|131:296|139:284|139:284|174:284,1,99.0000030212403,0|0,0:0|3:3,0:0:0:0:
28,192,141938,1,10,2:2:0:0:
28,192,142024,1,2,2:2:0:0:
28,192,142110,1,2,2:2:0:0:
174,100,142281,1,2,3:2:0:0:
174,284,142453,1,2,2:2:0:0:
338,100,142624,6,0,B|354:49|400:37|400:37|405:32|405:32|409:37|409:37|455:49|472:100,1,198.000006042481,0|2,3:3|2:2,0:0:0:0:
404,192,143138,1,2,0:0:0:0:
472,284,143310,2,0,B|455:334|409:346|409:346|405:351|405:351|400:346|400:346|354:334|338:284,1,198.000006042481,10|2,2:2|2:2,0:0:0:0:
404,192,143824,1,2,2:2:0:0:
256,96,143996,6,0,B|256:160|256:160|243:192|243:192|256:224|256:224|256:288,1,198.000006042481,0|2,3:3|0:0,0:0:0:0:
338,100,144510,1,2,0:0:0:0:
171,242,144681,2,0,B|86:192|86:192|171:141,1,198.000006042481,10|2,2:2|2:2,0:0:0:0:
338,284,145196,1,2,3:2:0:0:
256,96,145367,5,4,0:3:0:0:
256,192,145453,12,0,148110,0:0:0:0:
