osu file format v14

[General]
AudioFilename: audio.mp3
AudioLeadIn: 0
PreviewTime: 35485
Countdown: 0
SampleSet: Soft
StackLeniency: 0.7
Mode: 0
LetterboxInBreaks: 0
WidescreenStoryboard: 1

[Editor]
Bookmarks: 6709,16505,26301,45893,75281,85077,104669,124260,141403
DistanceSpacing: 1.5
BeatDivisor: 4
GridSize: 4
TimelineZoom: 2.1

[Metadata]
Title:Labios
TitleUnicode:Labios
Artist:Jenny And The Mexicats
ArtistUnicode:Jenny And The Mexicats
Creator:ezek
Version:Sabes Lo Que Digo
Source:Amor de mis amores
Tags:love of my loves soundtrack ome latin MkGuh DTM9 Nowa fieryrage spanish espanol espaƱol
BeatmapID:1132846
BeatmapSetID:534813

[Difficulty]
HPDrainRate:7
CircleSize:4
OverallDifficulty:9
ApproachRate:9.2
SliderMultiplier:1.6
SliderTickRate:2

[Events]
//Background and Video events
0,0,"Amorts.jpg",0,0
Video,0,"Meow.avi"
//Break Periods
2,134256,140833
//Storyboard Layer 0 (Background)
//Storyboard Layer 1 (Fail)
//Storyboard Layer 2 (Pass)
//Storyboard Layer 3 (Foreground)
//Storyboard Sound Samples

[TimingPoints]
1812,306.122448979592,4,2,0,100,1,0
33648,-100,4,2,0,20,0,0
33954,-100,4,2,0,30,0,0
34260,-100,4,2,0,40,0,0
34567,-100,4,2,0,50,0,0
34873,-100,4,2,0,60,0,0
35179,-100,4,2,0,70,0,0
35485,-100,4,2,0,80,0,0
35791,-100,4,2,0,90,0,0
36097,-66.6666666666667,4,2,0,100,0,1
55689,-100,4,2,0,100,0,0
92424,-100,4,2,0,20,0,0
92730,-100,4,2,0,30,0,0
93036,-100,4,2,0,40,0,0
93342,-100,4,2,0,50,0,0
93648,-100,4,2,0,60,0,0
93954,-100,4,2,0,70,0,0
94260,-100,4,2,0,80,0,0
94567,-100,4,2,0,90,0,0
94873,-66.6666666666667,4,2,0,100,0,1
114158,-66.6666666666667,4,2,0,100,0,0
114465,-66.6666666666667,4,2,0,100,0,1
134056,-100,4,2,0,100,0,0
141403,-100,4,2,0,20,0,0
141709,-100,4,2,0,30,0,0
142016,-100,4,2,0,40,0,0
142322,-100,4,2,0,50,0,0
142628,-100,4,2,0,60,0,0
142934,-100,4,2,0,70,0,0
143240,-100,4,2,0,80,0,0
143546,-100,4,2,0,90,0,0
143852,-66.6666666666667,4,2,0,100,0,1
153342,-66.6666666666667,4,2,0,100,0,0
153648,-66.6666666666667,4,2,0,100,0,1
170638,-66.6666666666667,4,2,0,100,0,0
170791,-66.6666666666667,4,2,0,100,0,1
171863,-66.6666666666667,4,2,0,100,0,0

[Colours]
Combo1 : 150,232,77
Combo2 : 255,125,252
Combo3 : 109,227,252
Combo4 : 241,136,73

[HitObjects]
184,56,6709,6,0,L|100:60,1,80,4|0,0:0|0:0,0:0:0:0:
328,56,7016,2,0,L|412:60,1,80,8|0,0:0|0:0,0:0:0:0:
256,216,7322,1,2,0:0:0:0:
256,216,7475,2,0,L|256:136,1,80,0|8,0:0|0:0,0:0:0:0:
316,304,7781,6,0,B|356:316|356:316|392:304,1,80,0|2,0:0|0:0,0:0:0:0:
188,288,8087,2,0,B|148:276|148:276|112:288,1,80,0|8,0:0|0:0,0:0:0:0:
336,192,8393,2,0,P|408:222|480:192,1,160,0|0,3:0|0:0,0:0:0:0:
408,48,8852,2,0,L|408:128,1,80,8|0,0:0|0:0,0:0:0:0:
304,284,9158,6,0,L|304:120,1,160,2|8,0:0|0:0,0:0:0:0:
100,40,9618,1,0,3:0:0:0:
219,123,9771,1,2,0:0:0:0:
69,123,9924,1,0,0:0:0:0:
188,40,10077,1,8,0:0:0:0:
144,177,10230,6,0,P|132:212|144:252,1,80,0|2,0:0|0:0,0:0:0:0:
272,372,10536,2,0,P|284:337|272:297,1,80,0|8,0:0|0:0,0:0:0:0:
164,104,10842,1,0,0:0:0:0:
220,216,10995,1,2,0:0:0:0:
333,160,11148,1,0,0:0:0:0:
277,48,11301,1,8,0:0:0:0:
220,216,11454,1,0,0:0:0:0:
440,128,11607,6,0,L|444:48,1,80,2|0,0:0|0:0,0:0:0:0:
440,256,11914,2,0,L|444:336,1,80,8|0,0:0|0:0,0:0:0:0:
296,192,12220,1,2,0:0:0:0:
296,192,12373,2,0,L|376:192,1,80,0|8,0:0|0:0,0:0:0:0:
208,128,12679,6,0,B|192:92|192:92|208:52,1,80,0|2,0:0|0:0,0:0:0:0:
208,260,12985,2,0,B|224:296|224:296|208:336,1,80,0|8,0:0|0:0,0:0:0:0:
28,172,13291,2,0,B|-8:100|-8:100|28:28,1,160,0|0,3:0|0:0,0:0:0:0:
168,100,13750,2,0,L|76:100,1,80,8|0,0:0|0:0,0:0:0:0:
232,192,14056,6,0,B|292:192|292:192|348:192|376:148,1,160,2|8,0:0|0:0,0:0:0:0:
428,16,14516,2,0,B|368:16|368:16|312:16|284:60,1,160,0|0,3:0|0:0,0:0:0:0:
160,192,14975,2,0,L|164:272,1,80,8|0,0:0|0:0,0:0:0:0:
56,164,15281,6,0,L|52:84,1,80,2|0,0:0|0:0,0:0:0:0:
64,280,15587,1,8,0:0:0:0:
64,280,15740,1,8,0:0:0:0:
260,264,15893,1,2,0:0:0:0:
260,264,15970,1,0,0:0:0:0:
260,264,16046,1,0,3:0:0:0:
140,120,16199,1,0,3:0:0:0:
32,352,16352,1,0,3:0:0:0:
336,354,16505,5,4,0:0:0:0:
221,39,16812,1,0,0:0:0:0:
221,39,17118,2,0,P|276:97|425:74,1,240
440,188,17730,6,0,L|428:343,2,120,2|0|0,0:0|0:0|0:0,0:0:0:0:
325,239,18342,2,0,L|318:320,1,80,2|0,0:0|0:0,0:0:0:0:
236,368,18648,1,0,3:0:0:0:
112,232,18801,1,0,0:0:0:0:
112,232,18954,6,0,P|158:196|179:140,1,120,2|0,0:0|0:0,0:0:0:0:
188,84,19260,1,0,0:0:0:0:
68,128,19414,2,0,L|40:48,1,80,0|2,0:0|0:0,0:0:0:0:
240,196,19720,2,0,L|268:120,1,80,0|0,0:0|3:0,0:0:0:0:
64,288,20026,6,0,L|36:208,1,80,0|2,0:0|0:0,0:0:0:0:
228,356,20332,2,0,L|256:280,1,80,0|0,0:0|3:0,0:0:0:0:
40,376,20638,1,0,0:0:0:0:
260,204,20791,1,2,0:0:0:0:
260,204,20944,2,0,P|320:236|320:324,1,160,2|2,0:0|0:0,0:0:0:0:
95,319,21403,5,2,0:0:0:0:
76,293,21556,1,0,0:0:0:0:
56,268,21709,1,0,3:0:0:0:
126,191,21863,1,0,0:0:0:0:
196,115,22016,5,2,0:0:0:0:
177,89,22169,1,0,0:0:0:0:
157,64,22322,1,0,3:0:0:0:
256,160,22475,1,0,0:0:0:0:
355,64,22628,5,0,3:0:0:0:
335,89,22781,1,0,0:0:0:0:
316,115,22934,1,2,0:0:0:0:
386,191,23087,1,0,0:0:0:0:
456,268,23241,5,0,3:0:0:0:
436,293,23394,1,0,0:0:0:0:
417,319,23547,1,2,0:0:0:0:
256,259,23699,1,0,0:0:0:0:
256,259,23852,6,0,P|264:220|256:180,1,80,2|0,0:0|0:0,0:0:0:0:
156,284,24158,2,0,P|148:324|156:364,1,80,0|0,3:0|0:0,0:0:0:0:
320,344,24465,1,2,0:0:0:0:
192,216,24618,1,0,0:0:0:0:
192,216,24694,1,0,0:0:0:0:
192,216,24771,2,0,L|112:216,1,80,0|0,3:0|0:0,0:0:0:0:
52,311,25077,5,2,0:0:0:0:
130,293,25230,1,0,0:0:0:0:
112,216,25383,1,0,3:0:0:0:
35,234,25536,1,0,0:0:0:0:
36,334,25689,1,2,0:0:0:0:
154,307,25842,1,0,0:0:0:0:
126,192,25995,1,0,3:0:0:0:
11,219,26148,1,0,0:0:0:0:
224,344,26301,6,0,B|224:288|224:288|212:244|212:244|212:184,1,160,4|0,0:0|3:0,0:0:0:0:
296,64,26760,1,0,0:0:0:0:
296,64,26914,2,0,B|296:120|296:120|308:164|308:164|308:224,1,160,2|0,0:0|3:0,0:0:0:0:
317,340,27373,1,0,0:0:0:0:
403,190,27526,6,0,B|403:151|403:151|392:111|392:111|391:70,2,120,2|0|0,0:0|0:0|0:0,0:0:0:0:
432,308,28138,1,2,0:0:0:0:
317,340,28291,1,0,0:0:0:0:
292,224,28444,1,0,3:0:0:0:
403,190,28597,1,0,0:0:0:0:
188,100,28750,5,2,0:0:0:0:
294,44,28903,2,0,L|384:31,1,80,0|0,0:0|3:0,0:0:0:0:
215,181,29209,1,0,0:0:0:0:
322,126,29362,2,0,L|412:113,1,80,2|0,0:0|0:0,0:0:0:0:
243,262,29669,1,0,3:0:0:0:
38,152,29822,1,0,0:0:0:0:
38,152,29975,6,0,L|33:66,1,80,2|0,0:0|0:0,0:0:0:0:
90,217,30281,1,0,3:0:0:0:
88,10,30434,1,0,0:0:0:0:
316,100,30587,1,2,0:0:0:0:
224,177,30740,2,0,P|196:100|223:20,1,160
107,139,31199,6,0,L|87:234,1,80,2|0,0:0|0:0,0:0:0:0:
256,348,31505,1,0,3:0:0:0:
405,139,31658,2,0,L|421:217,1,80,0|2,0:0|0:0,0:0:0:0:
451,316,31965,1,0,0:0:0:0:
314,209,32118,1,0,3:0:0:0:
451,316,32271,1,0,0:0:0:0:
314,209,32424,6,0,P|256:224|200:209,2,120,2|0|0,0:0|0:0|0:0,0:0:0:0:
384,132,33036,1,2,0:0:0:0:
351,33,33189,1,0,0:0:0:0:
161,33,33342,1,0,3:0:0:0:
128,132,33495,1,0,0:0:0:0:
314,209,33648,6,4,L|388:240,1,80,4|4,3:0|3:0,3:0:0:0:
199,209,33954,2,4,L|125:240,1,80,4|4,3:0|3:0,3:0:0:0:
356,200,34260,6,4,L|430:231,1,80,4|4,3:0|3:0,3:0:0:0:
156,200,34567,2,4,L|82:231,1,80,4|4,3:0|3:0,3:0:0:0:
396,184,34873,6,4,L|470:215,1,80,4|4,3:0|3:0,3:0:0:0:
116,184,35179,2,4,L|42:215,1,80,4|4,3:0|3:0,3:0:0:0:
256,344,35485,5,4,3:0:0:0:
400,116,35638,1,4,3:0:0:0:
112,116,35791,1,4,3:0:0:0:
256,364,35944,1,4,3:0:0:0:
484,44,36097,6,0,P|404:12|316:44,1,180.000006866455,4|0,0:0|0:0,0:0:0:0:
268,64,36403,1,8,0:0:0:0:
114,33,36556,1,4,3:0:0:0:
85,186,36709,1,0,0:0:0:0:
238,216,36863,1,2,0:0:0:0:
9,132,37016,2,0,P|-11:188|9:244,1,120.000004577637,8|0,0:0|0:0,0:0:0:0:
272,352,37322,6,0,B|168:280|168:280|40:312,1,240.000009155274,4|8,3:0|0:0,0:0:0:0:
296,256,37781,2,0,B|400:328|400:328|528:296,1,240.000009155274,4|0,3:0|0:0,0:0:0:0:
416,120,38240,2,0,P|396:176|416:232,1,120.000004577637,8|0,0:0|0:0,0:0:0:0:
343,31,38546,6,0,B|298:4|259:33|256:31|253:28|214:57|169:31,1,180.000006866455,4|0,3:0|0:0,0:0:0:0:
116,8,38852,1,8,0:0:0:0:
124,212,39005,1,4,3:0:0:0:
296,110,39158,1,2,0:0:0:0:
55,108,39312,1,0,0:0:0:0:
55,309,39465,1,8,0:0:0:0:
227,207,39618,1,0,0:0:0:0:
37,45,39771,6,0,B|13:130|13:130|26:185|26:185|-8:284,1,240.000009155274,4|8,3:0|0:0,0:0:0:0:
243,160,40230,2,0,P|179:157|132:186,1,120.000004577637,4|2,3:0|0:0,0:0:0:0:
362,278,40536,2,0,P|426:281|473:252,1,120.000004577637,0|8,0:0|0:0,0:0:0:0:
204,240,40842,1,0,0:0:0:0:
457,352,40995,6,0,L|482:169,1,180.000006866455,4|0,3:0|0:0,0:0:0:0:
491,116,41301,1,8,0:0:0:0:
300,34,41455,1,4,3:0:0:0:
339,188,41608,1,2,0:0:0:0:
225,124,41761,1,0,0:0:0:0:
438,83,41914,2,0,L|319:108,1,120.000004577637,8|0,0:0|0:0,0:0:0:0:
102,91,42220,6,0,P|152:27|300:34,1,240.000009155274,4|8,3:0|0:0,0:0:0:0:
239,242,42679,2,0,P|189:306|41:299,1,240.000009155274,4|0,3:0|0:0,0:0:0:0:
293,174,43138,2,0,P|325:236|312:290,1,120.000004577637,8|0,0:0|0:0,0:0:0:0:
84,112,43444,6,0,B|162:98|162:98|238:113|238:113|321:98,1,240.000009155274,4|8,3:0|0:0,0:0:0:0:
512,348,43903,2,0,B|433:361|433:361|357:346|357:346|274:361,1,240.000009155274,4|0,3:0|0:0,0:0:0:0:
48,324,44363,1,8,0:0:0:0:
256,292,44516,1,0,0:0:0:0:
0,260,44669,5,4,3:0:0:0:
49,134,44822,1,0,0:0:0:0:
96,7,44975,1,8,0:0:0:0:
162,233,45128,1,0,3:0:0:0:
209,66,45281,1,2,0:0:0:0:
358,289,45434,1,0,0:0:0:0:
405,122,45587,1,8,0:0:0:0:
332,381,45740,1,0,0:0:0:0:
57,138,45893,6,0,P|25:218|57:306,1,180.000006866455,4|0,0:0|0:0,0:0:0:0:
92,340,46199,1,8,0:0:0:0:
246,353,46352,1,4,3:0:0:0:
240,136,46505,1,0,0:0:0:0:
183,261,46659,1,2,0:0:0:0:
364,216,46812,2,0,P|384:160|364:104,1,120.000004577637,8|0,0:0|0:0,0:0:0:0:
28,72,47118,6,0,P|132:108|252:72,1,240.000009155274,4|8,3:0|0:0,0:0:0:0:
478,196,47577,2,0,P|374:160|254:196,1,240.000009155274,0|0,3:0|0:0,0:0:0:0:
368,372,48036,2,0,P|383:310|367:258,1,120.000004577637,8|0,0:0|0:0,0:0:0:0:
192,72,48342,6,0,P|168:144|192:244,1,180.000006866455,4|0,3:0|0:0,0:0:0:0:
223,284,48648,1,8,0:0:0:0:
263,54,48801,1,4,3:0:0:0:
95,215,48954,1,2,0:0:0:0:
325,183,49107,1,0,0:0:0:0:
120,74,49260,1,8,0:0:0:0:
223,284,49414,1,0,0:0:0:0:
400,32,49567,6,0,B|386:119|386:119|406:172|406:172|389:274,1,240.000009155274,4|8,3:0|0:0,0:0:0:0:
202,104,50026,2,0,L|82:80,1,120.000004577637,4|2,3:0|0:0,0:0:0:0:
390,100,50332,2,0,L|270:76,1,120.000004577637,0|8,0:0|0:0,0:0:0:0:
463,78,50638,1,0,0:0:0:0:
212,248,50791,6,0,P|134:271|57:213,1,180.000006866455,4|0,3:0|0:0,0:0:0:0:
30,166,51097,1,8,0:0:0:0:
298,166,51250,1,4,3:0:0:0:
140,32,51403,1,0,0:0:0:0:
150,168,51556,1,0,0:0:0:0:
290,21,51709,2,0,L|417:7,1,120.000004577637,8|0,0:0|0:0,0:0:0:0:
509,243,52016,6,0,L|382:257,1,120.000004577637,4|0,3:0|0:0,0:0:0:0:
256,350,52322,1,8,0:0:0:0:
70,97,52475,2,0,P|143:73|253:180,1,240.000009155274,4|0,3:0|0:0,0:0:0:0:
155,295,52934,1,8,0:0:0:0:
306,256,53087,1,0,0:0:0:0:
41,166,53240,6,0,L|20:44,1,120.000004577637,4|0,0:0|0:0,0:0:0:0:
142,167,53546,1,8,0:0:0:0:
176,319,53699,1,4,3:0:0:0:
235,136,53852,2,0,L|214:14,1,120.000004577637
336,137,54158,1,8,0:0:0:0:
370,289,54311,1,0,0:0:0:0:
142,167,54465,5,4,3:0:0:0:
370,289,54618,1,0,0:0:0:0:
130,314,54771,1,8,0:0:0:0:
336,137,54924,1,4,3:0:0:0:
259,348,55077,1,0,3:0:0:0:
255,366,55153,1,0,3:0:0:0:
250,384,55230,1,0,3:0:0:0:
237,116,55383,1,8,0:0:0:0:
237,116,55689,6,0,B|200:104|200:104|160:116,1,80,4|0,0:0|0:0,0:0:0:0:
356,48,55995,2,0,B|393:60|393:60|433:48,1,80,8|0,0:0|0:0,0:0:0:0:
452,256,56301,1,2,0:0:0:0:
452,256,56454,2,0,L|472:348,1,80,0|8,0:0|0:0,0:0:0:0:
288,196,56760,6,0,L|272:116,1,80,0|2,0:0|0:0,0:0:0:0:
236,304,57067,2,0,L|252:392,1,80,0|8,0:0|0:0,0:0:0:0:
144,228,57373,2,0,P|174:156|144:84,1,160,0|0,3:0|0:0,0:0:0:0:
0,156,57832,2,0,L|84:156,1,80,8|0,0:0|0:0,0:0:0:0:
304,84,58138,6,0,L|144:84,1,160,2|8,0:0|0:0,0:0:0:0:
56,340,58597,1,0,3:0:0:0:
150,205,58750,1,2,0:0:0:0:
35,225,58903,1,0,0:0:0:0:
170,319,59056,1,8,0:0:0:0:
188,136,59209,6,0,P|152:124|112:136,1,80,0|2,0:0|0:0,0:0:0:0:
320,224,59516,2,0,P|356:236|396:224,1,80,0|8,0:0|0:0,0:0:0:0:
272,132,59822,1,0,3:0:0:0:
240,272,59975,1,2,0:0:0:0:
360,164,60128,1,0,0:0:0:0:
392,24,60281,1,8,0:0:0:0:
360,164,60434,1,0,0:0:0:0:
192,48,60587,6,0,P|156:36|116:48,1,80,2|0,0:0|0:0,0:0:0:0:
116,232,60893,2,0,P|154:244|192:232,1,80,8|0,0:0|0:0,0:0:0:0:
4,140,61199,1,2,0:0:0:0:
4,140,61352,2,0,L|84:140,1,80,0|8,0:0|0:0,0:0:0:0:
76,308,61658,6,0,B|36:296|36:296|0:308,1,80,0|2,0:0|0:0,0:0:0:0:
152,360,61965,2,0,B|192:372|192:372|228:360,1,80,0|8,0:0|0:0,0:0:0:0:
412,248,62271,2,0,P|336:224|260:244,1,160,0|0,3:0|0:0,0:0:0:0:
372,308,62730,2,0,P|332:296|292:308,1,80,8|0,0:0|0:0,0:0:0:0:
484,224,63036,6,0,B|508:148|508:148|484:72,1,160,2|8,0:0|0:0,0:0:0:0:
272,32,63495,1,0,3:0:0:0:
366,167,63648,1,2,0:0:0:0:
251,147,63801,1,0,0:0:0:0:
386,53,63954,1,8,0:0:0:0:
180,184,64107,6,0,L|184:104,1,80,0|2,0:0|0:0,0:0:0:0:
284,264,64414,2,0,L|280:344,1,80,0|8,0:0|0:0,0:0:0:0:
76,272,64720,5,0,3:0:0:0:
208,264,64873,1,2,0:0:0:0:
14,340,65026,1,0,0:0:0:0:
62,193,65179,1,8,0:0:0:0:
151,331,65332,1,0,0:0:0:0:
16,112,65485,6,0,P|8:68|16:24,1,80,4|0,0:0|0:0,0:0:0:0:
144,136,65791,2,0,L|144:224,1,80,8|0,0:0|0:0,0:0:0:0:
272,112,66097,1,2,0:0:0:0:
272,112,66250,2,0,P|279:73|275:34,1,80,0|8,0:0|0:0,0:0:0:0:
336,200,66556,6,0,L|416:188,1,80,0|2,0:0|0:0,0:0:0:0:
176,200,66863,2,0,L|96:188,1,80,0|8,0:0|0:0,0:0:0:0:
332,284,67169,2,0,B|256:308|256:308|180:284,1,160
256,112,67628,2,0,B|256:196,1,80,8|0,0:0|0:0,0:0:0:0:
180,32,67934,6,0,P|256:4|328:32,1,160,2|8,0:0|0:0,0:0:0:0:
168,116,68393,1,0,3:0:0:0:
344,116,68546,1,2,0:0:0:0:
156,192,68699,1,0,0:0:0:0:
356,192,68852,1,8,0:0:0:0:
192,328,69005,6,0,P|164:304|152:260,1,80,0|2,0:0|0:0,0:0:0:0:
361,263,69312,2,0,P|350:301|320:328,1,80,0|8,0:0|0:0,0:0:0:0:
176,132,69618,1,0,3:0:0:0:
336,132,69771,1,2,0:0:0:0:
208,220,69924,1,0,0:0:0:0:
256,72,70077,1,8,0:0:0:0:
304,220,70230,1,0,0:0:0:0:
336,48,70383,6,0,P|360:36|416:28,1,80,2|0,0:0|0:0,0:0:0:0:
176,48,70689,2,0,P|152:36|96:28,1,80,8|0,0:0|0:0,0:0:0:0:
260,232,70995,1,2,0:0:0:0:
260,232,71148,2,0,L|260:152,1,80,0|8,0:0|0:0,0:0:0:0:
320,328,71454,6,0,B|360:340|360:340|396:328,1,80,0|2,0:0|0:0,0:0:0:0:
192,312,71760,2,0,B|152:300|152:300|116:312,1,80,0|8,0:0|0:0,0:0:0:0:
256,112,72067,2,0,B|280:152|260:188|256:188|252:188|232:228|256:264,1,160
188,148,72526,2,0,L|108:148,1,80,8|0,0:0|0:0,0:0:0:0:
404,56,72832,6,0,P|328:28|256:56,1,160,2|8,0:0|0:0,0:0:0:0:
108,148,73291,2,0,P|184:176|256:148,1,160,0|0,3:0|0:0,0:0:0:0:
27,117,73750,1,8,0:0:0:0:
139,50,73903,1,0,0:0:0:0:
114,262,74056,5,0,3:0:0:0:
114,262,74133,1,0,3:0:0:0:
114,262,74209,1,0,3:0:0:0:
27,117,74363,2,0,P|22:73|26:33,1,80,8|8,0:0|0:0,0:0:0:0:
169,87,74669,1,2,0:0:0:0:
17,232,74822,1,0,0:0:0:0:
240,276,74975,1,2,3:0:0:0:
123,189,75128,1,0,0:0:0:0:
354,362,75281,5,4,0:0:0:0:
440,75,75587,1,0,3:0:0:0:
440,75,75893,2,0,B|380:111|328:71|324:75|320:79|268:39|208:75,1,240,2|0,0:0|0:0,0:0:0:0:
160,166,76505,2,0,P|121:129|106:60,2,120,2|0|0,0:0|0:0|0:0,0:0:0:0:
268,216,77118,2,0,L|260:301,1,80,2|0,0:0|0:0,0:0:0:0:
169,245,77424,1,0,3:0:0:0:
352,201,77577,1,0,0:0:0:0:
352,201,77730,6,0,L|342:328,1,120,2|0,0:0|0:0,0:0:0:0:
336,376,78036,1,0,3:0:0:0:
430,241,78189,2,0,P|438:201|462:165,1,80,0|2,0:0|0:0,0:0:0:0:
270,233,78495,2,0,P|262:193|238:157,1,80,0|0,0:0|3:0,0:0:0:0:
430,101,78801,6,0,P|438:61|462:25,1,80,0|2,0:0|0:0,0:0:0:0:
270,93,79107,2,0,P|262:53|238:17,1,80,0|0,0:0|3:0,0:0:0:0:
350,221,79414,1,2,0:0:0:0:
170,85,79567,1,0,0:0:0:0:
170,85,79720,2,0,B|94:61|94:61|18:85,1,160,2|0,0:0|0:0,0:0:0:0:
199,173,80179,6,0,B|238:182|238:182|278:173,1,80,2|0,0:0|0:0,0:0:0:0:
102,282,80485,1,0,3:0:0:0:
102,282,80791,2,0,B|162:318|214:278|218:282|222:286|274:246|334:282,1,240,2|0,0:0|0:0,0:0:0:0:
428,339,81403,6,0,P|443:281|428:222,2,120,2|0|0,0:0|0:0|0:0,0:0:0:0:
323,169,82016,2,0,P|313:129|321:91,1,80,2|0,0:0|0:0,0:0:0:0:
464,20,82322,2,0,P|474:60|466:98,1,80,0|0,3:0|0:0,0:0:0:0:
364,244,82628,6,0,P|324:252|287:244,1,80,2|0,0:0|0:0,0:0:0:0:
243,72,82934,1,0,3:0:0:0:
193,163,83087,1,0,0:0:0:0:
326,92,83240,1,2,0:0:0:0:
156,82,83393,1,0,0:0:0:0:
284,160,83546,1,0,3:0:0:0:
244,2,83699,1,0,0:0:0:0:
39,101,83852,5,0,3:0:0:0:
52,126,83929,1,0,3:0:0:0:
68,154,84005,1,0,3:0:0:0:
84,182,84082,1,0,3:0:0:0:
100,210,84159,1,0,3:0:0:0:
173,342,84312,1,0,0:0:0:0:
39,279,84465,1,2,0:0:0:0:
197,204,84618,1,0,0:0:0:0:
86,347,84771,1,0,3:0:0:0:
231,275,84924,1,0,0:0:0:0:
39,101,85077,5,4,0:0:0:0:
397,42,85383,1,0,3:0:0:0:
397,42,85689,2,0,P|396:122|424:283,1,240,2|0,0:0|0:0,0:0:0:0:
351,355,86301,2,0,P|346:301|331:235,2,120,2|0|0,0:0|0:0|0:0,0:0:0:0:
250,326,86914,1,2,0:0:0:0:
235,223,87067,1,0,0:0:0:0:
299,141,87220,1,0,3:0:0:0:
116,65,87373,1,0,0:0:0:0:
116,65,87526,6,0,P|48:59|-3:97,2,120,2|0|0,0:0|0:0|0:0,0:0:0:0:
77,161,88138,1,2,0:0:0:0:
44,259,88291,1,0,0:0:0:0:
12,358,88444,1,0,3:0:0:0:
142,269,88597,1,0,0:0:0:0:
250,358,88750,6,0,P|288:367|328:359,1,80,2|0,0:0|0:0,0:0:0:0:
194,316,89056,1,0,3:0:0:0:
379,242,89209,1,0,0:0:0:0:
192,89,89362,1,2,0:0:0:0:
284,166,89515,2,0,P|312:89|285:9,1,160
107,139,89974,6,0,B|86:176|86:176|86:213,1,80,2|0,0:0|0:0,0:0:0:0:
256,348,90280,1,0,3:0:0:0:
405,139,90434,2,0,B|426:176|426:176|426:213,1,80,0|2,0:0|0:0,0:0:0:0:
451,316,90740,1,0,0:0:0:0:
314,209,90893,1,0,3:0:0:0:
451,316,91046,1,0,0:0:0:0:
132,238,91199,6,0,L|122:362,2,120,2|0|0,0:0|0:0|0:0,0:0:0:0:
177,99,91812,1,2,0:0:0:0:
93,37,91965,1,0,0:0:0:0:
197,114,92118,2,0,L|280:118,1,80,0|0,3:0|0:0,0:0:0:0:
384,195,92424,6,4,L|301:191,1,80,4|4,3:0|3:0,3:0:0:0:
177,99,92730,2,4,L|260:103,1,80,4|4,3:0|3:0,3:0:0:0:
404,214,93036,6,4,L|321:210,1,80,4|4,3:0|3:0,3:0:0:0:
162,75,93342,2,4,L|245:79,1,80,4|4,3:0|3:0,3:0:0:0:
416,229,93648,6,4,P|377:258|341:273,1,80,4|4,3:0|3:0,3:0:0:0:
142,62,93954,2,4,P|181:33|217:18,1,80,4|4,3:0|3:0,3:0:0:0:
439,251,94260,5,4,3:0:0:0:
184,189,94414,1,4,3:0:0:0:
392,32,94567,1,4,3:0:0:0:
458,278,94720,1,4,3:0:0:0:
104,220,94873,6,0,B|76:136|76:136|104:48,1,180.000006866455,4|0,0:0|0:0,0:0:0:0:
148,16,95179,1,8,0:0:0:0:
259,121,95332,1,4,3:0:0:0:
168,264,95485,1,2,0:0:0:0:
163,107,95638,1,0,0:0:0:0:
332,192,95791,2,0,L|452:152,1,120.000004577637,8|0,0:0|0:0,0:0:0:0:
456,324,96097,6,0,B|376:356|376:356|300:388|228:336,1,240.000009155274,4|8,3:0|0:0,0:0:0:0:
48,160,96556,2,0,B|128:128|128:128|204:96|276:148,1,240.000009155274,4|0,3:0|0:0,0:0:0:0:
148,324,97016,2,0,L|36:368,1,120.000004577637,8|0,0:0|0:0,0:0:0:0:
273,146,97322,6,0,L|441:218,1,180.000006866455,4|0,3:0|0:0,0:0:0:0:
492,236,97628,1,8,0:0:0:0:
342,57,97781,1,4,3:0:0:0:
358,289,97934,1,2,0:0:0:0:
481,92,98087,1,0,0:0:0:0:
265,180,98240,1,8,0:0:0:0:
492,236,98394,1,0,0:0:0:0:
240,368,98546,6,0,B|151:375|151:375|100:352|100:352|-2:361,1,240.000009155274,4|8,3:0|0:0,0:0:0:0:
176,188,99005,2,0,L|252:280,1,120.000004577637,4|2,3:0|0:0,0:0:0:0:
104,80,99312,2,0,L|28:172,1,120.000004577637,0|8,0:0|0:0,0:0:0:0:
256,76,99618,1,0,0:0:0:0:
52,296,99771,6,0,P|133:299|220:348,1,180.000006866455,4|0,3:0|0:0,0:0:0:0:
264,376,100077,1,8,0:0:0:0:
415,338,100231,1,4,3:0:0:0:
324,160,100384,1,2,0:0:0:0:
277,307,100537,1,0,0:0:0:0:
408,235,100690,2,0,L|425:117,1,120.000004577637,8|0,0:0|0:0,0:0:0:0:
184,23,100995,6,0,L|148:262,1,240.000009155274,4|8,3:0|0:0,0:0:0:0:
371,365,101454,2,0,L|335:126,1,240.000009155274,4|0,3:0|0:0,0:0:0:0:
112,112,101914,2,0,P|164:136|226:132,1,120.000004577637,8|0,0:0|0:0,0:0:0:0:
21,107,102220,6,0,B|41:216|41:216|154:285,1,240.000009155274,4|8,3:0|0:0,0:0:0:0:
437,372,102679,2,0,B|417:263|417:263|304:194,1,240.000009155274,4|0,3:0|0:0,0:0:0:0:
112,112,103138,1,8,0:0:0:0:
272,128,103291,1,0,0:0:0:0:
60,164,103444,5,4,3:0:0:0:
306,195,103597,1,0,0:0:0:0:
200,48,103750,1,8,0:0:0:0:
54,238,103903,1,4,3:0:0:0:
292,267,104056,1,2,0:0:0:0:
108,140,104209,1,0,0:0:0:0:
58,368,104363,1,8,0:0:0:0:
357,294,104516,1,0,0:0:0:0:
100,40,104669,6,0,B|72:124|72:124|100:212,1,180.000006866455,4|0,0:0|0:0,0:0:0:0:
132,256,104975,1,8,0:0:0:0:
278,309,105128,1,4,3:0:0:0:
329,162,105281,1,0,0:0:0:0:
184,109,105435,1,2,0:0:0:0:
391,218,105588,2,0,P|411:162|391:106,1,120.000004577637,8|0,0:0|0:0,0:0:0:0:
254,277,105893,6,0,B|368:324|368:324|476:276,1,240.000009155274,4|8,3:0|0:0,0:0:0:0:
256,192,106352,2,0,B|142:145|142:145|34:193,1,240.000009155274,4|0,3:0|0:0,0:0:0:0:
140,360,106812,2,0,B|156:308|156:308|140:240,1,120.000004577637,8|0,0:0|0:0,0:0:0:0:
31,20,107118,6,0,B|7:100|7:100|35:192,1,180.000006866455,4|0,3:0|0:0,0:0:0:0:
60,244,107424,1,8,0:0:0:0:
210,65,107577,1,4,3:0:0:0:
194,297,107730,1,2,0:0:0:0:
71,100,107883,1,0,0:0:0:0:
287,188,108036,1,8,0:0:0:0:
60,244,108190,1,0,0:0:0:0:
292,68,108342,6,0,P|328:180|292:292,1,240.000009155274,4|8,3:0|0:0,0:0:0:0:
16,368,108801,2,0,L|11:241,1,120.000004577637,4|2,3:0|0:0,0:0:0:0:
106,50,109107,2,0,L|110:176,1,120.000004577637,0|8,0:0|0:0,0:0:0:0:
121,344,109414,1,0,0:0:0:0:
299,138,109567,6,0,P|379:118|454:178,1,180.000006866455,4|0,3:0|0:0,0:0:0:0:
472,220,109873,1,8,0:0:0:0:
214,218,110026,1,4,3:0:0:0:
372,352,110179,1,0,0:0:0:0:
362,216,110332,1,0,0:0:0:0:
222,363,110485,2,0,L|95:377,1,120.000004577637,8|0,0:0|0:0,0:0:0:0:
3,141,110792,6,0,L|130:127,1,120.000004577637,4|0,3:0|0:0,0:0:0:0:
256,34,111098,1,8,0:0:0:0:
442,287,111251,2,0,P|369:311|259:204,1,240.000009155274,4|0,3:0|0:0,0:0:0:0:
357,89,111710,1,8,0:0:0:0:
206,128,111863,1,0,0:0:0:0:
471,218,112016,6,0,L|492:340,1,120.000004577637,4|0,0:0|0:0,0:0:0:0:
370,217,112322,1,8,0:0:0:0:
336,65,112475,1,4,3:0:0:0:
277,248,112628,2,0,L|298:370,1,120.000004577637
176,247,112934,1,8,0:0:0:0:
142,95,113087,1,0,0:0:0:0:
370,217,113241,5,4,3:0:0:0:
142,95,113394,1,0,0:0:0:0:
382,70,113547,1,8,0:0:0:0:
176,247,113700,1,4,3:0:0:0:
253,36,113853,1,0,3:0:0:0:
257,18,113929,1,0,3:0:0:0:
262,0,114006,1,0,3:0:0:0:
275,268,114158,2,0,L|282:388,1,120.000004577637,8|0,0:0|0:0,0:0:0:0:
253,115,114465,5,4,0:0:0:0:
172,303,114618,1,0,0:0:0:0:
374,278,114771,1,8,0:0:0:0:
250,91,114924,1,4,3:0:0:0:
153,317,115077,1,2,0:0:0:0:
395,287,115230,1,0,0:0:0:0:
249,71,115383,1,8,0:0:0:0:
132,342,115536,1,0,0:0:0:0:
423,306,115689,6,0,L|431:185,1,120.000004577637,4|0,3:0|0:0,0:0:0:0:
227,52,115995,1,8,0:0:0:0:
227,52,116148,2,0,L|219:173,1,120.000004577637,4|2,3:0|0:0,0:0:0:0:
273,317,116454,1,0,0:0:0:0:
141,233,116607,1,8,0:0:0:0:
54,362,116760,1,0,0:0:0:0:
132,202,116914,5,4,3:0:0:0:
24,375,117067,1,0,0:0:0:0:
59,148,117220,2,0,P|106:116|171:118,1,120.000004577637,8|0,0:0|0:0,0:0:0:0:
170,347,117526,1,0,3:0:0:0:
173,365,117602,1,0,3:0:0:0:
175,383,117679,1,0,3:0:0:0:
226,226,117832,1,8,0:0:0:0:
55,256,117985,1,0,0:0:0:0:
329,207,118138,6,0,P|402:203|450:220,1,120.000004577637,4|0,3:0|0:0,0:0:0:0:
183,207,118444,2,0,P|110:203|62:220,1,120.000004577637,8|4,0:0|3:0,0:0:0:0:
256,136,118750,2,0,L|256:8,1,120.000004577637,2|0,0:0|0:0,0:0:0:0:
256,352,119056,5,8,0:0:0:0:
256,352,119209,1,0,0:0:0:0:
362,123,119363,5,4,0:0:0:0:
158,93,119516,1,0,0:0:0:0:
234,282,119669,1,8,0:0:0:0:
383,114,119822,1,4,3:0:0:0:
139,78,119975,1,2,0:0:0:0:
231,305,120128,1,0,0:0:0:0:
403,108,120281,1,8,0:0:0:0:
111,65,120434,1,0,0:0:0:0:
220,337,120587,6,0,L|338:313,1,120.000004577637,4|0,3:0|0:0,0:0:0:0:
415,81,120893,1,8,0:0:0:0:
415,81,121046,2,0,L|296:104,1,120.000004577637,4|2,3:0|0:0,0:0:0:0:
80,52,121352,1,0,0:0:0:0:
168,158,121505,1,8,0:0:0:0:
228,32,121658,1,0,0:0:0:0:
48,213,121812,5,2,0:0:0:0:
48,213,121965,2,0,P|39:274|72:328,1,120.000004577637,0|8,0:0|0:0,0:0:0:0:
256,156,122271,1,0,0:0:0:0:
256,156,122424,2,0,L|256:32,1,120.000004577637,2|0,0:0|0:0,0:0:0:0:
464,213,122730,1,8,0:0:0:0:
464,213,122883,2,0,P|473:274|440:328,1,120.000004577637,0|2,0:0|0:0,0:0:0:0:
200,276,123189,1,0,0:0:0:0:
200,276,123342,2,0,B|256:252|256:252|312:276,1,120.000004577637,8|0,0:0|0:0,0:0:0:0:
208,104,123648,2,0,L|70:65,1,120.000004577637,2|0,0:0|0:0,0:0:0:0:
304,104,123954,2,0,L|442:65,1,120.000004577637,8|0,0:0|0:0,0:0:0:0:
62,209,124260,5,4,0:0:0:0:
214,178,124414,1,0,0:0:0:0:
244,331,124567,1,8,0:0:0:0:
91,361,124720,1,0,0:0:0:0:
37,201,124873,1,2,0:0:0:0:
220,163,125027,1,0,0:0:0:0:
256,347,125179,1,8,0:0:0:0:
72,383,125333,1,0,0:0:0:0:
363,361,125485,6,0,P|392:308|389:244,1,120.000004577637,4|0,3:0|0:0,0:0:0:0:
121,249,125791,1,8,0:0:0:0:
121,249,125944,2,0,P|120:309|149:361,1,120.000004577637,4|0,3:0|0:0,0:0:0:0:
256,238,126250,1,0,0:0:0:0:
21,188,126403,2,0,P|20:248|49:300,1,120.000004577637,8|0,0:0|0:0,0:0:0:0:
249,64,126709,6,0,B|172:52|172:52|99:76|99:76|14:62,1,240.000009155274,4|8,3:0|0:0,0:0:0:0:
223,172,127169,2,0,B|300:184|300:184|373:160|373:160|458:174,1,240.000009155274,4|0,3:0|0:0,0:0:0:0:
246,271,127628,1,8,0:0:0:0:
295,102,127781,1,0,0:0:0:0:
75,254,127934,6,0,P|59:315|72:372,1,120.000004577637,4|0,3:0|0:0,0:0:0:0:
246,271,128240,1,8,0:0:0:0:
245,270,128393,2,0,P|261:208|250:155,1,120.000004577637,4|2,3:0|0:0,0:0:0:0:
345,262,128699,1,0,0:0:0:0:
345,262,128852,2,0,L|467:253,1,120.000004577637,8|0,0:0|0:0,0:0:0:0:
204,271,129158,5,4,0:0:0:0:
32,289,129312,1,0,0:0:0:0:
13,116,129465,1,8,0:0:0:0:
186,98,129618,1,0,0:0:0:0:
216,280,129771,1,2,0:0:0:0:
22,301,129925,1,0,0:0:0:0:
0,106,130078,1,8,0:0:0:0:
195,85,130231,1,0,0:0:0:0:
120,288,130383,6,0,L|112:167,1,120.000004577637,4|0,3:0|0:0,0:0:0:0:
316,34,130688,1,8,0:0:0:0:
316,34,130841,2,0,L|324:155,1,120.000004577637,4|2,3:0|0:0,0:0:0:0:
256,298,131148,1,0,0:0:0:0:
190,156,131301,1,8,0:0:0:0:
341,247,131454,1,0,0:0:0:0:
171,247,131607,6,0,P|118:273|78:318,1,120.000004577637,4|0,3:0|0:0,0:0:0:0:
171,137,131914,2,0,P|118:111|78:66,1,120.000004577637,8|4,0:0|3:0,0:0:0:0:
341,137,132220,2,0,P|394:111|434:66,1,120.000004577637,2|0,0:0|0:0,0:0:0:0:
341,247,132526,2,0,P|394:273|434:318,1,120.000004577637,8|0,0:0|0:0,0:0:0:0:
256,156,132832,5,0,3:0:0:0:
248,127,132908,1,0,3:0:0:0:
254,98,132985,1,0,3:0:0:0:
263,70,133061,1,0,3:0:0:0:
256,41,133138,1,8,2:0:0:0:
428,192,133291,1,0,3:0:0:0:
256,228,133444,5,0,3:0:0:0:
248,256,133520,1,0,3:0:0:0:
254,285,133597,1,0,3:0:0:0:
263,313,133673,1,0,3:0:0:0:
256,342,133750,1,8,0:0:0:0:
84,192,133903,1,0,3:0:0:0:
428,192,134056,5,4,0:0:0:0:
215,245,141403,6,4,L|203:163,1,80,4|4,3:0|3:0,3:0:0:0:
310,165,141709,2,4,L|298:244,1,80,4|4,3:0|3:0,3:0:0:0:
202,255,142016,6,4,L|186:152,1,80,4|4,3:0|3:0,3:0:0:0:
322,155,142322,2,4,L|307:254,1,80,4|4,3:0|3:0,3:0:0:0:
183,276,142628,6,4,L|167:173,1,80,4|4,3:0|3:0,3:0:0:0:
344,138,142934,2,4,L|329:237,1,80,4|4,3:0|3:0,3:0:0:0:
204,354,143240,5,4,3:0:0:0:
168,118,143393,1,4,3:0:0:0:
370,298,143546,1,4,3:0:0:0:
158,93,143699,1,4,3:0:0:0:
444,336,143852,6,0,B|436:272|436:272|452:216|452:216|444:156,1,180.000006866455,4|0,0:0|0:0,0:0:0:0:
440,104,144158,1,8,0:0:0:0:
259,30,144312,1,4,3:0:0:0:
361,196,144465,1,2,0:0:0:0:
375,2,144618,1,0,0:0:0:0:
250,151,144771,2,0,B|252:196|252:196|244:232|244:232|248:280,1,120.000004577637,8|0,0:0|0:0,0:0:0:0:
14,100,145077,6,0,P|121:121|235:68,1,240.000009155274,4|8,3:0|0:0,0:0:0:0:
476,159,145536,2,0,P|368:137|254:190,1,240.000009155274,4|0,3:0|0:0,0:0:0:0:
28,324,145995,2,0,P|92:316|136:284,1,120.000004577637,8|0,0:0|0:0,0:0:0:0:
244,24,146301,6,0,L|204:200,1,180.000006866455,4|0,3:0|0:0,0:0:0:0:
188,252,146607,1,8,0:0:0:0:
413,190,146760,1,4,3:0:0:0:
266,371,146913,1,2,0:0:0:0:
279,139,147066,1,0,0:0:0:0:
405,335,147219,1,8,0:0:0:0:
188,252,147373,1,0,0:0:0:0:
479,180,147526,6,0,B|437:73|437:73|309:13,1,240.000009155274,4|8,3:0|0:0,0:0:0:0:
164,123,147985,2,0,L|283:179,1,120.000004577637,4|2,3:0|0:0,0:0:0:0:
372,339,148291,2,0,L|323:219,1,120.000004577637,0|8,0:0|0:0,0:0:0:0:
247,36,148597,1,0,0:0:0:0:
76,255,148750,6,0,B|144:271|144:271|177:309|177:309|240:324,1,180.000006866455,4|0,3:0|0:0,0:0:0:0:
288,336,149056,1,8,0:0:0:0:
441,308,149209,1,4,3:0:0:0:
414,154,149362,1,2,0:0:0:0:
260,181,149516,1,0,0:0:0:0:
378,361,149669,1,8,0:0:0:0:
498,249,149822,1,0,0:0:0:0:
222,172,149975,6,0,B|164:179|112:135|112:135|62:178|2:174,1,240.000009155274,4|8,3:0|0:0,0:0:0:0:
205,323,150434,2,0,B|265:319|315:362|315:362|367:318|425:325,1,240.000009155274,4|0,3:0|0:0,0:0:0:0:
260,228,150893,1,8,0:0:0:0:
260,228,151046,1,0,0:0:0:0:
386,101,151199,6,0,B|428:62|428:62|492:42,1,120.000004577637,4|0,3:0|0:0,0:0:0:0:
256,128,151505,1,8,0:0:0:0:
256,128,151658,2,0,L|256:8,1,120.000004577637,4|0,3:0|0:0,0:0:0:0:
126,101,151965,1,0,0:0:0:0:
126,101,152118,2,0,B|84:62|84:62|20:42,1,120.000004577637,8|0,0:0|0:0,0:0:0:0:
340,248,152424,5,0,3:0:0:0:
296,280,152500,1,0,3:0:0:0:
256,304,152577,1,0,3:0:0:0:
216,280,152653,1,0,3:0:0:0:
172,248,152730,1,8,0:0:0:0:
396,192,152883,5,4,3:0:0:0:
116,192,153036,1,2,0:0:0:0:
256,32,153189,1,0,0:0:0:0:
396,192,153342,1,8,0:0:0:0:
256,352,153495,1,0,0:0:0:0:
82,44,153648,6,0,P|139:28|199:26,1,120.000004577637,4|0,0:0|0:0,0:0:0:0:
396,114,153954,2,0,P|339:130|279:132,1,120.000004577637,8|4,0:0|3:0,0:0:0:0:
62,252,154260,2,0,P|119:236|179:234,1,120.000004577637,2|0,0:0|0:0,0:0:0:0:
376,322,154566,2,0,P|319:338|259:340,1,120.000004577637,8|0,0:0|0:0,0:0:0:0:
352,224,154873,5,4,3:0:0:0:
256,0,155026,1,0,0:0:0:0:
160,224,155179,1,8,0:0:0:0:
384,96,155332,1,4,3:0:0:0:
128,96,155485,2,0,P|78:127|38:177,1,120.000004577637,2|0,0:0|0:0,0:0:0:0:
384,96,155791,2,0,P|434:127|474:177,1,120.000004577637,8|0,0:0|0:0,0:0:0:0:
160,224,156097,5,4,3:0:0:0:
160,224,156250,2,0,P|92:226|58:266,1,120.000004577637,2|8,0:0|0:0,0:0:0:0:
340,224,156556,1,4,3:0:0:0:
340,224,156709,2,0,P|408:226|442:266,1,120.000004577637,2|0,0:0|0:0,0:0:0:0:
164,340,157016,1,8,0:0:0:0:
164,340,157169,6,0,L|40:340,1,120.000004577637,0|4,0:0|3:0,0:0:0:0:
348,340,157475,1,0,0:0:0:0:
348,340,157628,2,0,L|472:340,1,120.000004577637,8|0,0:0|0:0,0:0:0:0:
312,248,157934,2,0,P|256:228|200:248,1,120.000004577637,2|0,0:0|0:0,0:0:0:0:
384,117,158240,5,8,0:0:0:0:
128,117,158393,1,0,0:0:0:0:
362,295,158546,6,0,B|407:295|407:295|441:309|441:309|488:309,1,120.000004577637,4|0,3:0|0:0,0:0:0:0:
150,295,158852,2,0,B|105:295|105:295|71:309|71:309|24:309,1,120.000004577637,8|4,0:0|3:0,0:0:0:0:
375,216,159158,1,2,0:0:0:0:
408,48,159312,1,0,0:0:0:0:
136,216,159465,1,8,0:0:0:0:
104,48,159618,1,0,0:0:0:0:
256,238,159771,5,4,3:0:0:0:
256,26,159924,1,0,0:0:0:0:
120,121,160077,1,8,0:0:0:0:
392,121,160230,1,4,3:0:0:0:
132,280,160383,2,0,B|161:331|161:331|223:358,1,120.000004577637,2|0,0:0|0:0,0:0:0:0:
380,280,160689,2,0,B|351:331|351:331|289:358,1,120.000004577637,8|0,0:0|0:0,0:0:0:0:
152,28,160995,5,4,3:0:0:0:
88,216,161148,2,0,P|68:160|88:104,1,120.000004577637,0|8,0:0|0:0,0:0:0:0:
360,28,161454,1,4,3:0:0:0:
424,216,161607,2,0,P|444:160|424:104,1,120.000004577637,2|0,0:0|0:0,0:0:0:0:
220,164,161914,5,8,0:0:0:0:
160,352,162067,2,0,B|144:296|144:296|160:236,1,120.000004577637,0|4,0:0|3:0,0:0:0:0:
292,164,162373,1,0,0:0:0:0:
352,352,162526,2,0,B|368:296|368:296|352:236,1,120.000004577637,8|4,0:0|3:0,0:0:0:0:
76,168,162832,5,2,0:0:0:0:
160,40,162985,1,0,0:0:0:0:
352,40,163138,1,8,0:0:0:0:
436,168,163291,1,0,0:0:0:0:
195,355,163444,5,4,3:0:0:0:
105,212,163597,1,0,0:0:0:0:
248,123,163750,1,8,0:0:0:0:
337,265,163903,1,4,3:0:0:0:
191,371,164056,1,2,0:0:0:0:
88,208,164209,1,0,0:0:0:0:
251,106,164362,1,8,0:0:0:0:
353,268,164515,1,0,0:0:0:0:
66,199,164669,6,0,L|47:68,1,120.000004577637,4|0,3:0|0:0,0:0:0:0:
256,278,164975,1,8,0:0:0:0:
256,278,165128,2,0,B|276:218|253:160|253:160|227:103|255:43,1,240.000009155274,4|0,3:0|0:0,0:0:0:0:
396,108,165587,1,8,0:0:0:0:
238,28,165740,1,0,0:0:0:0:
420,134,165893,6,0,P|446:183|464:248,1,120.000004577637,4|0,3:0|0:0,0:0:0:0:
256,357,166199,1,8,0:0:0:0:
256,357,166352,2,0,L|255:237,1,120.000004577637,4|2,3:0|0:0,0:0:0:0:
92,134,166658,1,0,0:0:0:0:
92,134,166812,2,0,P|66:183|48:248,1,120.000004577637,8|0,0:0|0:0,0:0:0:0:
255,148,167118,6,0,L|255:25,1,120.000004577637,4|0,3:0|0:0,0:0:0:0:
202,209,167424,1,8,0:0:0:0:
202,209,167577,2,0,P|256:230|311:209,1,120.000004577637,4|0,3:0|0:0,0:0:0:0:
168,284,167883,1,0,0:0:0:0:
344,284,168036,1,8,0:0:0:0:
168,284,168189,1,0,0:0:0:0:
376,96,168342,5,4,3:0:0:0:
136,96,168495,1,0,0:0:0:0:
416,160,168648,1,8,0:0:0:0:
96,160,168801,1,4,3:0:0:0:
376,224,168954,1,2,0:0:0:0:
136,224,169107,1,0,0:0:0:0:
416,160,169260,1,8,0:0:0:0:
96,160,169414,1,0,0:0:0:0:
256,360,169567,5,4,3:0:0:0:
419,80,169719,1,0,0:0:0:0:
95,80,169873,1,8,0:0:0:0:
427,113,170026,1,4,3:0:0:0:
85,113,170179,2,0,L|81:235,1,120.000004577637,2|0,0:0|0:0,0:0:0:0:
368,367,170485,2,0,L|372:245,1,120.000004577637,8|0,0:0|0:0,0:0:0:0:
46,36,170791,5,4,1:0:0:0:
475,346,171097,6,0,L|477:284,1,60.0000022888184,0|0,3:0|3:0,3:0:0:0:
481,199,171250,1,4,1:0:0:0:
46,36,171556,6,0,L|44:98,1,60.0000022888184,0|0,3:0|3:0,3:0:0:0:
40,183,171709,1,4,1:0:0:0:
