osu file format v14

[General]
AudioFilename: audio.mp3
AudioLeadIn: 0
PreviewTime: 35485
Countdown: 0
SampleSet: Soft
StackLeniency: 0.7
Mode: 0
LetterboxInBreaks: 0
WidescreenStoryboard: 0

[Editor]
DistanceSpacing: 1.2
BeatDivisor: 4
GridSize: 4
TimelineZoom: 2.400001

[Metadata]
Title:Labios
TitleUnicode:Labios
Artist:Jenny And The Mexicats
ArtistUnicode:Jenny And The Mexicats
Creator:ezek
Version:Insano de Nowa
Source:Amor de mis amores
Tags:love of my loves soundtrack ome latin MkGuh DTM9 Nowa fieryrage spanish espanol espaƱol
BeatmapID:1181264
BeatmapSetID:534813

[Difficulty]
HPDrainRate:5.5
CircleSize:4
OverallDifficulty:6.5
ApproachRate:8.7
SliderMultiplier:1.4
SliderTickRate:2

[Events]
//Background and Video events
0,0,"Amorts.jpg",0,0
Video,0,"Meow.avi"
//Break Periods
2,134256,140758
//Storyboard Layer 0 (Background)
//Storyboard Layer 1 (Fail)
//Storyboard Layer 2 (Pass)
//Storyboard Layer 3 (Foreground)
//Storyboard Sound Samples

[TimingPoints]
1812,306.122448979592,4,2,0,70,1,0
16505,-133.333333333333,4,2,0,70,0,0
33648,-133.333333333333,4,2,0,10,0,0
33954,-125,4,2,0,20,0,0
34260,-117.647058823529,4,2,0,30,0,0
34567,-111.111111111111,4,2,0,50,0,0
34873,-105.263157894737,4,2,0,60,0,0
35179,-100,4,2,0,70,0,0
35485,-100,4,2,0,80,0,0
35791,-90.9090909090909,4,2,0,90,0,0
36097,-80,4,2,0,90,0,1
43368,-80,4,2,0,20,0,1
43444,-80,4,2,0,90,0,1
55689,-100,4,2,0,80,0,0
75281,-133.333333333333,4,2,0,60,0,0
92424,-133.333333333333,4,2,0,10,0,0
92730,-125,4,2,0,20,0,0
93036,-117.647058823529,4,2,0,30,0,0
93342,-111.111111111111,4,2,0,40,0,0
93648,-105.263157894737,4,2,0,50,0,0
93954,-100,4,2,0,60,0,0
94260,-95.2380952380952,4,2,0,70,0,0
94567,-90.9090909090909,4,2,0,85,0,0
94873,-80,4,2,0,90,0,1
114158,-80,4,2,0,90,0,0
114465,-80,4,2,0,90,0,1
134056,-80,4,2,0,90,0,0
141403,-133.333333333333,4,2,0,10,0,0
141709,-125,4,2,0,20,0,0
142016,-117.647058823529,4,2,0,30,0,0
142322,-111.111111111111,4,2,0,40,0,0
142628,-105.263157894737,4,2,0,50,0,0
142934,-100,4,2,0,60,0,0
143240,-95.2380952380952,4,2,0,70,0,0
143546,-90.9090909090909,4,2,0,85,0,0
143852,-80,4,2,0,90,0,1
153342,-80,4,2,0,90,0,0
153648,-80,4,2,0,90,0,1
170638,-80,4,2,0,90,0,0
170791,-80,4,2,0,90,0,1
171863,-80,4,2,0,5,0,0

[Colours]
Combo1 : 150,232,77
Combo2 : 255,125,252
Combo3 : 109,227,252
Combo4 : 241,136,73

[HitObjects]
358,300,6709,6,0,P|323:239|318:170,1,140,4|8,0:0|0:0,0:0:0:0:
352,85,7169,1,0,0:0:0:0:
262,98,7322,2,0,P|233:97|189:84,1,70,2|0,0:0|0:0,0:0:0:0:
114,41,7628,1,8,0:0:0:0:
115,132,7781,6,0,P|112:170|98:209,1,70,0|2,0:0|0:0,0:0:0:0:
187,230,8087,2,0,P|190:192|204:153,1,70,0|8,0:0|0:0,0:0:0:0:
262,98,8393,2,0,L|411:94,1,140,0|0,3:0|0:0,0:0:0:0:
490,116,8852,2,0,P|484:152|488:186,1,70,8|0,0:0|0:0,0:0:0:0:
490,276,9158,6,0,L|350:272,1,140,2|8,0:0|0:0,0:0:0:0:
279,213,9618,1,0,3:0:0:0:
261,123,9771,2,0,P|265:78|278:44,1,70,2|0,0:0|0:0,0:0:0:0:
193,13,10077,2,0,P|188:57|175:91,1,70,8|0,0:0|0:0,0:0:0:0:
131,158,10383,5,2,0:0:0:0:
90,239,10536,2,0,P|79:272|77:307,1,70,0|8,0:0|0:0,0:0:0:0:
157,351,10842,1,0,0:0:0:0:
243,323,10995,2,0,P|288:318|323:323,1,70,2|0,0:0|0:0,0:0:0:0:
343,235,11301,2,0,P|298:240|263:235,1,70,8|0,0:0|0:0,0:0:0:0:
188,207,11607,6,0,L|180:49,1,140,2|8,0:0|0:0,0:0:0:0:
253,10,12067,1,0,0:0:0:0:
336,45,12220,2,0,P|379:51|414:44,1,70,2|0,0:0|0:0,0:0:0:0:
487,9,12526,1,8,0:0:0:0:
477,98,12679,6,0,P|473:134|486:185,1,70,0|2,0:0|0:0,0:0:0:0:
508,252,12985,2,0,P|513:286|509:321,1,70,0|8,0:0|0:0,0:0:0:0:
432,369,13291,2,0,L|287:357,1,140,0|0,3:0|0:0,0:0:0:0:
201,366,13750,2,0,P|208:331|198:286,1,70,8|0,0:0|0:0,0:0:0:0:
159,217,14056,6,0,P|145:144|167:62,1,140,2|8,0:0|0:0,0:0:0:0:
242,45,14516,2,0,P|315:31|397:53,1,140,0|0,3:0|0:0,0:0:0:0:
414,128,14975,2,0,P|428:166|425:204,1,70,8|0,0:0|0:0,0:0:0:0:
390,278,15281,6,0,L|394:351,2,70,2|0|8,0:0|0:0|0:0,0:0:0:0:
310,233,15740,1,8,0:0:0:0:
223,261,15893,1,2,0:0:0:0:
223,261,15970,1,0,0:0:0:0:
223,261,16046,1,0,3:0:0:0:
243,172,16199,2,0,P|246:136|239:99,1,70,0|0,3:0|3:0,0:0:0:0:
212,38,16505,5,4,0:0:0:0:
343,73,16812,1,0,0:0:0:0:
244,165,17118,2,0,P|221:233|239:318,1,157.500006008148,0|0,0:0|0:0,0:0:0:0:
304,353,17730,2,0,P|359:362|407:348,1,105.000004005432,2|0,0:0|0:0,0:0:0:0:
456,288,18189,2,0,L|429:112,1,157.500006008148,0|0,0:0|3:0,0:0:0:0:
364,92,18801,1,0,0:0:0:0:
293,126,18954,6,0,P|230:136|174:119,1,105.000004005432,2|0,0:0|0:0,0:0:0:0:
119,91,19414,2,0,L|108:165,1,52.5000020027161,0|2,0:0|0:0,0:0:0:0:
161,203,19720,2,0,L|172:277,1,52.5000020027161,0|0,0:0|3:0,0:0:0:0:
236,294,20026,2,0,L|263:139,1,157.500006008148,0|0,0:0|3:0,0:0:0:0:
333,103,20638,5,0,0:0:0:0:
401,142,20791,2,0,L|458:134,2,52.5000020027161,2|2|0,0:0|0:0|0:0,0:0:0:0:
333,103,21250,1,2,0:0:0:0:
263,66,21403,6,0,L|204:71,1,52.5000020027161,2|0,0:0|0:0,0:0:0:0:
138,100,21709,2,0,L|79:95,1,52.5000020027161,0|0,3:0|0:0,0:0:0:0:
10,119,22016,2,0,P|28:185|11:272,1,157.500006008148,2|0,0:0|0:0,0:0:0:0:
23,348,22628,1,0,3:0:0:0:
93,312,22781,2,0,P|125:316|152:315,1,52.5000020027161,0|2,0:0|0:0,0:0:0:0:
205,365,23087,2,0,P|279:316|355:310,1,157.500006008148,0|2,0:0|0:0,0:0:0:0:
424,323,23699,1,0,0:0:0:0:
406,246,23852,6,0,P|402:217|404:194,1,52.5000020027161,2|0,0:0|0:0,0:0:0:0:
477,215,24158,2,0,P|479:189|476:163,1,52.5000020027161,0|0,3:0|0:0,0:0:0:0:
413,112,24465,1,2,0:0:0:0:
455,29,24618,1,0,0:0:0:0:
455,29,24694,1,0,0:0:0:0:
455,29,24771,1,0,3:0:0:0:
375,37,24924,1,0,0:0:0:0:
293,48,25077,6,0,L|236:40,1,52.5000020027161,2|0,0:0|0:0,0:0:0:0:
197,109,25383,2,0,L|248:116,1,52.5000020027161,0|0,3:0|0:0,0:0:0:0:
315,165,25689,2,0,P|311:190|314:216,1,52.5000020027161,2|0,0:0|0:0,0:0:0:0:
388,272,25995,2,0,P|397:248|399:222,1,52.5000020027161,0|0,3:0|0:0,0:0:0:0:
318,318,26301,5,4,0:0:0:0:
318,318,26607,2,0,L|250:309,1,52.5000020027161,0|0,3:0|0:0,0:0:0:0:
183,349,26914,2,0,L|171:235,1,105.000004005432,2|0,0:0|3:0,0:0:0:0:
163,166,27373,1,0,0:0:0:0:
238,196,27526,6,0,P|286:194|334:159,1,105.000004005432,2|0,0:0|0:0,0:0:0:0:
368,70,27985,2,0,L|357:230,1,157.500006008148,0|0,0:0|3:0,0:0:0:0:
349,301,28597,1,0,0:0:0:0:
441,266,28750,6,0,L|433:155,1,105.000004005432,2|0,0:0|3:0,0:0:0:0:
375,95,29209,2,0,P|306:131|218:107,1,157.500006008148,0|0,0:0|3:0,0:0:0:0:
179,57,29822,1,0,0:0:0:0:
148,133,29975,6,0,P|101:106|29:112,1,105.000004005432,2|0,0:0|3:0,0:0:0:0:
0,170,30434,1,0,0:0:0:0:
82,235,30587,1,2,0:0:0:0:
82,235,30740,2,0,P|83:203|69:164,1,52.5000020027161,0|0,0:0|0:0,0:0:0:0:
149,135,31046,2,0,P|194:161|250:157,1,105.000004005432,0|0,0:0|0:0,0:0:0:0:
327,119,31505,5,0,3:0:0:0:
327,119,31658,2,0,L|323:171,1,52.5000020027161,0|2,0:0|0:0,0:0:0:0:
264,233,31965,2,0,L|272:337,1,105.000004005432,0|0,0:0|0:0,0:0:0:0:
376,347,32424,6,0,L|267:337,1,105.000004005432,2|0,0:0|0:0,0:0:0:0:
198,365,32883,1,0,0:0:0:0:
126,333,33036,2,0,P|126:306|118:279,1,52.5000020027161,2|0,0:0|0:0,0:0:0:0:
145,162,33342,2,0,P|145:188|153:216,1,52.5000020027161,0|0,3:0|0:0,0:0:0:0:
235,260,33648,6,0,L|297:271,1,52.5000020027161,4|4,3:0|3:0,0:0:0:0:
340,327,33954,2,0,L|402:315,1,56,4|4,3:0|3:0,0:0:0:0:
458,263,34260,6,0,L|446:200,1,59.5000011348725,4|4,3:0|3:0,0:0:0:0:
388,154,34566,2,0,L|399:91,1,59.5000011348725,4|4,3:0|3:0,0:0:0:0:
374,17,34873,6,0,P|342:38|306:46,1,66.4999982242585,4|4,3:0|3:0,0:0:0:0:
244,90,35179,2,0,P|208:79|179:58,1,70,4|4,3:0|3:0,0:0:0:0:
121,0,35485,5,4,3:0:0:0:
53,86,35638,1,4,3:0:0:0:
53,86,35791,2,0,L|57:164,1,77.0000023498536,4|4,3:0|3:0,0:0:0:0:
165,241,36097,6,0,P|259:223|349:239,1,175,4|8,0:0|0:0,0:0:0:0:
404,314,36556,1,4,3:0:0:0:
309,359,36709,2,0,P|260:369|213:364,1,87.5,0|2,0:0|0:0,0:0:0:0:
121,336,37016,1,8,0:0:0:0:
165,241,37169,6,0,P|210:227|267:224,1,87.5,0|4,0:0|3:0,0:0:0:0:
328,153,37475,2,0,P|373:167|430:170,1,87.5,0|8,0:0|0:0,0:0:0:0:
510,131,37781,2,0,B|490:321,1,175,4|0,3:0|0:0,0:0:0:0:
403,361,38240,2,0,P|393:318|369:280,1,87.5,8|0,0:0|0:0,0:0:0:0:
292,352,38546,6,0,P|250:364|207:357,1,87.5,4|0,3:0|0:0,0:0:0:0:
125,291,38852,1,8,0:0:0:0:
37,349,39005,1,4,3:0:0:0:
15,246,39158,2,0,L|-2:141,2,87.5,2|0|8,0:0|0:0|0:0,0:0:0:0:
125,291,39618,6,0,P|176:268|217:263,1,87.5,0|4,0:0|3:0,0:0:0:0:
288,197,39924,2,0,P|245:188|206:169,1,87.5,0|8,0:0|0:0,0:0:0:0:
136,90,40230,2,0,L|118:197,1,87.5,4|2,3:0|0:0,0:0:0:0:
16,168,40536,2,0,L|34:275,1,87.5,0|8,0:0|0:0,0:0:0:0:
22,358,40842,1,0,0:0:0:0:
125,291,40995,6,0,L|304:304,1,175,4|8,3:0|0:0,0:0:0:0:
399,337,41454,2,0,P|398:288|415:243,1,87.5,4|2,3:0|0:0,0:0:0:0:
466,162,41760,1,0,0:0:0:0:
417,68,41914,2,0,P|375:74|330:64,1,87.5,8|0,0:0|0:0,0:0:0:0:
226,53,42220,6,0,P|183:42|141:49,2,87.5,4|0|8,3:0|0:0|0:0,0:0:0:0:
280,142,42679,2,0,L|270:246,1,87.5,4|0,3:0|0:0,0:0:0:0:
188,293,42985,1,0,0:0:0:0:
188,293,43138,2,0,L|176:162,1,131.25,8|0,0:0|0:0,0:0:0:0:
186,139,43444,6,0,L|194:50,1,87.5,4|0,3:0|0:0,0:0:0:0:
296,71,43750,1,8,0:0:0:0:
398,51,43903,2,0,L|406:139,1,87.5,4|0,3:0|0:0,0:0:0:0:
418,243,44209,1,0,0:0:0:0:
337,311,44363,2,0,P|292:315|250:306,1,87.5,8|0,0:0|0:0,0:0:0:0:
152,235,44669,5,4,3:0:0:0:
152,235,44822,1,0,0:0:0:0:
104,328,44975,1,8,0:0:0:0:
47,240,45128,1,4,3:0:0:0:
95,146,45281,2,0,L|192:138,1,87.5,2|0,0:0|0:0,0:0:0:0:
257,230,45587,2,0,L|354:238,1,87.5,8|0,0:0|0:0,0:0:0:0:
438,282,45893,6,0,B|356:315|356:315|269:309,1,175,4|8,0:0|0:0,0:0:0:0:
172,349,46352,1,4,3:0:0:0:
84,290,46505,2,0,P|91:243|79:199,1,87.5,0|2,0:0|0:0,0:0:0:0:
12,124,46812,1,8,0:0:0:0:
109,86,46965,1,0,0:0:0:0:
206,124,47118,6,0,P|232:85|243:32,2,87.5,4|0|8,3:0|0:0|0:0,0:0:0:0:
247,220,47577,2,0,P|289:209|333:210,1,87.5,4|0,3:0|0:0,0:0:0:0:
414,275,47883,1,0,0:0:0:0:
475,190,48036,2,0,L|464:88,1,87.5,8|0,0:0|0:0,0:0:0:0:
383,37,48342,6,0,L|378:125,1,87.5,4|0,3:0|0:0,0:0:0:0:
315,208,48648,2,0,P|269:190|212:194,1,87.5,8|4,0:0|3:0,0:0:0:0:
145,249,48954,1,2,0:0:0:0:
106,346,49107,1,0,0:0:0:0:
32,270,49260,2,0,L|20:169,1,87.5,8|0,0:0|0:0,0:0:0:0:
94,106,49567,6,0,P|137:111|180:103,1,87.5,4|0,3:0|0:0,0:0:0:0:
262,38,49873,1,8,0:0:0:0:
316,127,50026,2,0,P|319:166|309:224,1,87.5,4|2,3:0|0:0,0:0:0:0:
351,311,50332,1,0,0:0:0:0:
408,223,50485,2,0,P|404:183|414:125,1,87.5,8|0,0:0|0:0,0:0:0:0:
452,40,50791,6,0,L|255:48,1,175,4|8,3:0|0:0,0:0:0:0:
185,98,51250,1,4,3:0:0:0:
86,61,51403,2,0,P|107:104|85:237,1,175,0|8,0:0|0:0,0:0:0:0:
149,314,51863,1,0,0:0:0:0:
239,260,52016,6,0,L|258:165,2,87.5,4|0|8,3:0|0:0|0:0,0:0:0:0:
306,340,52475,2,0,P|351:320|394:314,1,87.5,4|0,3:0|0:0,0:0:0:0:
461,238,52781,1,0,0:0:0:0:
461,238,52934,2,0,P|418:230|378:212,1,87.5,8|0,0:0|0:0,0:0:0:0:
323,122,53240,6,0,L|144:128,1,175,4|8,0:0|0:0,0:0:0:0:
51,87,53699,2,0,P|59:133|48:175,1,87.5,4|0,3:0|0:0,0:0:0:0:
12,270,54005,1,0,0:0:0:0:
109,229,54158,2,0,L|213:219,1,87.5,8|0,0:0|0:0,0:0:0:0:
294,260,54465,6,0,P|306:169|371:101,1,175,4|8,3:0|0:0,0:0:0:0:
319,10,54924,2,0,P|276:19|232:12,1,87.5,4|0,3:0|3:0,0:0:0:0:
147,72,55230,1,0,3:0:0:0:
52,26,55383,2,0,L|58:127,1,87.5,8|0,0:0|0:0,0:0:0:0:
40,202,55689,6,0,P|109:188|187:197,1,140,4|8,0:0|0:0,0:0:0:0:
249,250,56148,2,0,P|284:254|318:247,1,70,0|2,0:0|0:0,0:0:0:0:
375,176,56454,1,0,0:0:0:0:
338,92,56607,1,8,0:0:0:0:
275,157,56760,6,0,L|121:139,1,140,0|0,0:0|0:0,0:0:0:0:
63,197,57220,1,8,0:0:0:0:
5,126,57373,2,0,P|6:79|-2:47,1,70,0|0,3:0|0:0,0:0:0:0:
83,17,57679,1,0,0:0:0:0:
83,17,57832,2,0,P|82:64|90:96,1,70,8|0,0:0|0:0,0:0:0:0:
157,143,58138,6,0,L|311:161,1,140,2|8,0:0|0:0,0:0:0:0:
347,234,58597,1,0,3:0:0:0:
347,234,58750,2,0,P|311:245|269:246,1,70,2|0,0:0|0:0,0:0:0:0:
195,283,59056,2,0,P|165:263|119:256,2,70,8|0|2,0:0|0:0|0:0,0:0:0:0:
249,356,59516,6,0,P|282:341|335:336,1,70,0|8,0:0|0:0,0:0:0:0:
402,361,59822,1,0,3:0:0:0:
402,361,59975,2,0,L|408:292,1,70,2|0,0:0|0:0,0:0:0:0:
484,241,60281,2,0,L|477:172,1,70,8|0,0:0|0:0,0:0:0:0:
402,118,60587,6,0,P|336:94|291:42,1,140,2|8,0:0|0:0,0:0:0:0:
212,86,61046,1,0,0:0:0:0:
131,42,61199,2,0,P|94:33|42:38,1,70,2|0,0:0|0:0,0:0:0:0:
8,108,61505,1,8,0:0:0:0:
8,108,61658,6,0,P|8:147|16:189,1,70,0|2,0:0|0:0,0:0:0:0:
89,228,61965,2,0,P|94:193|93:158,1,70,0|8,0:0|0:0,0:0:0:0:
174,115,62271,2,0,L|320:128,1,140,0|0,3:0|0:0,0:0:0:0:
366,201,62730,2,0,L|297:207,1,70,8|0,0:0|0:0,0:0:0:0:
190,296,63036,6,0,P|213:294|241:299,3,35,2|0|0|0,0:0|0:0|0:0|0:0,0:0:0:0:
301,309,63342,2,0,P|314:341|314:380,1,70,8|0,0:0|3:0,0:0:0:0:
397,338,63648,2,0,P|397:303|410:270,1,70,2|0,0:0|0:0,0:0:0:0:
482,215,63954,2,0,L|500:301,2,70,8|0|2,0:0|0:0|0:0,0:0:0:0:
414,152,64414,6,0,L|329:132,1,70,0|8,0:0|0:0,0:0:0:0:
273,80,64720,1,0,3:0:0:0:
273,80,64873,2,0,P|247:109|216:124,1,70,2|0,0:0|0:0,0:0:0:0:
139,165,65179,2,0,P|108:148|86:121,1,70,8|0,0:0|0:0,0:0:0:0:
27,51,65485,6,0,P|41:124|26:197,1,140,4|8,0:0|0:0,0:0:0:0:
3,274,65944,1,0,0:0:0:0:
91,252,66097,2,0,L|161:258,1,70,2|0,0:0|0:0,0:0:0:0:
250,240,66403,1,8,0:0:0:0:
319,299,66556,6,0,P|387:312|465:293,1,140,0|0,0:0|0:0,0:0:0:0:
501,222,67016,1,8,0:0:0:0:
482,137,67169,2,0,P|413:123|335:142,1,140,0|0,0:0|0:0,0:0:0:0:
264,95,67628,2,0,P|229:98|194:94,1,70,8|0,0:0|0:0,0:0:0:0:
114,51,67934,6,0,L|122:192,1,140,2|8,0:0|0:0,0:0:0:0:
86,274,68393,1,0,3:0:0:0:
135,350,68546,2,0,P|168:332|209:327,1,70,2|0,0:0|0:0,0:0:0:0:
263,261,68852,2,0,P|228:254|197:238,2,70,8|0|2,0:0|0:0|0:0,0:0:0:0:
347,295,69312,6,0,P|382:287|424:287,1,70,0|8,0:0|0:0,0:0:0:0:
496,329,69618,1,0,3:0:0:0:
506,238,69771,2,0,L|513:162,1,70,2|0,0:0|0:0,0:0:0:0:
438,115,70077,2,0,L|431:184,1,70,8|0,0:0|0:0,0:0:0:0:
344,209,70383,6,0,P|298:162|214:135,1,140,2|8,0:0|0:0,0:0:0:0:
146,172,70842,1,0,0:0:0:0:
73,116,70995,2,0,L|78:46,1,70,2|0,0:0|0:0,0:0:0:0:
159,4,71301,1,8,0:0:0:0:
236,51,71454,6,0,P|274:43|312:47,1,70,0|2,0:0|0:0,0:0:0:0:
360,116,71760,2,0,P|394:118|428:110,1,70,0|8,0:0|0:0,0:0:0:0:
501,54,72067,2,0,L|509:193,1,140,0|0,0:0|0:0,0:0:0:0:
446,258,72526,2,0,L|441:327,1,70,8|0,0:0|0:0,0:0:0:0:
354,357,72832,6,0,P|292:333|201:357,1,140,2|8,0:0|0:0,0:0:0:0:
134,373,73291,2,0,P|146:304|121:240,1,140,0|0,3:0|0:0,0:0:0:0:
75,161,73750,2,0,P|120:168|159:162,1,70,8|0,0:0|0:0,0:0:0:0:
227,128,74056,6,0,P|261:126|300:134,2,70,0|0|8,3:0|3:0|0:0,0:0:0:0:
144,165,74516,2,0,L|152:234,1,70,8|2,0:0|0:0,0:0:0:0:
242,248,74822,1,0,0:0:0:0:
242,248,74975,2,0,L|233:317,1,70,2|0,3:0|0:0,0:0:0:0:
184,378,75281,5,4,0:0:0:0:
152,234,75587,1,0,3:0:0:0:
120,90,75893,2,0,P|192:124|219:123,1,105.000004005432,2|0,0:0|0:0,0:0:0:0:
307,98,76352,1,0,0:0:0:0:
307,98,76505,6,0,L|294:206,1,105.000004005432,2|0,0:0|0:0,0:0:0:0:
256,271,76965,2,0,P|177:250|97:286,1,157.500006008148,0|0,0:0|3:0,0:0:0:0:
54,333,77577,1,0,0:0:0:0:
33,257,77730,6,0,P|32:214|20:145,1,105.000004005432,2|0,0:0|3:0,0:0:0:0:
0,77,78189,2,0,L|166:88,1,157.500006008148,0|0,0:0|3:0,0:0:0:0:
222,131,78801,2,0,P|279:96|363:130,1,157.500006008148,0|0,0:0|3:0,0:0:0:0:
394,195,79414,5,2,0:0:0:0:
442,133,79567,2,0,L|434:78,2,52.5000020027161,0|2|0,0:0|0:0|0:0,0:0:0:0:
394,195,80026,1,0,0:0:0:0:
345,257,80179,6,0,L|286:262,1,52.5000020027161,2|0,0:0|0:0,0:0:0:0:
228,307,80485,2,0,L|169:302,1,52.5000020027161,0|0,3:0|0:0,0:0:0:0:
106,264,80792,2,0,P|101:189|85:109,1,157.500006008148,2|0,0:0|0:0,0:0:0:0:
134,47,81403,6,0,P|190:48|238:35,1,105.000004005432,2|0,0:0|0:0,0:0:0:0:
304,76,81863,2,0,P|370:64|448:106,1,157.500006008148,0|0,0:0|3:0,0:0:0:0:
456,183,82475,1,0,0:0:0:0:
383,213,82628,6,0,P|379:184|381:161,1,52.5000020027161,2|0,0:0|0:0,0:0:0:0:
456,183,82934,2,0,P|459:209|457:235,1,52.5000020027161,0|0,3:0|0:0,0:0:0:0:
396,292,83241,1,2,0:0:0:0:
322,262,83394,1,0,0:0:0:0:
278,336,83546,1,0,3:0:0:0:
204,306,83699,1,0,0:0:0:0:
133,344,83853,6,0,L|125:287,1,52.5000020027161,0|0,3:0|0:0,0:0:0:0:
137,270,84082,1,0,3:0:0:0:
148,247,84158,2,0,L|140:190,1,52.5000020027161,0|0,3:0|0:0,0:0:0:0:
107,78,84465,2,0,P|123:96|146:110,1,52.5000020027161,2|0,0:0|0:0,0:0:0:0:
230,138,84771,2,0,P|247:119|261:96,1,52.5000020027161,0|0,3:0|0:0,0:0:0:0:
292,20,85077,5,4,0:0:0:0:
322,201,85383,2,0,L|335:264,1,52.5000020027161,0|0,3:0|0:0,0:0:0:0:
425,285,85689,2,0,P|381:276|305:284,1,105.000004005432,2|0,0:0|0:0,0:0:0:0:
253,320,86148,1,0,0:0:0:0:
211,253,86301,1,2,0:0:0:0:
211,253,86454,6,0,P|205:223|209:195,1,52.5000020027161,0|0,0:0|0:0,0:0:0:0:
279,140,86760,2,0,P|218:167|136:124,1,157.500006008148,0|0,0:0|3:0,0:0:0:0:
106,58,87373,1,0,0:0:0:0:
106,58,87526,6,0,L|98:172,1,105.000004005432,2|0,0:0|0:0,0:0:0:0:
52,226,87985,2,0,P|98:243|127:353,1,157.500006008148,0|0,0:0|3:0,0:0:0:0:
213,378,88597,1,0,0:0:0:0:
213,378,88750,6,0,P|249:340|306:330,1,105.000004005432,2|0,0:0|3:0,0:0:0:0:
391,355,89209,1,2,0:0:0:0:
391,355,89363,2,0,L|396:294,1,52.5000020027161,0|2,0:0|0:0,0:0:0:0:
405,207,89669,1,0,0:0:0:0:
405,207,89822,2,0,L|281:214,1,105.000004005432,0|0,0:0|0:0,0:0:0:0:
218,232,90281,5,0,3:0:0:0:
218,232,90434,2,0,L|222:180,1,52.5000020027161,0|2,0:0|0:0,0:0:0:0:
235,87,90741,2,0,P|191:108|128:108,1,105.000004005432,0|0,0:0|0:0,0:0:0:0:
56,75,91200,6,0,L|68:184,1,105.000004005432,2|0,0:0|0:0,0:0:0:0:
76,258,91659,1,0,0:0:0:0:
142,201,91812,2,0,P|167:194|193:194,1,52.5000020027161,2|0,0:0|0:0,0:0:0:0:
312,174,92118,2,0,P|285:174|260:167,1,52.5000020027161,0|0,3:0|0:0,0:0:0:0:
215,84,92424,6,0,L|267:90,1,52.5000020027161,4|4,3:0|3:0,0:0:0:0:
342,106,92730,2,0,L|397:99,1,56,4|4,3:0|3:0,0:0:0:0:
463,42,93036,6,0,P|477:67|484:100,1,59.5000011348725,4|4,3:0|3:0,0:0:0:0:
506,181,93342,2,0,P|494:212|471:237,1,62.9999980773926,4|4,3:0|3:0,0:0:0:0:
421,318,93648,6,0,L|355:315,1,66.4999982242585,4|4,3:0|3:0,0:0:0:0:
297,241,93954,2,0,L|225:244,1,70,4|4,3:0|3:0,0:0:0:0:
144,315,94260,5,4,3:0:0:0:
71,244,94414,1,4,3:0:0:0:
71,244,94567,2,0,L|84:156,1,77.0000023498536,4|4,3:0|3:0,0:0:0:0:
122,37,94873,6,0,P|197:78|283:83,1,175,4|8,0:0|0:0,0:0:0:0:
383,46,95332,1,4,3:0:0:0:
342,135,95485,2,0,P|336:181|343:231,1,87.5,2|0,0:0|0:0,0:0:0:0:
386,316,95791,1,8,0:0:0:0:
283,294,95944,6,0,P|239:289|194:299,1,87.5,0|4,0:0|3:0,0:0:0:0:
109,355,96250,2,0,P|66:362|22:357,1,87.5,0|8,0:0|0:0,0:0:0:0:
61,259,96556,2,0,B|76:80,1,175,4|0,3:0|0:0,0:0:0:0:
150,10,97016,2,0,P|177:48|215:75,1,87.5,8|0,0:0|0:0,0:0:0:0:
276,153,97322,6,0,L|189:167,1,87.5,4|0,3:0|0:0,0:0:0:0:
87,190,97628,1,8,0:0:0:0:
142,279,97781,2,0,L|124:378,2,87.5,4|2|0,3:0|0:0|0:0,0:0:0:0:
234,229,98240,1,8,0:0:0:0:
326,278,98393,6,0,P|372:282|429:266,1,87.5,0|4,0:0|3:0,0:0:0:0:
468,185,98699,2,0,L|458:84,1,87.5,0|8,0:0|0:0,0:0:0:0:
387,21,99005,2,0,L|377:122,1,87.5,4|2,3:0|0:0,0:0:0:0:
301,180,99312,1,0,0:0:0:0:
219,113,99465,2,0,P|179:99|123:103,1,87.5,8|0,0:0|0:0,0:0:0:0:
54,167,99771,6,0,L|69:349,1,175,4|8,3:0|0:0,0:0:0:0:
160,291,100230,1,4,3:0:0:0:
250,344,100383,2,0,P|293:351|346:343,1,87.5,2|0,0:0|0:0,0:0:0:0:
424,290,100689,1,8,0:0:0:0:
336,231,100842,6,0,L|317:131,1,87.5,0|4,0:0|3:0,0:0:0:0:
239,77,101148,2,0,L|231:164,1,87.5,0|8,0:0|0:0,0:0:0:0:
165,245,101454,2,0,P|119:173|35:162,1,175,4|0,3:0|0:0,0:0:0:0:
10,265,101914,2,0,P|46:297|87:306,1,87.5,8|0,0:0|0:0,0:0:0:0:
178,350,102220,6,0,P|229:328|274:319,1,87.5,4|0,3:0|0:0,0:0:0:0:
353,367,102526,1,8,0:0:0:0:
260,320,102679,2,0,P|247:277|248:233,1,87.5,4|0,3:0|0:0,0:0:0:0:
291,139,102985,1,0,0:0:0:0:
382,191,103138,1,8,0:0:0:0:
382,191,103291,6,0,P|430:189|481:172,1,87.5,0|4,0:0|3:0,0:0:0:0:
509,89,103597,1,0,0:0:0:0:
509,89,103750,1,8,0:0:0:0:
442,8,103903,1,4,3:0:0:0:
345,78,104056,2,0,P|303:66|246:67,1,87.5,2|0,0:0|0:0,0:0:0:0:
178,143,104363,2,0,P|134:143|93:128,1,87.5,8|0,0:0|0:0,0:0:0:0:
18,55,104669,6,0,P|-9:136|30:212,1,175,4|8,0:0|0:0,0:0:0:0:
128,251,105128,1,4,3:0:0:0:
224,209,105281,2,0,L|400:218,1,175,0|8,0:0|0:0,0:0:0:0:
502,240,105740,6,0,P|488:195|498:142,1,87.5,0|4,0:0|3:0,0:0:0:0:
511,51,106046,2,0,L|415:55,1,87.5,0|8,0:0|0:0,0:0:0:0:
323,22,106352,2,0,P|344:105|348:207,1,175,4|0,3:0|0:0,0:0:0:0:
264,258,106812,2,0,P|247:216|245:168,1,87.5,8|0,0:0|0:0,0:0:0:0:
175,95,107118,6,0,P|142:124|103:143,1,87.5,4|0,3:0|0:0,0:0:0:0:
2,172,107424,2,0,L|13:266,1,87.5,8|4,0:0|3:0,0:0:0:0:
93,325,107730,2,0,L|103:238,1,87.5,2|0,0:0|0:0,0:0:0:0:
193,184,108036,1,8,0:0:0:0:
284,234,108189,6,0,L|459:228,1,175,0|0,0:0|0:0,0:0:0:0:
458,228,108648,1,8,0:0:0:0:
508,135,108801,2,0,P|467:117|439:84,1,87.5,4|2,3:0|0:0,0:0:0:0:
368,8,109107,2,0,L|350:97,1,87.5,0|8,0:0|0:0,0:0:0:0:
327,196,109414,1,0,0:0:0:0:
246,128,109567,6,0,P|167:99|68:120,1,175,4|8,3:0|0:0,0:0:0:0:
20,200,110026,1,4,3:0:0:0:
81,285,110179,2,0,L|69:375,2,87.5,0|0|8,0:0|0:0|0:0,0:0:0:0:
163,219,110638,6,0,P|206:212|249:217,2,87.5,0|4|0,0:0|3:0|0:0,0:0:0:0:
81,285,111097,1,8,0:0:0:0:
20,200,111250,2,0,P|36:154|38:109,1,87.5,4|0,3:0|0:0,0:0:0:0:
4,16,111556,1,0,0:0:0:0:
106,40,111709,2,0,L|198:35,1,87.5,8|0,0:0|0:0,0:0:0:0:
296,13,112016,6,0,P|251:93|230:182,1,175,4|8,0:0|0:0,0:0:0:0:
154,244,112475,2,0,P|148:200|132:160,1,87.5,4|0,3:0|0:0,0:0:0:0:
50,95,112781,1,0,0:0:0:0:
138,38,112934,2,0,L|230:33,1,87.5,8|0,0:0|0:0,0:0:0:0:
330,25,113240,6,0,L|320:215,1,175,4|8,3:0|0:0,0:0:0:0:
423,180,113699,2,0,L|428:268,1,87.5,4|0,3:0|3:0,0:0:0:0:
349,337,114005,1,0,3:0:0:0:
256,288,114158,2,0,P|213:279|169:285,1,87.5,8|0,0:0|0:0,0:0:0:0:
77,357,114465,5,4,0:0:0:0:
25,265,114618,1,0,0:0:0:0:
66,168,114771,2,0,P|74:120|66:69,1,87.5,8|4,0:0|3:0,0:0:0:0:
157,24,115077,2,0,P|166:71|192:116,1,87.5,2|0,0:0|0:0,0:0:0:0:
275,158,115383,1,8,0:0:0:0:
275,158,115536,1,0,0:0:0:0:
370,115,115689,5,4,3:0:0:0:
354,218,115842,1,0,0:0:0:0:
338,321,115995,2,0,P|255:289|165:285,1,175,8|2,0:0|0:0,0:0:0:0:
75,329,116454,1,0,0:0:0:0:
5,250,116607,2,0,P|11:206|6:160,1,87.5,8|0,0:0|0:0,0:0:0:0:
75,62,116914,5,4,3:0:0:0:
75,62,117067,2,0,L|90:148,1,87.5,0|8,0:0|0:0,0:0:0:0:
195,106,117373,5,0,0:0:0:0:
195,106,117526,2,0,L|210:192,1,87.5,0|0,3:0|3:0,0:0:0:0:
315,149,117832,5,8,0:0:0:0:
315,149,117985,2,0,L|330:235,1,87.5,0|4,0:0|3:0,0:0:0:0:
436,193,118291,5,0,0:0:0:0:
436,193,118444,2,0,L|451:279,1,87.5,8|4,0:0|3:0,0:0:0:0:
343,322,118750,5,2,0:0:0:0:
343,322,118903,1,0,0:0:0:0:
343,322,119056,2,0,L|331:235,1,87.5,8|0,0:0|0:0,0:0:0:0:
211,336,119363,5,4,0:0:0:0:
111,370,119516,1,0,0:0:0:0:
41,292,119669,2,0,P|46:243|39:202,1,87.5,8|4,0:0|3:0,0:0:0:0:
3,107,119975,2,0,P|48:112|93:105,1,87.5,2|0,0:0|0:0,0:0:0:0:
183,58,120281,1,8,0:0:0:0:
183,58,120434,1,0,0:0:0:0:
266,121,120587,5,4,3:0:0:0:
368,103,120740,1,0,0:0:0:0:
471,85,120893,2,0,P|455:170|447:272,1,175,8|2,0:0|0:0,0:0:0:0:
365,323,121352,1,0,0:0:0:0:
282,258,121505,2,0,P|241:240|198:239,1,87.5,8|0,0:0|0:0,0:0:0:0:
99,274,121812,5,4,3:0:0:0:
99,274,121965,2,0,L|91:184,1,87.5,0|8,0:0|0:0,0:0:0:0:
0,132,122271,5,4,3:0:0:0:
0,132,122424,2,0,L|7:44,1,87.5,2|0,0:0|0:0,0:0:0:0:
105,5,122730,5,8,0:0:0:0:
105,5,122883,2,0,P|151:20|193:20,1,87.5,0|4,0:0|3:0,0:0:0:0:
291,100,123189,5,0,0:0:0:0:
291,100,123342,2,0,P|247:101|206:115,1,87.5,8|4,0:0|3:0,0:0:0:0:
117,179,123648,6,0,L|134:293,1,87.5,2|0,0:0|0:0,0:0:0:0:
136,375,123954,2,0,L|148:288,1,87.5,8|0,0:0|0:0,0:0:0:0:
253,254,124260,5,4,0:0:0:0:
354,283,124414,1,0,0:0:0:0:
455,310,124567,2,0,P|445:260|444:215,1,87.5,8|0,0:0|3:0,0:0:0:0:
372,146,124873,2,0,P|381:103|383:59,1,87.5,0|2,0:0|0:0,0:0:0:0:
475,3,125179,1,8,0:0:0:0:
475,3,125332,1,0,0:0:0:0:
383,59,125485,5,4,3:0:0:0:
280,35,125638,1,0,0:0:0:0:
177,11,125791,2,0,P|204:93|191:178,1,175,8|0,0:0|0:0,0:0:0:0:
127,263,126250,1,0,0:0:0:0:
215,318,126403,2,0,L|304:305,1,87.5,8|0,0:0|0:0,0:0:0:0:
386,239,126709,6,0,P|351:211|329:157,1,87.5,4|0,3:0|0:0,0:0:0:0:
253,103,127016,1,8,0:0:0:0:
253,103,127169,2,0,L|244:190,1,87.5,4|2,3:0|0:0,0:0:0:0:
151,239,127475,5,0,0:0:0:0:
151,239,127628,1,8,0:0:0:0:
243,189,127781,1,0,0:0:0:0:
241,294,127934,1,4,3:0:0:0:
151,239,128087,2,0,P|106:235|55:218,2,87.5,0|8|4,0:0|0:0|3:0,0:0:0:0:
243,189,128546,1,2,0:0:0:0:
335,140,128699,2,0,P|376:127|420:123,2,87.5,0|8|0,0:0|0:0|0:0,0:0:0:0:
407,277,129158,5,4,0:0:0:0:
345,362,129312,1,0,0:0:0:0:
254,310,129465,2,0,P|210:307|164:319,1,87.5,8|0,0:0|0:0,0:0:0:0:
75,366,129771,2,0,L|59:276,1,87.5,2|0,0:0|0:0,0:0:0:0:
44,175,130077,1,8,0:0:0:0:
44,175,130230,1,0,0:0:0:0:
86,78,130384,5,0,0:0:0:0:
189,98,130537,1,0,0:0:0:0:
292,118,130689,2,0,L|464:91,1,175,8|2,0:0|0:0,0:0:0:0:
413,182,131148,1,0,0:0:0:0:
464,273,131301,2,0,P|470:313|465:364,1,87.5,8|0,0:0|0:0,0:0:0:0:
368,319,131607,6,0,L|280:323,1,87.5,4|0,3:0|0:0,0:0:0:0:
184,369,131914,2,0,P|178:329|183:278,1,87.5,8|4,0:0|3:0,0:0:0:0:
233,190,132220,1,2,0:0:0:0:
327,235,132373,2,0,P|337:178|325:131,1,87.5,0|8,0:0|0:0,0:0:0:0:
279,58,132679,1,0,0:0:0:0:
184,103,132832,5,0,3:0:0:0:
184,103,132908,1,0,3:0:0:0:
184,103,132985,1,0,3:0:0:0:
184,103,133062,1,0,3:0:0:0:
184,103,133138,2,0,L|76:116,1,87.5,8|0,2:0|3:0,0:0:0:0:
22,202,133444,5,0,3:0:0:0:
22,202,133520,1,0,3:0:0:0:
22,202,133597,1,0,3:0:0:0:
22,202,133674,1,0,3:0:0:0:
22,202,133750,2,0,L|130:215,1,87.5,8|0,0:0|3:0,0:0:0:0:
173,291,134056,5,4,0:0:0:0:
263,321,141403,6,0,L|206:313,1,52.5000020027161,4|4,3:0|3:0,0:0:0:0:
144,361,141709,2,0,L|87:369,1,56,4|4,3:0|3:0,0:0:0:0:
9,330,142016,6,0,L|2:271,1,59.5000011348725,4|4,3:0|3:0,0:0:0:0:
43,192,142322,2,0,L|52:127,1,62.9999980773926,4|4,3:0|3:0,0:0:0:0:
75,24,142628,6,0,P|97:48|127:60,1,66.4999982242585,4|4,3:0|3:0,0:0:0:0:
202,108,142934,2,0,P|238:96|267:71,1,70,4|4,3:0|3:0,0:0:0:0:
341,13,143240,5,4,3:0:0:0:
452,100,143393,1,4,3:0:0:0:
334,108,143546,5,4,3:0:0:0:
459,5,143699,1,4,3:0:0:0:
503,160,143852,6,0,P|513:247|497:367,1,175,4|8,0:0|0:0,0:0:0:0:
408,377,144312,1,4,3:0:0:0:
317,324,144465,2,0,L|309:231,1,87.5,2|0,0:0|0:0,0:0:0:0:
302,132,144771,1,8,0:0:0:0:
211,187,144924,6,0,P|159:190|111:172,1,87.5,0|4,0:0|3:0,0:0:0:0:
63,266,145230,2,0,P|107:261|149:273,1,87.5,0|8,0:0|0:0,0:0:0:0:
233,332,145536,2,0,B|316:303|316:303|414:315,1,175,4|0,3:0|0:0,0:0:0:0:
506,328,145995,2,0,P|499:278|510:236,1,87.5,8|0,0:0|0:0,0:0:0:0:
436,165,146301,6,0,P|390:176|330:169,1,87.5,4|0,3:0|0:0,0:0:0:0:
259,120,146607,1,8,0:0:0:0:
204,209,146760,2,0,P|198:255|208:307,2,87.5,4|2|0,3:0|0:0|0:0,0:0:0:0:
137,127,147220,1,8,0:0:0:0:
90,221,147373,6,0,P|45:231|-10:218,2,87.5,0|4|0,0:0|3:0|0:0,0:0:0:0:
204,209,147832,2,0,P|246:198|289:206,1,87.5,8|4,0:0|3:0,0:0:0:0:
369,272,148138,1,2,0:0:0:0:
392,374,148291,1,0,0:0:0:0:
427,230,148444,2,0,L|449:139,1,87.5,8|0,0:0|0:0,0:0:0:0:
489,48,148750,6,0,L|284:69,1,175,4|8,3:0|0:0,0:0:0:0:
219,110,149209,1,4,3:0:0:0:
120,71,149363,2,0,P|127:118|120:162,1,87.5,2|0,0:0|0:0,0:0:0:0:
59,241,149669,1,8,0:0:0:0:
163,255,149822,6,0,P|207:262|252:280,1,87.5,0|4,0:0|3:0,0:0:0:0:
319,201,150128,2,0,P|363:194|408:176,1,87.5,0|8,0:0|0:0,0:0:0:0:
505,155,150434,2,0,P|477:239|507:340,1,175,4|0,3:0|0:0,0:0:0:0:
398,358,150893,2,0,P|375:312|338:284,1,87.5,8|0,0:0|0:0,0:0:0:0:
319,201,151199,6,0,P|240:241|135:217,1,175,4|8,3:0|0:0,0:0:0:0:
58,193,151658,2,0,L|73:294,2,87.5,4|2|0,3:0|0:0|0:0,0:0:0:0:
3,102,152118,2,0,L|18:1,1,87.5,8|0,0:0|0:0,0:0:0:0:
116,45,152424,5,0,3:0:0:0:
127,47,152500,1,0,3:0:0:0:
138,50,152577,1,0,3:0:0:0:
149,52,152653,1,0,3:0:0:0:
159,54,152730,2,0,L|259:42,1,87.5,8|4,0:0|3:0,0:0:0:0:
325,112,153036,2,0,L|238:123,1,87.5,2|0,0:0|0:0,0:0:0:0:
155,187,153342,1,8,0:0:0:0:
68,127,153495,1,0,0:0:0:0:
15,236,153648,5,4,0:0:0:0:
102,296,153801,1,0,0:0:0:0:
161,383,153954,2,0,P|202:362|243:353,1,87.5,8|4,0:0|3:0,0:0:0:0:
324,286,154260,2,0,P|365:306|406:315,1,87.5,2|0,0:0|0:0,0:0:0:0:
500,267,154567,1,8,0:0:0:0:
500,267,154720,1,0,0:0:0:0:
419,199,154873,5,4,3:0:0:0:
456,100,155026,1,0,0:0:0:0:
493,1,155179,2,0,P|410:28|323:27,1,175,8|2,0:0|0:0,0:0:0:0:
220,5,155638,1,0,0:0:0:0:
125,50,155791,2,0,P|89:31|33:25,1,87.5,8|0,0:0|0:0,0:0:0:0:
61,127,156097,5,4,3:0:0:0:
61,127,156250,2,0,L|153:133,1,87.5,2|8,0:0|0:0,0:0:0:0:
73,206,156556,5,4,3:0:0:0:
73,206,156709,2,0,L|165:212,1,87.5,2|0,0:0|0:0,0:0:0:0:
85,285,157016,5,8,0:0:0:0:
85,285,157169,2,0,L|177:291,1,87.5,0|4,0:0|3:0,0:0:0:0:
97,364,157475,5,0,0:0:0:0:
97,364,157628,2,0,L|189:370,1,87.5,8|4,0:0|3:0,0:0:0:0:
259,285,157934,5,2,0:0:0:0:
259,285,158087,1,0,0:0:0:0:
259,285,158240,2,0,L|167:291,1,87.5,8|0,0:0|0:0,0:0:0:0:
37,259,158546,5,4,3:0:0:0:
93,170,158699,1,0,0:0:0:0:
19,94,158852,2,0,P|14:46|24:2,1,87.5,8|4,0:0|3:0,0:0:0:0:
115,56,159158,2,0,P|157:66|200:63,1,87.5,2|0,0:0|0:0,0:0:0:0:
300,28,159465,1,8,0:0:0:0:
300,28,159618,1,0,0:0:0:0:
278,130,159771,5,4,3:0:0:0:
295,233,159924,1,0,0:0:0:0:
317,332,160077,2,0,P|230:320|145:337,1,175,8|2,0:0|0:0,0:0:0:0:
51,384,160536,1,0,0:0:0:0:
57,279,160689,2,0,P|55:227|46:186,1,87.5,8|0,0:0|0:0,0:0:0:0:
26,89,160995,5,4,3:0:0:0:
26,89,161148,2,0,L|121:79,1,87.5,0|8,0:0|0:0,0:0:0:0:
197,19,161454,5,4,3:0:0:0:
197,19,161607,2,0,L|292:29,1,87.5,2|0,0:0|0:0,0:0:0:0:
375,88,161914,5,8,0:0:0:0:
375,88,162067,2,0,P|356:131|349:179,1,87.5,0|4,0:0|3:0,0:0:0:0:
290,251,162373,5,0,0:0:0:0:
290,251,162526,2,0,P|282:208|264:168,1,87.5,8|4,0:0|3:0,0:0:0:0:
161,148,162832,6,0,P|142:187|135:230,1,87.5,2|0,0:0|0:0,0:0:0:0:
100,359,163138,2,0,P|93:315|73:276,1,87.5,8|0,0:0|0:0,0:0:0:0:
0,208,163444,5,4,3:0:0:0:
47,115,163597,1,0,0:0:0:0:
100,24,163750,2,0,P|144:37|195:39,1,87.5,8|4,0:0|3:0,0:0:0:0:
281,82,164056,2,0,P|319:64|372:60,1,87.5,2|0,0:0|0:0,0:0:0:0:
469,41,164363,1,8,0:0:0:0:
469,41,164516,1,0,0:0:0:0:
413,130,164669,5,4,3:0:0:0:
435,232,164822,1,0,0:0:0:0:
457,334,164975,2,0,P|368:307|269:296,1,175,8|0,0:0|0:0,0:0:0:0:
198,352,165434,1,0,0:0:0:0:
117,284,165587,2,0,P|126:241|127:190,1,87.5,8|0,0:0|0:0,0:0:0:0:
73,107,165893,6,0,L|168:123,1,87.5,4|0,3:0|0:0,0:0:0:0:
230,198,166199,1,8,0:0:0:0:
230,198,166352,2,0,L|316:184,1,87.5,4|2,3:0|0:0,0:0:0:0:
413,143,166658,5,0,0:0:0:0:
413,143,166812,1,8,0:0:0:0:
400,247,166965,1,0,0:0:0:0:
316,184,167118,1,4,3:0:0:0:
329,80,167271,2,0,P|374:48|409:39,2,87.5,0|8|4,0:0|0:0|3:0,0:0:0:0:
232,120,167730,1,2,0:0:0:0:
156,46,167883,2,0,P|124:20|72:-4,2,87.5,0|8|0,0:0|0:0|0:0,0:0:0:0:
110,168,168342,5,4,3:0:0:0:
72,266,168495,1,0,0:0:0:0:
120,360,168648,2,0,P|163:373|215:370,1,87.5,8|4,0:0|3:0,0:0:0:0:
303,336,168954,2,0,P|346:323|398:326,1,87.5,2|0,0:0|0:0,0:0:0:0:
484,366,169260,1,8,0:0:0:0:
484,366,169414,1,0,0:0:0:0:
453,265,169567,5,4,3:0:0:0:
467,161,169720,1,0,0:0:0:0:
481,57,169873,2,0,P|391:70|288:74,1,175,8|2,0:0|0:0,0:0:0:0:
203,55,170332,1,0,0:0:0:0:
101,29,170485,2,0,P|56:25|2:34,1,87.5,8|0,0:0|0:0,0:0:0:0:
50,129,170791,6,0,L|38:216,1,87.5,4|0,1:0|0:0,0:0:0:0:
139,181,171097,1,0,3:0:0:0:
139,181,171250,2,0,L|151:268,1,87.5,4|0,1:0|0:0,0:0:0:0:
242,213,171556,1,0,3:0:0:0:
242,213,171709,2,0,L|277:293,1,87.5,4|0,1:0|0:0,0:0:0:0:
