osu file format v14

[General]
AudioFilename: audio.mp3
AudioLeadIn: 0
PreviewTime: 35485
Countdown: 0
SampleSet: Soft
StackLeniency: 0.3
Mode: 0
LetterboxInBreaks: 0
WidescreenStoryboard: 1

[Editor]
Bookmarks: 153648
DistanceSpacing: 1.2
BeatDivisor: 4
GridSize: 4
TimelineZoom: 2.1

[Metadata]
Title:Labios
TitleUnicode:Labios
Artist:Jenny And The Mexicats
ArtistUnicode:Jenny And The Mexicats
Creator:ezek
Version:Extra de Fiery
Source:Amor de mis amores
Tags:love of my loves soundtrack ome latin MkGuh DTM9 Nowa fieryrage spanish espanol espaƱol
BeatmapID:1343990
BeatmapSetID:534813

[Difficulty]
HPDrainRate:6
CircleSize:3.5
OverallDifficulty:8.5
ApproachRate:9
SliderMultiplier:1.6
SliderTickRate:2

[Events]
//Background and Video events
0,0,"Amorts.jpg",0,0
Video,0,"Meow.avi"
//Break Periods
2,134256,140803
//Storyboard Layer 0 (Background)
//Storyboard Layer 1 (Fail)
//Storyboard Layer 2 (Pass)
//Storyboard Layer 3 (Foreground)
//Storyboard Sound Samples

[TimingPoints]
1812,306.122448979592,4,2,0,50,1,0
1812,-200,4,2,0,50,0,0
6633,-200,4,2,0,5,0,0
6709,-100,4,2,0,100,0,1
6786,-100,4,2,0,100,0,0
16505,-125,4,2,0,65,0,0
32959,-125,4,2,0,5,0,0
33342,-125,4,2,0,50,0,0
33419,-125,4,2,0,5,0,0
33648,-200,4,2,0,20,0,0
33954,-200,4,2,0,30,0,0
34260,-200,4,2,0,40,0,0
34567,-200,4,2,0,50,0,0
34873,-125,4,2,0,60,0,0
35179,-125,4,2,0,70,0,0
35485,-100,4,2,0,80,0,0
35791,-100,4,2,0,90,0,0
36097,-83.3333333333333,4,2,0,100,0,1
43444,-71.4285714285714,4,2,0,100,0,1
45893,-83.3333333333333,4,2,0,100,0,1
55536,-83.3333333333333,4,2,0,5,0,1
55689,-100,4,2,0,100,0,0
75281,-125,4,2,0,65,0,0
91735,-125,4,2,0,5,0,0
92118,-125,4,2,0,65,0,0
92194,-125,4,2,0,5,0,0
92424,-200,4,2,0,20,0,0
92730,-200,4,2,0,30,0,0
93036,-200,4,2,0,40,0,0
93342,-200,4,2,0,50,0,0
93648,-125,4,2,0,60,0,0
93954,-125,4,2,0,70,0,0
94260,-100,4,2,0,80,0,0
94567,-100,4,2,0,90,0,0
94873,-83.3333333333333,4,2,0,100,0,1
102220,-71.4285714285714,4,2,0,100,0,1
104669,-83.3333333333333,4,2,0,100,0,1
114158,-83.3333333333333,4,2,0,100,0,0
114465,-83.3333333333333,4,2,0,100,0,1
134056,-200,4,2,0,100,0,0
134363,-200,4,2,0,40,0,0
141403,-200,4,2,0,20,0,0
141709,-200,4,2,0,30,0,0
142016,-200,4,2,0,40,0,0
142322,-200,4,2,0,50,0,0
142628,-125,4,2,0,60,0,0
142934,-125,4,2,0,70,0,0
143087,-100,4,2,0,70,0,0
143240,-100,4,2,0,80,0,0
143546,-100,4,2,0,90,0,0
143852,-83.3333333333333,4,2,0,100,0,1
153342,-83.3333333333333,4,2,0,100,0,0
153648,-83.3333333333333,4,2,0,100,0,1
170638,-83.3333333333333,4,2,0,100,0,0
170791,-83.3333333333333,4,2,0,100,0,1
171863,-83.3333333333333,4,2,0,100,0,0

[Colours]
Combo1 : 150,232,77
Combo2 : 255,125,252
Combo3 : 109,227,252
Combo4 : 241,136,73

[HitObjects]
256,192,5485,12,0,6633,0:0:0:0:
129,312,6709,6,0,P|143:250|115:173,1,120,4|0,0:0|0:0,0:0:0:0:
100,157,7016,2,0,L|194:152,1,80,8|0,0:0|0:0,0:0:0:0:
360,276,7322,2,0,L|266:271,1,80,2|0,0:0|0:0,0:0:0:0:
404,52,7628,1,8,0:0:0:0:
404,52,7781,1,0,0:0:0:0:
179,152,7934,6,0,P|239:165|275:160,1,80,2|0,0:0|0:0,0:0:0:0:
404,52,8240,1,8,0:0:0:0:
404,52,8393,2,0,B|423:130|423:130|413:215,1,160,0|0,3:0|0:0,0:0:0:0:
231,54,8852,2,0,P|269:42|309:42,1,80,8|0,0:0|0:0,0:0:0:0:
413,209,9158,6,0,B|328:187|340:233|254:209,1,160,2|8,0:0|0:0,0:0:0:0:
112,301,9618,1,0,3:0:0:0:
112,301,9771,2,0,L|22:296,1,80,2|0,0:0|0:0,0:0:0:0:
110,140,10077,2,0,L|200:135,1,80,8|0,0:0|0:0,0:0:0:0:
410,307,10383,5,2,0:0:0:0:
448,121,10536,1,0,0:0:0:0:
255,209,10689,1,8,0:0:0:0:
488,267,10842,1,0,0:0:0:0:
488,267,10995,2,0,P|498:206|491:171,1,80,2|0,0:0|0:0,0:0:0:0:
247,130,11301,2,0,P|245:170|255:209,1,80,8|0,0:0|0:0,0:0:0:0:
497,28,11607,6,0,L|324:22,2,160,2|8|2,0:0|0:0|0:0,0:0:0:0:
247,130,12373,1,0,0:0:0:0:
337,22,12526,1,8,0:0:0:0:
226,154,12679,6,0,L|137:158,1,80,0|2,0:0|0:0,0:0:0:0:
337,22,12985,2,0,L|426:26,1,80,0|8,0:0|0:0,0:0:0:0:
255,303,13291,2,0,P|226:255|231:141,1,160,0|0,3:0|0:0,0:0:0:0:
416,25,13750,2,0,P|422:103|396:163,1,120,8|0,0:0|0:0,0:0:0:0:
380,180,14056,5,2,0:0:0:0:
225,153,14209,1,0,0:0:0:0:
396,201,14363,2,0,P|408:248|406:288,1,80,8|0,0:0|3:0,0:0:0:0:
194,147,14669,2,0,P|194:107|205:68,1,80,0|0,0:0|0:0,0:0:0:0:
416,25,14975,1,8,0:0:0:0:
416,25,15128,1,0,0:0:0:0:
194,147,15281,6,0,L|106:145,1,80,2|0,0:0|0:0,0:0:0:0:
310,274,15587,1,8,0:0:0:0:
310,274,15740,1,8,0:0:0:0:
322,49,15893,6,0,L|319:103,2,40,2|0|0,0:0|0:0|3:0,0:0:0:0:
310,274,16199,1,0,3:0:0:0:
428,109,16352,1,0,3:0:0:0:
117,338,16505,6,0,L|113:194,2,128,4|0|0,0:0|0:0|0:0,0:0:0:0:
194,147,17424,2,0,P|198:107|193:75,1,64,0|0,0:0|0:0,0:0:0:0:
91,0,17730,6,0,B|83:48|83:48|90:112,1,96,2|0,0:0|0:0,0:0:0:0:
94,133,18036,1,0,0:0:0:0:
201,272,18189,2,0,B|208:208|208:208|192:140,1,128,0|0,0:0|0:0,0:0:0:0:
55,325,18648,2,0,P|82:336|125:336,1,64,0|0,3:0|0:0,0:0:0:0:
336,279,18954,6,0,L|234:274,1,96,2|0,0:0|0:0,0:0:0:0:
201,272,19260,1,0,0:0:0:0:
305,135,19414,2,0,L|440:128,1,128,0|0,0:0|0:0,0:0:0:0:
201,272,19873,1,0,3:0:0:0:
201,272,20026,6,0,P|176:213|190:140,1,128,0|0,0:0|0:0,0:0:0:0:
302,71,20485,2,0,L|305:139,1,64,0|0,3:0|0:0,0:0:0:0:
89,163,20791,1,2,0:0:0:0:
128,73,20944,1,2,0:0:0:0:
55,246,21097,1,0,0:0:0:0:
184,151,21250,1,2,0:0:0:0:
201,272,21403,6,0,P|246:289|331:274,1,128,2|0,0:0|3:0,0:0:0:0:
424,65,22016,2,0,P|361:52|301:70,1,128,2|0,0:0|3:0,0:0:0:0:
366,142,22475,1,0,0:0:0:0:
366,142,22628,6,0,L|371:249,1,96,0|0,3:0|0:0,0:0:0:0:
373,276,22934,1,2,0:0:0:0:
301,69,23087,2,0,B|397:29|405:91|491:61,1,192,0|2,0:0|0:0,0:0:0:0:
203,273,23852,5,2,0:0:0:0:
129,172,24005,1,0,0:0:0:0:
366,142,24158,1,0,3:0:0:0:
366,142,24312,1,0,0:0:0:0:
203,273,24465,2,0,L|283:275,1,64,2|0,0:0|0:0,0:0:0:0:
302,288,24694,1,0,0:0:0:0:
302,288,24771,2,0,L|365:286,1,64,0|0,3:0|0:0,0:0:0:0:
203,273,25077,6,0,P|179:321|178:354,1,64,2|0,0:0|0:0,0:0:0:0:
365,285,25383,2,0,P|356:254|339:227,1,64,0|0,3:0|0:0,0:0:0:0:
172,108,25689,1,2,0:0:0:0:
172,108,25842,1,0,0:0:0:0:
353,17,25995,1,0,3:0:0:0:
353,17,26301,6,0,P|370:74|364:148,2,128,4|0|2,0:0|3:0|0:0,0:0:0:0:
311,253,27220,2,0,P|335:274|370:286,1,64,0|0,3:0|0:0,0:0:0:0:
227,194,27526,6,0,L|121:195,1,96,2|0,0:0|0:0,0:0:0:0:
79,197,27832,1,0,0:0:0:0:
225,67,27985,2,0,B|236:133|236:133|225:205,1,128,0|0,0:0|0:0,0:0:0:0:
72,70,28444,2,0,P|105:59|134:59,1,64,0|0,3:0|0:0,0:0:0:0:
227,194,28750,6,0,L|231:312,1,96,2|0,0:0|0:0,0:0:0:0:
232,341,29056,1,0,3:0:0:0:
349,204,29209,2,0,P|289:184|215:198,1,128,0|0,0:0|0:0,0:0:0:0:
359,353,29669,2,0,B|367:321|367:321|364:287,1,64,0|0,3:0|0:0,0:0:0:0:
227,194,29975,6,0,L|121:195,1,96,2|0,0:0|0:0,0:0:0:0:
79,197,30281,1,0,3:0:0:0:
287,103,30434,1,0,0:0:0:0:
115,55,30587,1,2,0:0:0:0:
218,256,30740,2,0,P|227:215|224:179,1,64,0|0,0:0|0:0,0:0:0:0:
476,101,31046,6,0,B|381:127|381:73|278:105,1,192,0|0,0:0|3:0,0:0:0:0:
218,256,31658,1,0,0:0:0:0:
218,256,31812,2,0,L|216:332,1,64,2|0,0:0|0:0,0:0:0:0:
79,197,32118,2,0,L|77:133,1,64,0|0,3:0|0:0,0:0:0:0:
269,9,32424,6,0,P|287:64|285:108,1,96,2|0,0:0|0:0,0:0:0:0:
265,134,32730,1,0,0:0:0:0:
407,283,32883,2,0,B|322:239|233:266|233:266|284:237|295:193,1,256,0|0,0:0|0:0,0:0:0:0:
288,214,33648,6,0,L|237:212,1,40,4|4,3:0|3:0,0:0:0:0:
116,260,33954,2,0,L|167:258,1,40,4|4,3:0|3:0,0:0:0:0:
300,125,34260,6,0,L|249:123,1,40,4|4,3:0|3:0,0:0:0:0:
128,171,34566,2,0,L|179:169,1,40,4|4,3:0|3:0,0:0:0:0:
349,337,34873,5,4,3:0:0:0:
300,125,35026,1,4,3:0:0:0:
267,324,35179,1,4,3:0:0:0:
382,139,35332,1,4,3:0:0:0:
194,262,35485,5,4,3:0:0:0:
448,203,35638,1,4,3:0:0:0:
176,141,35791,1,4,3:0:0:0:
455,315,35944,1,4,3:0:0:0:
123,329,36097,6,0,L|274:323,1,143.999995605469,4|0,0:0|0:0,0:0:0:0:
307,365,36403,2,0,P|320:313|314:268,1,95.9999970703126,8|4,0:0|3:0,0:0:0:0:
242,128,36709,1,0,0:0:0:0:
242,128,36863,1,2,0:0:0:0:
448,203,37016,1,8,0:0:0:0:
123,329,37169,1,0,0:0:0:0:
123,329,37322,6,0,B|76:237|136:237|93:142,1,191.999994140625,4|8,3:0|0:0,0:0:0:0:
284,49,37781,2,0,P|328:92|232:89,1,191.999994140625,4|0,3:0|0:0,0:0:0:0:
471,111,38240,2,0,P|466:160|446:204,1,95.9999970703126,8|0,0:0|0:0,0:0:0:0:
266,323,38546,5,4,3:0:0:0:
262,306,38852,1,8,0:0:0:0:
447,202,39005,1,4,3:0:0:0:
241,127,39158,1,2,0:0:0:0:
241,127,39312,1,0,0:0:0:0:
374,358,39465,1,8,0:0:0:0:
471,111,39618,1,0,0:0:0:0:
262,306,39771,6,0,P|196:319|87:258,1,191.999994140625,4|8,3:0|0:0,0:0:0:0:
234,31,40230,2,0,L|242:146,1,95.9999970703126,4|2,3:0|0:0,0:0:0:0:
90,262,40536,2,0,L|96:166,2,95.9999970703126,0|8|0,0:0|0:0|0:0,0:0:0:0:
421,102,40995,6,0,P|353:136|234:124,1,191.999994140625,4|8,3:0|0:0,0:0:0:0:
131,29,41454,1,4,3:0:0:0:
195,224,41607,1,2,0:0:0:0:
268,0,41760,1,0,0:0:0:0:
62,148,41914,1,8,0:0:0:0:
289,258,42067,1,0,0:0:0:0:
289,258,42220,6,0,L|481:254,1,191.999994140625,4|8,3:0|0:0,0:0:0:0:
253,151,42679,2,0,L|61:147,1,191.999994140625,4|0,3:0|0:0,0:0:0:0:
283,351,43138,2,0,P|294:284|283:242,1,95.9999970703126,8|0,0:0|0:0,0:0:0:0:
61,147,43444,6,0,P|33:228|139:207,1,223.999993164063,4|8,3:0|0:0,0:0:0:0:
451,147,43903,2,0,P|479:228|373:207,1,223.999993164063,4|0,3:0|0:0,0:0:0:0:
150,48,44363,1,8,0:0:0:0:
362,48,44516,1,0,0:0:0:0:
199,268,44669,5,4,3:0:0:0:
199,268,44822,1,0,0:0:0:0:
256,68,44975,1,8,0:0:0:0:
311,268,45128,1,4,3:0:0:0:
150,48,45281,5,2,0:0:0:0:
311,268,45434,1,8,0:3:0:0:
362,48,45587,1,8,0:0:0:0:
199,268,45740,1,8,0:0:0:0:
378,28,45893,6,0,P|413:110|407:174,1,143.999995605469,4|0,0:0|0:0,0:0:0:0:
385,215,46199,1,8,0:0:0:0:
243,136,46352,1,4,3:0:0:0:
504,75,46505,1,0,0:0:0:0:
504,75,46658,1,2,0:0:0:0:
325,288,46812,1,8,0:0:0:0:
240,25,46965,1,0,0:0:0:0:
240,25,47118,6,0,P|159:10|46:47,1,191.999994140625,4|8,3:0|0:0,0:0:0:0:
162,201,47577,2,0,P|205:148|116:112,1,191.999994140625,4|0,3:0|0:0,0:0:0:0:
89,307,48036,2,0,P|139:330|185:330,1,95.9999970703126,8|0,0:0|0:0,0:0:0:0:
385,215,48342,5,4,3:0:0:0:
403,213,48648,1,8,0:0:0:0:
277,95,48801,1,4,3:0:0:0:
309,330,48954,1,2,0:0:0:0:
309,330,49107,1,0,0:0:0:0:
496,180,49260,1,8,0:0:0:0:
230,242,49414,1,0,0:0:0:0:
512,159,49567,6,0,P|518:99|501:51,1,95.9999970703126,4|0,3:0|0:0,0:0:0:0:
203,19,49873,1,8,0:0:0:0:
203,19,50026,2,0,L|398:15,1,191.999994140625,4|0,3:0|0:0,0:0:0:0:
230,242,50485,2,0,P|207:186|208:143,1,95.9999970703126,8|0,0:0|0:0,0:0:0:0:
463,276,50791,6,0,P|460:323|439:366,1,95.9999970703126,4|0,3:0|0:0,0:0:0:0:
230,242,51097,1,8,0:0:0:0:
343,219,51250,1,4,3:0:0:0:
309,330,51403,1,0,0:0:0:0:
206,151,51556,1,0,0:0:0:0:
463,276,51709,1,8,0:0:0:0:
151,353,51863,1,0,0:0:0:0:
151,353,52016,6,0,P|120:288|130:157,1,191.999994140625,4|8,3:0|0:0,0:0:0:0:
360,106,52475,2,0,P|392:156|299:143,1,191.999994140625,4|0,3:0|0:0,0:0:0:0:
88,57,52934,2,0,P|151:53|184:65,1,95.9999970703126,8|0,0:0|0:0,0:0:0:0:
310,331,53240,5,4,0:0:0:0:
256,192,53317,12,0,55536,0:0:0:0:
383,72,55689,6,0,P|369:134|397:211,1,120,4|0,0:0|0:0,0:0:0:0:
412,227,55996,2,0,L|318:232,1,80,8|0,0:0|0:0,0:0:0:0:
152,108,56302,2,0,L|246:113,1,80,2|0,0:0|0:0,0:0:0:0:
108,332,56608,1,8,0:0:0:0:
108,332,56761,1,0,0:0:0:0:
333,232,56914,6,0,P|273:219|237:224,1,80,2|0,0:0|0:0,0:0:0:0:
108,332,57220,1,8,0:0:0:0:
108,332,57373,2,0,B|89:254|89:254|99:169,1,160,0|0,3:0|0:0,0:0:0:0:
281,330,57832,2,0,P|243:342|203:342,1,80,8|0,0:0|0:0,0:0:0:0:
99,175,58138,6,0,B|184:197|172:151|258:175,1,160,2|8,0:0|0:0,0:0:0:0:
400,83,58598,1,0,3:0:0:0:
400,83,58751,2,0,L|490:88,1,80,2|0,0:0|0:0,0:0:0:0:
402,244,59057,2,0,L|312:249,1,80,8|0,0:0|0:0,0:0:0:0:
102,77,59363,5,2,0:0:0:0:
64,263,59516,1,0,0:0:0:0:
257,175,59669,1,8,0:0:0:0:
24,117,59822,1,0,3:0:0:0:
24,117,59975,2,0,P|14:178|21:213,1,80,2|0,0:0|0:0,0:0:0:0:
265,254,60281,2,0,P|267:214|257:175,1,80,8|0,0:0|0:0,0:0:0:0:
15,356,60587,6,0,L|188:362,2,160,2|8|2,0:0|0:0|0:0,0:0:0:0:
265,254,61353,1,0,0:0:0:0:
175,362,61506,1,8,0:0:0:0:
286,230,61659,6,0,L|375:226,1,80,0|2,0:0|0:0,0:0:0:0:
175,362,61965,2,0,L|86:358,1,80,0|8,0:0|0:0,0:0:0:0:
257,81,62271,2,0,P|286:129|281:243,1,160,0|0,3:0|0:0,0:0:0:0:
96,359,62730,2,0,P|90:281|116:221,1,120,8|0,0:0|0:0,0:0:0:0:
132,204,63036,5,2,0:0:0:0:
257,81,63189,1,0,0:0:0:0:
257,81,63342,2,0,L|254:190,1,80,8|0,0:0|3:0,0:0:0:0:
134,283,63648,2,0,L|131:203,1,80,2|0,0:0|0:0,0:0:0:0:
432,132,63954,1,8,0:0:0:0:
296,286,64107,1,0,0:0:0:0:
253,51,64260,5,2,0:0:0:0:
253,51,64414,2,0,P|167:25|73:41,1,160,0|0,0:0|3:0,0:0:0:0:
131,203,64873,2,0,P|152:163|159:113,1,80,2|0,0:0|0:0,0:0:0:0:
0,22,65179,2,0,P|8:60|27:95,1,80,8|0,0:0|0:0,0:0:0:0:
290,207,65485,6,0,L|112:202,2,160,4|8|2,0:0|0:0|0:0,0:0:0:0:
432,132,66250,1,0,0:0:0:0:
426,292,66403,1,8,0:0:0:0:
290,207,66556,6,0,P|269:138|300:41,1,160,0|0,0:0|0:0,0:0:0:0:
432,132,67016,1,8,0:0:0:0:
432,132,67169,2,0,B|424:183|424:183|435:234|435:234|426:290,1,160
316,368,67628,1,8,0:0:0:0:
130,213,67781,1,0,0:0:0:0:
130,213,67934,6,0,L|298:206,1,160,2|8,0:0|0:0,0:0:0:0:
385,42,68393,1,0,3:0:0:0:
385,42,68546,2,0,P|325:27|281:34,1,80,2|0,0:0|0:0,0:0:0:0:
435,257,68852,2,0,P|474:255|512:242,1,80,8|0,0:0|0:0,0:0:0:0:
332,111,69158,5,2,0:0:0:0:
377,351,69312,1,0,0:0:0:0:
425,136,69465,1,8,0:0:0:0:
282,309,69618,1,0,3:0:0:0:
423,56,69771,2,0,L|425:142,1,80,2|0,0:0|0:0,0:0:0:0:
193,262,70077,2,0,L|194:182,1,80,8|0,0:0|0:0,0:0:0:0:
429,327,70383,6,0,P|357:343|275:302,1,160,2|8,0:0|0:0,0:0:0:0:
332,111,70842,1,0,0:0:0:0:
332,111,70995,2,0,L|334:206,2,80,2|0|8,0:0|0:0|0:0,0:0:0:0:
193,262,71454,1,0,0:0:0:0:
193,262,71607,6,0,P|141:275|104:271,1,80,2|0,0:0|0:0,0:0:0:0:
254,99,71914,2,0,P|293:98|331:110,1,80,8|0,0:0|3:0,0:0:0:0:
66,191,72220,2,0,L|60:44,1,120
59,22,72526,1,8,0:0:0:0:
406,105,72679,1,0,0:0:0:0:
406,105,72832,6,0,P|330:122|239:88,1,160,2|8,0:0|0:0,0:0:0:0:
66,191,73291,2,0,L|161:187,1,80,0|0,3:0|0:0,0:0:0:0:
322,277,73597,1,0,0:0:0:0:
322,277,73750,2,0,L|227:273,1,80,8|0,0:0|0:0,0:0:0:0:
71,72,74056,6,0,L|149:70,1,40,0|0,3:0|3:0,0:0:0:0:
253,98,74209,2,0,L|175:96,1,40,0|0,3:0|0:0,0:0:0:0:
66,191,74363,1,8,0:0:0:0:
66,191,74516,1,8,0:0:0:0:
253,98,74669,2,0,P|269:166|266:192,1,80,2|0,0:0|0:0,0:0:0:0:
202,354,74975,1,2,3:0:0:0:
395,338,75281,6,0,L|399:194,2,128,4|0|2,0:0|3:0|0:0,0:0:0:0:
318,147,76200,2,0,P|314:107|319:75,1,64,0|0,0:0|0:0,0:0:0:0:
421,0,76506,6,0,B|429:48|429:48|422:112,1,96,2|0,0:0|0:0,0:0:0:0:
418,133,76812,1,0,0:0:0:0:
311,272,76965,2,0,B|304:208|304:208|320:140,1,128,0|0,0:0|0:0,0:0:0:0:
457,325,77424,2,0,P|430:336|387:336,1,64,0|0,3:0|0:0,0:0:0:0:
176,279,77730,6,0,L|278:274,1,96,2|0,0:0|0:0,0:0:0:0:
311,272,78036,1,0,0:0:0:0:
207,135,78190,2,0,L|72:128,1,128,0|0,0:0|0:0,0:0:0:0:
311,272,78649,1,0,0:0:0:0:
311,272,78802,6,0,P|336:213|322:140,1,128,2|0,0:0|0:0,0:0:0:0:
210,71,79261,2,0,L|207:139,1,64,0|2,0:0|0:0,0:0:0:0:
423,163,79567,1,0,0:0:0:0:
384,73,79720,1,2,0:0:0:0:
457,246,79873,1,0,0:0:0:0:
328,151,80026,1,0,0:0:0:0:
311,272,80179,6,0,P|266:289|181:274,1,128,2|0,0:0|3:0,0:0:0:0:
88,65,80792,2,0,P|151:52|211:70,1,128,2|0,0:0|0:0,0:0:0:0:
146,142,81251,1,0,0:0:0:0:
146,142,81404,6,0,L|141:249,1,96,2|0,0:0|0:0,0:0:0:0:
139,276,81710,1,0,0:0:0:0:
211,69,81863,2,0,B|115:29|107:91|21:61,1,192,0|0,0:0|3:0,0:0:0:0:
367,121,82628,5,2,0:0:0:0:
367,121,82781,1,0,0:0:0:0:
211,69,82934,1,0,3:0:0:0:
211,69,83087,1,0,0:0:0:0:
394,32,83240,2,0,L|471:29,1,64,2|0,0:0|0:0,0:0:0:0:
211,69,83546,2,0,L|134:66,1,64,0|0,3:0|0:0,0:0:0:0:
367,121,83852,6,0,P|374:155|372:191,1,64,0|0,3:0|3:0,0:0:0:0:
364,218,84082,1,0,3:0:0:0:
364,218,84158,2,0,L|365:291,1,64,0|0,3:0|0:0,0:0:0:0:
221,184,84465,1,2,0:0:0:0:
367,121,84618,1,0,0:0:0:0:
159,17,84771,1,0,3:0:0:0:
159,17,85077,6,0,P|142:74|148:148,2,128,4|0|2,0:0|3:0|0:0,0:0:0:0:
201,253,85996,2,0,P|177:274|142:286,1,64,0|0,0:0|0:0,0:0:0:0:
285,194,86302,6,0,L|391:195,1,96,2|0,0:0|0:0,0:0:0:0:
433,197,86608,1,0,0:0:0:0:
287,67,86761,2,0,B|276:133|276:133|287:205,1,128,0|0,0:0|0:0,0:0:0:0:
440,70,87220,2,0,P|407:59|378:59,1,64,0|0,3:0|0:0,0:0:0:0:
285,194,87526,6,0,L|281:312,1,96,2|0,0:0|0:0,0:0:0:0:
280,341,87832,1,0,0:0:0:0:
163,204,87985,2,0,P|223:184|297:198,1,128,0|0,0:0|0:0,0:0:0:0:
153,353,88445,2,0,B|145:321|145:321|148:287,1,64,0|0,3:0|0:0,0:0:0:0:
285,194,88751,6,0,L|391:195,1,96,2|0,0:0|0:0,0:0:0:0:
433,197,89057,1,0,3:0:0:0:
225,103,89209,1,2,0:0:0:0:
397,55,89363,1,0,0:0:0:0:
293,256,89516,2,0,P|284:215|287:179,1,64,2|0,0:0|0:0,0:0:0:0:
36,101,89822,6,0,B|131:127|131:73|234:105,1,192,0|0,0:0|3:0,0:0:0:0:
293,256,90434,1,0,0:0:0:0:
293,256,90588,2,0,L|295:332,1,64,2|0,0:0|0:0,0:0:0:0:
433,197,90894,2,0,L|435:133,1,64,0|0,3:0|0:0,0:0:0:0:
243,9,91200,6,0,P|225:64|227:108,1,96,2|0,0:0|0:0,0:0:0:0:
247,134,91506,1,0,0:0:0:0:
380,284,91658,2,0,B|308:261|253:281|253:281|191:305|126:288,1,256,0|0,0:0|0:0,0:0:0:0:
129,289,92424,6,0,L|76:287,1,40,4|4,3:0|3:0,0:0:0:0:
230,338,92730,2,0,L|283:335,1,40,4|4,3:0|3:0,0:0:0:0:
158,193,93036,6,0,L|104:190,1,40,4|4,3:0|3:0,0:0:0:0:
258,241,93342,2,0,L|311:238,1,40,4|4,3:0|3:0,0:0:0:0:
89,287,93648,5,4,3:0:0:0:
96,109,93801,1,4,3:0:0:0:
230,338,93954,1,4,3:0:0:0:
237,160,94107,1,4,3:0:0:0:
89,287,94260,5,4,3:0:0:0:
313,220,94414,1,4,3:0:0:0:
51,180,94567,1,4,3:0:0:0:
338,223,94720,1,4,3:0:0:0:
89,287,94873,6,0,P|161:273|243:295,1,143.999995605469,4|0,0:0|0:0,0:0:0:0:
279,315,95179,2,0,L|388:312,1,95.9999970703126,8|4,0:0|3:0,0:0:0:0:
222,141,95485,1,2,0:0:0:0:
222,141,95638,1,0,0:0:0:0:
338,223,95791,1,8,0:0:0:0:
287,21,95944,1,0,0:0:0:0:
287,21,96097,6,0,P|204:15|106:71,1,191.999994140625,4|8,3:0|0:0,0:0:0:0:
207,231,96556,2,0,P|274:215|194:158,1,191.999994140625,4|0,3:0|0:0,0:0:0:0:
150,342,97016,2,0,P|211:366|254:365,1,95.9999970703126,8|0,0:0|0:0,0:0:0:0:
427,274,97322,5,4,3:0:0:0:
441,260,97628,1,8,0:0:0:0:
207,231,97781,1,4,3:0:0:0:
462,133,97934,1,2,0:0:0:0:
462,133,98087,1,0,0:0:0:0:
228,104,98240,1,8,0:0:0:0:
320,320,98393,1,0,0:0:0:0:
320,320,98546,6,0,P|355:235|335:131,1,191.999994140625,4|8,3:0|0:0,0:0:0:0:
178,39,99005,2,0,P|139:83|231:94,1,191.999994140625,4|0,3:0|0:0,0:0:0:0:
51,19,99465,2,0,P|34:77|39:127,1,95.9999970703126,8|0,0:0|0:0,0:0:0:0:
135,353,99771,6,0,L|138:196,1,143.999995605469,4|0,3:0|0:0,0:0:0:0:
139,151,100077,1,8,0:0:0:0:
44,226,100230,1,4,3:0:0:0:
221,309,100383,2,0,P|283:313|323:299,1,95.9999970703126,2|0,0:0|0:0,0:0:0:0:
139,151,100689,1,8,0:0:0:0:
314,303,100842,1,0,0:0:0:0:
314,303,100995,6,0,B|342:204|286:209|316:109,1,191.999994140625,4|8,3:0|0:0,0:0:0:0:
491,211,101454,2,0,P|432:206|475:119,1,191.999994140625,4|0,3:0|0:0,0:0:0:0:
314,303,101914,2,0,P|258:309|211:293,1,95.9999970703126,8|0,0:0|0:0,0:0:0:0:
110,32,102220,6,0,P|45:68|146:100,1,223.999993164063,4|8,3:0|0:0,0:0:0:0:
402,32,102679,2,0,P|467:68|366:100,1,223.999993164063,4|0,3:0|0:0,0:0:0:0:
145,229,103138,1,8,0:0:0:0:
367,229,103291,1,0,0:0:0:0:
190,351,103444,5,4,3:0:0:0:
190,351,103597,1,0,0:0:0:0:
256,164,103750,1,8,0:0:0:0:
322,351,103903,1,4,3:0:0:0:
144,123,104056,5,2,0:0:0:0:
322,351,104209,1,8,0:3:0:0:
368,123,104363,1,8,0:0:0:0:
190,351,104516,1,8,0:0:0:0:
383,101,104669,6,0,P|416:163|410:239,1,143.999995605469,4|0,0:0|0:0,0:0:0:0:
389,288,104975,1,8,0:0:0:0:
256,164,105128,1,4,3:0:0:0:
512,194,105281,1,0,0:0:0:0:
512,194,105434,1,2,0:0:0:0:
275,271,105587,1,8,0:0:0:0:
326,38,105740,1,0,0:0:0:0:
326,38,105893,6,0,P|236:27|133:68,1,191.999994140625,4|8,3:0|0:0,0:0:0:0:
53,266,106352,2,0,B|25:170|77:176|45:72,1,191.999994140625,4|0,3:0|0:0,0:0:0:0:
256,164,106812,2,0,P|195:178|155:168,1,95.9999970703126,8|0,0:0|0:0,0:0:0:0:
326,38,107118,5,4,3:0:0:0:
344,41,107424,1,8,0:0:0:0:
378,275,107577,1,4,3:0:0:0:
511,77,107730,1,2,0:0:0:0:
511,77,107883,1,0,0:0:0:0:
256,164,108036,1,8,0:0:0:0:
465,335,108189,1,0,0:0:0:0:
465,335,108342,6,0,P|474:269|379:167,1,191.999994140625,4|8,3:0|0:0,0:0:0:0:
162,156,108801,2,0,P|225:168|262:162,1,95.9999970703126,4|2,3:0|0:0,0:0:0:0:
456,76,109107,2,0,P|393:64|356:70,2,95.9999970703126,0|8|0,0:0|0:0|0:0,0:0:0:0:
255,163,109567,6,0,L|251:332,1,143.999995605469,4|0,3:0|0:0,0:0:0:0:
250,364,109873,1,8,0:0:0:0:
145,252,110026,1,4,3:0:0:0:
364,292,110179,1,0,0:0:0:0:
364,292,110332,1,0,0:0:0:0:
147,349,110485,1,8,0:0:0:0:
346,159,110638,1,0,0:0:0:0:
346,159,110791,6,0,P|288:134|161:165,1,191.999994140625,4|8,3:0|0:0,0:0:0:0:
0,124,111250,2,0,P|-1:55|72:110,1,191.999994140625,4|0,3:0|0:0,0:0:0:0:
31,332,111709,2,0,P|23:274|34:219,1,95.9999970703126,8|0,0:0|0:0,0:0:0:0:
166,50,112016,5,4,0:0:0:0:
184,45,112322,1,8,0:0:0:0:
166,160,112475,1,4,3:0:0:0:
354,82,112628,2,0,L|250:86,1,95.9999970703126,0|0,0:0|0:0,0:0:0:0:
70,156,112934,2,0,L|174:160,1,95.9999970703126,8|0,0:0|0:0,0:0:0:0:
389,219,113240,6,0,L|285:223,1,95.9999970703126,4|0,3:0|0:0,0:0:0:0:
105,293,113546,2,0,L|209:297,1,95.9999970703126,8|4,0:0|3:0,0:0:0:0:
398,349,113852,1,0,3:0:0:0:
378,351,113929,1,0,3:0:0:0:
359,353,114005,1,0,3:0:0:0:
456,155,114158,2,0,P|478:209|476:249,1,95.9999970703126,8|0,0:0|0:0,0:0:0:0:
354,82,114465,5,4,0:0:0:0:
293,222,114618,1,0,0:0:0:0:
217,14,114771,1,8,0:0:0:0:
156,154,114924,1,4,3:0:0:0:
378,71,115077,2,0,P|391:118|383:165,1,95.9999970703126,2|0,0:0|0:0,0:0:0:0:
150,246,115383,2,0,P|142:198|155:153,1,95.9999970703126,8|0,0:0|0:0,0:0:0:0:
352,294,115689,6,0,P|293:311|258:307,2,95.9999970703126,4|0|8,3:0|0:0|0:0,0:0:0:0:
480,113,116148,2,0,L|483:319,1,191.999994140625,4|0,3:0|0:0,0:0:0:0:
295,207,116607,2,0,P|354:190|389:194,1,95.9999970703126,8|0,0:0|0:0,0:0:0:0:
211,315,116914,5,4,3:0:0:0:
211,315,117067,2,0,P|171:236|190:132,1,191.999994140625,0|0,0:0|0:0,0:0:0:0:
334,52,117526,2,0,P|380:96|291:96,1,191.999994140625,0|8,3:0|0:0,0:0:0:0:
5,168,117985,6,0,P|67:135|188:136,1,191.999994140625,0|0,0:0|0:0,0:0:0:0:
166,295,118444,2,0,P|87:300|126:232,1,191.999994140625,8|2,0:0|0:0,0:0:0:0:
318,328,118903,1,0,0:0:0:0:
295,114,119056,1,8,0:0:0:0:
295,114,119209,1,0,0:0:0:0:
318,328,119363,6,0,L|323:228,1,95.9999970703126,4|0,0:0|0:0,0:0:0:0:
186,136,119669,2,0,L|190:231,1,95.9999970703126,8|4,0:0|3:0,0:0:0:0:
422,210,119975,2,0,L|427:110,1,95.9999970703126,2|0,0:0|0:0,0:0:0:0:
290,18,120281,2,0,L|294:113,1,95.9999970703126,8|0,0:0|0:0,0:0:0:0:
106,73,120587,6,0,P|154:45|207:43,2,95.9999970703126,4|0|8,3:0|0:0|0:0,0:0:0:0:
207,321,121046,2,0,P|216:236|183:132,1,191.999994140625,4|0,3:0|0:0,0:0:0:0:
16,256,121505,2,0,P|59:272|119:269,1,95.9999970703126,8|0,0:0|0:0,0:0:0:0:
330,204,121812,5,4,3:0:0:0:
330,204,121965,2,0,P|351:251|355:302,1,95.9999970703126,0|8,0:0|0:0,0:0:0:0:
261,120,122271,1,4,3:0:0:0:
261,120,122424,2,0,P|308:99|359:95,1,95.9999970703126,2|0,0:0|0:0,0:0:0:0:
176,190,122730,5,8,0:0:0:0:
176,190,122883,2,0,P|155:143|151:92,1,95.9999970703126,0|4,0:0|3:0,0:0:0:0:
246,273,123189,1,0,0:0:0:0:
246,273,123342,2,0,P|199:294|148:298,1,95.9999970703126,8|4,0:0|3:0,0:0:0:0:
59,124,123648,6,0,P|106:103|157:99,1,95.9999970703126,2|0,0:0|0:0,0:0:0:0:
336,298,123954,2,0,P|288:292|245:272,1,95.9999970703126,8|0,0:0|0:0,0:0:0:0:
437,41,124260,5,4,0:0:0:0:
261,35,124414,1,0,0:0:0:0:
457,131,124567,1,8,0:0:0:0:
281,125,124721,1,0,3:0:0:0:
437,41,124873,2,0,P|459:93|455:140,1,95.9999970703126,0|2,0:0|0:0,0:0:0:0:
300,215,125179,2,0,P|279:172|280:124,1,95.9999970703126,8|0,0:0|0:0,0:0:0:0:
505,262,125485,6,0,P|456:270|405:259,1,95.9999970703126,4|0,3:0|0:0,0:0:0:0:
279,124,125791,1,8,0:0:0:0:
279,124,125944,2,0,B|235:108|186:126|186:126|137:142|91:123,1,191.999994140625,4|0,3:0|0:0,0:0:0:0:
219,303,126403,2,0,P|228:274|224:204,1,95.9999970703126,8|0,0:0|0:0,0:0:0:0:
139,37,126709,5,4,3:0:0:0:
137,17,127016,1,8,0:0:0:0:
91,123,127169,2,0,B|137:142|186:126|186:126|235:108|279:124,1,191.999994140625,4|0,3:0|0:0,0:0:0:0:
451,196,127628,2,0,P|400:202|347:185,1,95.9999970703126,8|0,0:0|0:0,0:0:0:0:
125,308,127934,6,0,P|171:296|218:302,2,95.9999970703126,4|0|8,3:0|0:0|0:0,0:0:0:0:
259,205,128393,2,0,P|302:250|208:294,1,191.999994140625,4|0,3:0|0:0,0:0:0:0:
193,128,128852,2,0,P|246:105|297:110,1,95.9999970703126,8|0,0:0|0:0,0:0:0:0:
451,196,129158,5,4,0:0:0:0:
458,63,129312,1,0,0:0:0:0:
450,225,129465,2,0,L|445:321,1,95.9999970703126,8|0,0:0|0:0,0:0:0:0:
212,224,129771,2,0,P|256:208|304:224,1,95.9999970703126,2|0,0:0|0:0,0:0:0:0:
67,321,130077,2,0,L|62:225,1,95.9999970703126,8|0,0:0|0:0,0:0:0:0:
54,63,130383,5,4,3:0:0:0:
223,110,130536,1,0,0:0:0:0:
0,166,130689,1,8,0:0:0:0:
270,9,130842,2,0,P|316:69|311:189,1,191.999994140625,4|0,3:0|0:0,0:0:0:0:
129,121,131301,2,0,P|179:106|234:113,1,95.9999970703126,8|0,0:0|0:0,0:0:0:0:
472,223,131607,5,4,3:0:0:0:
470,242,131914,1,8,0:0:0:0:
314,181,132067,2,0,P|289:231|376:210,1,191.999994140625,4|0,3:0|0:0,0:0:0:0:
190,173,132526,2,0,P|182:225|189:271,1,95.9999970703126,8|0,0:0|0:0,0:0:0:0:
347,83,132832,6,0,L|283:81,1,47.9999985351563,0|0,3:0|3:0,0:0:0:0:
142,174,132985,2,0,L|206:172,1,47.9999985351563,0|0,3:0|3:0,0:0:0:0:
377,220,133138,1,8,2:0:0:0:
377,220,133291,1,0,3:0:0:0:
196,348,133444,5,0,3:0:0:0:
167,349,133521,1,0,3:0:0:0:
138,350,133597,1,0,3:0:0:0:
109,352,133674,1,0,3:0:0:0:
80,354,133750,2,0,P|67:311|73:255,1,95.9999970703126,8|0,0:0|3:0,0:0:0:0:
347,83,134056,5,4,0:0:0:0:
347,83,141403,6,0,L|345:122,1,40,4|4,3:0|3:0,0:0:0:0:
220,57,141709,2,0,L|221:96,1,40,4|4,3:0|3:0,0:0:0:0:
369,77,142016,6,0,L|367:116,1,40,4|4,3:0|3:0,0:0:0:0:
197,48,142322,2,0,L|198:87,1,40,4|4,3:0|3:0,0:0:0:0:
400,214,142628,5,4,3:0:0:0:
197,203,142781,1,4,3:0:0:0:
431,216,142934,1,4,3:0:0:0:
165,202,143087,1,4,3:0:0:0:
322,327,143240,5,4,3:0:0:0:
260,122,143393,1,4,3:0:0:0:
316,353,143546,1,4,3:0:0:0:
377,77,143699,1,4,3:0:0:0:
134,356,143852,6,0,P|99:274|105:210,1,143.999995605469,4|0,0:0|0:0,0:0:0:0:
127,169,144158,1,8,0:0:0:0:
269,248,144311,1,4,3:0:0:0:
8,309,144464,1,2,0:0:0:0:
8,309,144617,1,0,0:0:0:0:
187,96,144771,1,8,0:0:0:0:
272,359,144924,1,0,0:0:0:0:
272,359,145077,6,0,P|353:374|466:337,1,191.999994140625,4|8,3:0|0:0,0:0:0:0:
350,183,145536,2,0,P|307:236|396:272,1,191.999994140625,4|0,3:0|0:0,0:0:0:0:
423,77,145995,2,0,P|373:54|327:54,1,95.9999970703126,8|0,0:0|0:0,0:0:0:0:
127,169,146301,5,4,3:0:0:0:
109,171,146607,1,8,0:0:0:0:
235,289,146760,1,4,3:0:0:0:
203,54,146913,1,2,0:0:0:0:
203,54,147066,1,0,0:0:0:0:
16,204,147219,1,8,0:0:0:0:
282,142,147373,1,0,0:0:0:0:
0,225,147526,6,0,P|-6:285|11:333,1,95.9999970703126,4|0,3:0|0:0,0:0:0:0:
309,365,147832,1,8,0:0:0:0:
309,365,147985,2,0,L|114:369,1,191.999994140625,4|0,3:0|0:0,0:0:0:0:
282,142,148444,2,0,P|305:198|304:241,1,95.9999970703126,8|0,0:0|0:0,0:0:0:0:
49,108,148750,6,0,P|52:61|73:18,1,95.9999970703126,4|0,3:0|0:0,0:0:0:0:
282,142,149056,1,8,0:0:0:0:
169,165,149209,1,4,3:0:0:0:
203,54,149362,1,2,0:0:0:0:
306,233,149515,1,0,0:0:0:0:
49,108,149668,1,8,0:0:0:0:
361,31,149822,1,0,0:0:0:0:
361,31,149975,6,0,P|392:96|382:227,1,191.999994140625,4|8,3:0|0:0,0:0:0:0:
152,278,150434,2,0,P|120:228|213:241,1,191.999994140625,4|0,3:0|0:0,0:0:0:0:
424,327,150893,2,0,P|361:331|328:319,1,95.9999970703126,8|0,0:0|0:0,0:0:0:0:
202,53,151199,5,4,3:0:0:0:
205,34,151505,1,8,0:0:0:0:
484,60,151658,2,0,B|430:72|389:57|389:57|344:43|294:59,1,191.999994140625,4|0,3:0|0:0,0:0:0:0:
151,133,152118,2,0,P|200:145|251:132,1,95.9999970703126,8|0,0:0|0:0,0:0:0:0:
457,197,152424,6,0,L|396:195,1,47.9999985351563,0|0,3:0|3:0,0:0:0:0:
260,251,152577,2,0,L|321:249,1,47.9999985351563,0|0,3:0|3:0,0:0:0:0:
489,319,152730,2,0,L|386:316,1,95.9999970703126,8|4,0:0|3:0,0:0:0:0:
325,100,153036,2,0,L|428:103,1,95.9999970703126,2|0,0:0|0:0,0:0:0:0:
260,251,153342,1,8,0:0:0:0:
228,62,153495,1,0,0:0:0:0:
163,304,153648,5,4,0:0:0:0:
224,164,153801,1,0,0:0:0:0:
300,372,153954,1,8,0:0:0:0:
361,232,154107,1,4,3:0:0:0:
139,315,154260,2,0,P|126:268|134:221,1,95.9999970703126,2|0,0:0|0:0,0:0:0:0:
367,140,154567,2,0,P|375:188|362:233,1,95.9999970703126,8|0,0:0|0:0,0:0:0:0:
165,92,154873,6,0,P|224:75|259:79,2,95.9999970703126,4|0|8,3:0|0:0|0:0,0:0:0:0:
32,271,155332,2,0,L|29:65,1,191.999994140625,4|0,3:0|0:0,0:0:0:0:
217,177,155791,2,0,P|158:194|123:190,1,95.9999970703126,8|0,0:0|0:0,0:0:0:0:
301,69,156097,5,4,3:0:0:0:
301,69,156250,2,0,P|341:148|322:252,1,191.999994140625,2|4,0:0|3:0,0:0:0:0:
178,332,156709,2,0,P|132:288|221:288,1,191.999994140625,2|8,0:0|0:0,0:0:0:0:
507,216,157169,6,0,P|445:249|324:248,1,191.999994140625,0|0,0:0|0:0,0:0:0:0:
346,89,157628,2,0,P|425:84|386:152,1,191.999994140625,8|2,0:0|0:0,0:0:0:0:
194,56,158087,1,0,0:0:0:0:
217,270,158240,1,8,0:0:0:0:
217,270,158393,1,0,0:0:0:0:
194,56,158546,6,0,L|189:156,1,95.9999970703126,4|0,3:0|0:0,0:0:0:0:
326,248,158852,2,0,L|322:153,1,95.9999970703126,8|4,0:0|3:0,0:0:0:0:
90,174,159158,2,0,L|85:274,1,95.9999970703126,2|0,0:0|0:0,0:0:0:0:
222,366,159465,2,0,L|218:271,1,95.9999970703126,8|0,0:0|0:0,0:0:0:0:
406,311,159771,6,0,P|358:339|305:341,2,95.9999970703126,4|0|8,3:0|0:0|0:0,0:0:0:0:
305,63,160230,2,0,P|296:148|329:252,1,191.999994140625,4|0,3:0|0:0,0:0:0:0:
496,128,160689,2,0,P|453:112|393:115,1,95.9999970703126,8|0,0:0|0:0,0:0:0:0:
182,180,160995,5,4,3:0:0:0:
182,180,161148,2,0,P|161:133|157:82,1,95.9999970703126,0|8,0:0|0:0,0:0:0:0:
251,264,161454,1,4,3:0:0:0:
251,264,161607,2,0,P|204:285|153:289,1,95.9999970703126,2|0,0:0|0:0,0:0:0:0:
336,194,161914,5,8,0:0:0:0:
336,194,162067,2,0,P|357:241|361:292,1,95.9999970703126,0|4,0:0|3:0,0:0:0:0:
266,111,162373,1,0,0:0:0:0:
266,111,162526,2,0,P|313:90|364:86,1,95.9999970703126,8|4,0:0|3:0,0:0:0:0:
453,260,162832,5,2,0:0:0:0:
453,260,162985,1,0,0:0:0:0:
266,111,163138,1,8,0:0:0:0:
266,111,163291,1,0,0:0:0:0:
433,350,163444,5,4,3:0:0:0:
257,356,163597,1,0,0:0:0:0:
453,260,163750,1,8,0:0:0:0:
277,266,163903,1,4,3:0:0:0:
433,350,164056,2,0,P|455:298|451:251,1,95.9999970703126,2|0,0:0|0:0,0:0:0:0:
295,176,164363,2,0,P|275:218|276:266,1,95.9999970703126,8|0,0:0|0:0,0:0:0:0:
502,128,164669,6,0,P|453:120|402:131,1,95.9999970703126,4|0,3:0|0:0,0:0:0:0:
276,266,164975,1,8,0:0:0:0:
276,266,165128,2,0,B|232:282|183:264|183:264|134:248|88:267,1,191.999994140625,4|0,3:0|0:0,0:0:0:0:
216,87,165587,2,0,P|225:116|221:186,1,95.9999970703126,8|0,0:0|0:0,0:0:0:0:
136,353,165893,5,4,3:0:0:0:
134,373,166199,1,8,0:0:0:0:
88,267,166352,2,0,B|134:248|183:264|183:264|232:282|276:266,1,191.999994140625,4|0,3:0|0:0,0:0:0:0:
448,194,166812,2,0,P|397:188|344:205,1,95.9999970703126,8|0,0:0|0:0,0:0:0:0:
125,76,167118,6,0,P|171:88|218:82,2,95.9999970703126,4|0|8,3:0|0:0|0:0,0:0:0:0:
259,179,167577,2,0,P|302:134|208:90,1,191.999994140625,4|0,3:0|0:0,0:0:0:0:
193,256,168036,2,0,P|246:279|297:274,1,95.9999970703126,8|0,0:0|0:0,0:0:0:0:
451,188,168342,5,4,3:0:0:0:
458,321,168495,1,0,0:0:0:0:
450,159,168648,2,0,L|445:63,1,95.9999970703126,8|4,0:0|3:0,0:0:0:0:
212,160,168954,2,0,P|256:176|304:160,1,95.9999970703126,2|0,0:0|0:0,0:0:0:0:
67,63,169260,2,0,L|62:159,1,95.9999970703126,8|0,0:0|0:0,0:0:0:0:
54,321,169567,5,4,3:0:0:0:
223,274,169720,1,0,0:0:0:0:
0,218,169873,1,8,0:0:0:0:
270,375,170026,2,0,P|316:315|311:195,1,191.999994140625,4|0,3:0|0:0,0:0:0:0:
129,263,170485,2,0,P|179:278|234:271,1,95.9999970703126,8|0,0:0|0:0,0:0:0:0:
200,66,170791,6,0,P|146:98|230:127,1,191.999994140625,4|0,1:0|3:0,0:0:0:0:
340,132,171174,1,0,3:0:0:0:
340,132,171250,2,0,P|393:190|316:202,1,191.999994140625,4|0,1:0|3:0,0:0:0:0:
223,274,171633,1,0,3:0:0:0:
223,274,171709,1,4,1:0:0:0:
