osu file format v14

[General]
AudioFilename: audio.mp3
AudioLeadIn: 0
PreviewTime: 35485
Countdown: 0
SampleSet: Soft
StackLeniency: 0.7
Mode: 0
LetterboxInBreaks: 0
WidescreenStoryboard: 0

[Editor]
Bookmarks: 6709,16505,26301,45893,75281,85077,104669,124260,141403
DistanceSpacing: 1.2
BeatDivisor: 4
GridSize: 32
TimelineZoom: 1

[Metadata]
Title:Labios
TitleUnicode:Labios
Artist:Jenny And The Mexicats
ArtistUnicode:Jenny And The Mexicats
Creator:ezek
Version:Dificil
Source:Amor de mis amores
Tags:love of my loves soundtrack ome latin MkGuh DTM9 Nowa fieryrage spanish espanol espaƱol
BeatmapID:1133388
BeatmapSetID:534813

[Difficulty]
HPDrainRate:6
CircleSize:4
OverallDifficulty:7
ApproachRate:7
SliderMultiplier:1.2
SliderTickRate:2

[Events]
//Background and Video events
0,0,"Amorts.jpg",0,0
Video,0,"Meow.avi"
//Break Periods
2,134256,140503
//Storyboard Layer 0 (Background)
//Storyboard Layer 1 (Fail)
//Storyboard Layer 2 (Pass)
//Storyboard Layer 3 (Foreground)
//Storyboard Sound Samples

[TimingPoints]
1812,306.122448979592,4,2,0,100,1,0
33648,-100,4,2,0,10,0,0
33954,-100,4,2,0,20,0,0
34260,-100,4,2,0,30,0,0
34567,-100,4,2,0,50,0,0
34873,-100,4,2,0,60,0,0
35179,-100,4,2,0,70,0,0
35485,-100,4,2,0,80,0,0
35791,-100,4,2,0,90,0,0
36097,-90.9090909090909,4,2,0,100,0,1
55689,-100,4,2,0,100,0,0
92424,-100,4,2,0,10,0,0
92730,-100,4,2,0,20,0,0
93036,-100,4,2,0,30,0,0
93342,-100,4,2,0,40,0,0
93648,-100,4,2,0,50,0,0
93954,-100,4,2,0,60,0,0
94260,-100,4,2,0,70,0,0
94567,-100,4,2,0,85,0,0
94873,-90.9090909090909,4,2,0,100,0,1
114158,-90.9090909090909,4,2,0,100,0,0
114465,-90.9090909090909,4,2,0,100,0,1
134056,-100,4,2,0,100,0,0
141403,-100,4,2,0,10,0,0
141709,-100,4,2,0,20,0,0
142016,-100,4,2,0,30,0,0
142322,-100,4,2,0,40,0,0
142628,-100,4,2,0,50,0,0
142934,-100,4,2,0,60,0,0
143240,-100,4,2,0,70,0,0
143546,-100,4,2,0,85,0,0
143852,-90.9090909090909,4,2,0,100,0,1
153342,-90.9090909090909,4,2,0,100,0,0
153648,-90.9090909090909,4,2,0,100,0,1
170638,-90.9090909090909,4,2,0,100,0,0
170791,-90.9090909090909,4,2,0,100,0,1
171863,-90.9090909090909,4,2,0,100,0,0

[Colours]
Combo1 : 150,232,77
Combo2 : 255,125,252
Combo3 : 109,227,252
Combo4 : 241,136,73

[HitObjects]
223,151,6709,6,0,P|171:173|136:224,1,120,4|8,0:0|0:0,0:0:0:0:
113,293,7169,1,0,3:0:0:0:
111,368,7322,1,2,0:0:0:0:
111,368,7475,2,0,P|49:350|8:304,2,120
181,352,8240,1,8,0:0:0:0:
245,319,8393,2,0,P|299:296|353:320,1,120,0|0,3:0|0:0,0:0:0:0:
299,369,8852,1,8,0:0:0:0:
410,267,9158,6,0,B|415:233|415:233|404:188|404:188|410:147,1,120,2|8,0:0|0:0,0:0:0:0:
438,82,9618,2,0,L|503:94,2,60,0|2|0,3:0|0:0|0:0,0:0:0:0:
366,70,10077,1,8,0:0:0:0:
366,70,10230,2,0,P|332:61|234:91,1,120
222,144,10689,1,8,0:0:0:0:
253,208,10842,2,0,P|284:214|318:213,2,60,0|2|0,0:0|0:0|0:0,0:0:0:0:
181,203,11301,2,0,P|150:197|116:198,1,60,8|0,0:0|0:0,0:0:0:0:
52,216,11607,6,0,B|36:185|36:185|38:133|38:133|28:102,1,120,2|8,0:0|0:0,0:0:0:0:
49,32,12067,1,0,3:0:0:0:
115,71,12220,1,2,0:0:0:0:
115,71,12373,2,0,P|167:64|223:28,2,120
49,32,13138,1,8,0:0:0:0:
27,101,13291,6,0,L|50:234,1,120,0|0,3:0|0:0,0:0:0:0:
113,248,13750,2,0,L|137:192,1,60,8|0,0:0|0:0,0:0:0:0:
194,136,14056,2,0,P|229:158|275:226,1,120,2|8,0:0|0:0,0:0:0:0:
294,291,14516,2,0,P|325:240|373:205,1,120,0|0,3:0|0:0,0:0:0:0:
444,191,14975,1,8,0:0:0:0:
506,226,15128,1,0,0:0:0:0:
504,145,15281,6,0,B|475:122|475:122|454:85|454:85|419:62,1,120,2|8,0:0|0:0,0:0:0:0:
357,28,15740,1,8,0:0:0:0:
300,72,15893,2,0,L|315:103,2,30,2|0|0,0:0|0:0|0:0,0:0:0:0:
221,44,16199,1,8,0:0:0:0:
137,34,16352,1,0,3:0:0:0:
42,91,16505,6,0,B|32:151|32:151|41:209,1,120,4|0,0:0|0:0,0:0:0:0:
127,324,17118,2,0,L|331:338,1,180,0|0,0:0|0:0,0:0:0:0:
366,295,17730,2,0,L|455:305,2,90,2|0|0,0:0|0:0|0:0,0:0:0:0:
212,51,18801,1,0,0:0:0:0:
212,51,18954,6,0,B|256:59|256:59|300:51,2,90,2|0|0,0:0|0:0|0:0,0:0:0:0:
256,188,19720,2,0,B|265:220|254:249|254:249|244:275|256:307,2,120,0|0|0,0:0|0:0|0:0,0:0:0:0:
399,197,20638,1,2,0:0:0:0:
399,197,20791,2,0,L|478:190,1,60,0|2,0:0|0:0,0:0:0:0:
491,53,21250,1,2,0:0:0:0:
491,53,21403,6,0,L|356:65,1,120,2|0,0:0|3:0,0:0:0:0:
239,122,22016,2,0,B|192:134|155:115|155:115|112:91|65:112,1,180,2|0,0:0|0:0,0:0:0:0:
33,177,22628,1,0,3:0:0:0:
109,180,22781,1,0,0:0:0:0:
109,180,23087,2,0,L|105:300,1,120,0|0,0:0|0:0,0:0:0:0:
71,363,23546,2,0,P|103:371|133:365,1,60,2|0,0:0|0:0,0:0:0:0:
191,330,23852,6,0,P|220:313|251:305,1,60,2|0,0:0|0:0,0:0:0:0:
309,338,24158,2,0,P|337:329|363:313,1,60,0|0,3:0|0:0,0:0:0:0:
389,245,24465,1,2,0:0:0:0:
453,276,24618,2,0,L|459:311,2,30,0|0|0,0:0|0:0|3:0,0:0:0:0:
470,206,24924,1,0,0:0:0:0:
448,137,25077,6,0,P|482:135|513:148,2,60,2|0|0,0:0|0:0|3:0,0:0:0:0:
385,173,25536,1,0,0:0:0:0:
316,196,25689,2,0,P|282:198|251:185,1,60,2|0,0:0|0:0,0:0:0:0:
196,152,25995,2,0,P|182:120|184:87,1,60,0|2,3:0|0:0,0:0:0:0:
230,17,26301,6,0,P|178:45|122:29,1,120,4|0,0:0|3:0,0:0:0:0:
7,116,26914,2,0,L|4:298,1,180,2|0,0:0|0:0,0:0:0:0:
62,337,27526,1,2,0:0:0:0:
129,375,27679,1,0,0:0:0:0:
129,375,27985,2,0,P|162:332|162:267,1,120
129,204,28444,1,0,3:0:0:0:
176,149,28597,1,0,0:0:0:0:
176,149,28750,6,0,B|138:130|138:130|91:140,2,90,2|0|0,0:0|0:0|0:0,0:0:0:0:
248,155,29363,2,0,P|272:135|293:109,1,60,2|0,0:0|0:0,0:0:0:0:
361,103,29669,2,0,P|380:125|403:145,1,60,0|0,3:0|0:0,0:0:0:0:
469,117,29975,2,0,L|461:26,2,90,2|0|0,0:0|0:0|0:0,0:0:0:0:
446,204,30587,2,0,L|451:267,1,60,2|0,0:0|0:0,0:0:0:0:
326,336,31046,1,0,0:0:0:0:
326,336,31199,6,0,P|311:273|314:217,1,120,2|0,0:0|3:0,0:0:0:0:
326,147,31658,1,0,0:0:0:0:
257,171,31812,2,0,P|231:186|196:196,2,60,2|0|0,0:0|0:0|3:0,0:0:0:0:
269,100,32271,1,0,0:0:0:0:
269,100,32424,2,0,P|309:75|360:81,2,90,2|0|0,0:0|0:0|0:0,0:0:0:0:
197,111,33036,2,0,P|155:108|86:73,1,120,2|0,0:0|3:0,0:0:0:0:
26,33,33495,1,0,0:0:0:0:
6,102,33648,6,0,L|-2:170,1,60,4|4,3:0|3:0,0:0:0:0:
62,195,33954,2,0,L|77:261,1,60,4|4,3:0|3:0,0:0:0:0:
144,276,34260,2,0,L|181:333,1,60,4|4,3:0|3:0,0:0:0:0:
246,305,34567,2,0,L|300:345,1,60,4|4,3:0|3:0,0:0:0:0:
361,286,34873,6,0,L|419:263,1,60,4|4,3:0|3:0,0:0:0:0:
340,215,35179,2,0,L|398:192,1,60,4|4,3:0|3:0,0:0:0:0:
317,145,35485,2,0,L|375:122,1,60,4|4,3:0|3:0,0:0:0:0:
457,89,35791,1,4,3:0:0:0:
392,26,35944,1,4,3:0:0:0:
275,47,36097,6,0,P|215:73|151:62,1,132.00000402832,4|8,0:0|0:0,0:0:0:0:
80,25,36556,2,0,L|126:155,1,132.00000402832,4|0,3:0|0:0,0:0:0:0:
147,225,37016,2,0,P|143:260|125:287,1,66.0000020141602,8|0,0:0|0:0,0:0:0:0:
81,350,37322,6,0,P|47:296|66:233,1,132.00000402832,4|8,3:0|0:0,0:0:0:0:
126,285,37781,2,0,L|262:308,1,132.00000402832,4|0,3:0|0:0,0:0:0:0:
334,317,38240,1,8,0:0:0:0:
398,362,38393,1,0,0:0:0:0:
461,298,38546,6,0,P|473:245|471:167,1,132.00000402832,4|8,3:0|0:0,0:0:0:0:
398,135,39005,2,0,P|392:102|391:69,2,66.0000020141602,4|0|0,3:0|3:0|0:0,0:0:0:0:
373,210,39465,2,0,L|303:223,1,66.0000020141602,8|0,0:0|0:0,0:0:0:0:
222,194,39771,6,0,P|204:145|208:64,1,132.00000402832,4|8,3:0|0:0,0:0:0:0:
276,24,40230,2,0,L|141:31,1,132.00000402832,4|0,3:0|0:0,0:0:0:0:
65,38,40689,1,8,0:0:0:0:
15,113,40842,1,0,0:0:0:0:
15,113,40995,6,0,B|19:160|19:160|37:193|37:193|43:241,1,132.00000402832,4|8,3:0|0:0,0:0:0:0:
7,310,41454,2,0,P|71:312|116:265,1,132.00000402832,4|0,3:0|0:0,0:0:0:0:
169,207,41914,2,0,P|211:195|246:198,1,66.0000020141602,8|0,0:0|0:0,0:0:0:0:
280,271,42220,2,0,L|416:281,1,132.00000402832,4|8,3:0|0:0,0:0:0:0:
443,208,42679,2,0,L|307:198,1,132.00000402832,4|0,3:0|0:0,0:0:0:0:
232,195,43138,1,8,0:0:0:0:
183,44,43444,6,0,P|192:87|148:160,1,132.00000402832,4|8,3:0|0:0,0:0:0:0:
80,199,43903,2,0,P|40:250|46:314,1,132.00000402832,4|0,3:0|0:0,0:0:0:0:
125,306,44363,2,0,L|193:319,1,66.0000020141602,8|0,0:0|0:0,0:0:0:0:
250,267,44669,2,0,B|296:243|296:243|376:255,1,132.00000402832,4|8,3:0|0:0,0:0:0:0:
450,277,45128,1,4,3:0:0:0:
474,192,45281,2,0,L|481:126,1,66.0000020141602,0|0,0:0|0:0,0:0:0:0:
399,93,45587,2,0,L|392:159,1,66.0000020141602,8|0,0:0|0:0,0:0:0:0:
375,254,45893,6,0,P|353:315|292:341,1,132.00000402832,4|8,0:0|0:0,0:0:0:0:
236,287,46352,2,0,P|261:269|295:260,2,66.0000020141602,4|0|0,3:0|0:0|0:0,0:0:0:0:
168,329,46812,2,0,L|99:325,1,66.0000020141602,8|0,0:0|0:0,0:0:0:0:
36,265,47118,2,0,B|29:221|29:221|23:178|53:138,1,132.00000402832,4|8,3:0|0:0,0:0:0:0:
111,191,47577,2,0,B|140:152|134:109|134:109|127:65,1,132.00000402832,4|0,3:0|0:0,0:0:0:0:
60,22,48036,1,8,0:0:0:0:
127,65,48189,1,0,0:0:0:0:
212,31,48342,6,0,L|350:27,1,132.00000402832,4|8,3:0|0:0,0:0:0:0:
397,85,48801,2,0,P|419:50|423:21,2,66.0000020141602,4|0|0,3:0|0:0|0:0,0:0:0:0:
328,124,49260,2,0,L|340:192,1,66.0000020141602,8|0,0:0|0:0,0:0:0:0:
307,273,49567,2,0,P|358:238|418:266,1,132.00000402832,4|8,3:0|0:0,0:0:0:0:
424,343,50026,2,0,P|373:378|313:350,1,132.00000402832,4|0,3:0|0:0,0:0:0:0:
240,321,50485,1,8,0:0:0:0:
155,342,50638,1,0,0:0:0:0:
155,342,50791,6,0,B|103:301|103:301|74:236,1,132.00000402832,4|8,3:0|0:0,0:0:0:0:
128,181,51250,2,0,B|100:120|100:120|44:76,1,132.00000402832,4|0,3:0|0:0,0:0:0:0:
97,17,51709,2,0,L|150:60,1,66.0000020141602,8|0,0:0|0:0,0:0:0:0:
224,105,52016,2,0,B|258:118|287:101|287:101|317:84|351:95,1,132.00000402832,4|8,3:0|0:0,0:0:0:0:
405,152,52475,2,0,P|427:111|399:34,1,132.00000402832,4|0,3:0|0:0,0:0:0:0:
351,95,52934,1,8,0:0:0:0:
316,249,53240,6,0,L|337:319,1,66.0000020141602,4|0,0:0|0:0,0:0:0:0:
256,372,53546,2,0,L|256:306,1,66.0000020141602,8|4,0:0|3:0,0:0:0:0:
196,249,53852,2,0,L|175:319,1,66.0000020141602,0|0,0:0|0:0,0:0:0:0:
102,338,54158,2,0,P|64:333|34:319,1,66.0000020141602,8|0,0:0|0:0,0:0:0:0:
6,249,54465,1,4,3:0:0:0:
102,123,54771,1,8,0:0:0:0:
128,197,54924,2,0,L|121:237,2,33.0000010070801,4|0|0,3:0|0:0|3:0,0:0:0:0:
190,148,55230,1,0,3:0:0:0:
164,73,55383,2,0,L|176:6,1,66.0000020141602,8|0,0:0|0:0,0:0:0:0:
270,26,55689,6,0,L|288:145,1,120,4|8,0:0|0:0,0:0:0:0:
302,215,56148,1,0,3:0:0:0:
367,181,56301,1,2,0:0:0:0:
367,181,56454,2,0,B|397:170|424:185|424:185|451:201|482:191,2,120
302,215,57220,1,8,0:0:0:0:
235,242,57373,2,0,P|248:296|221:355,1,120
154,376,57832,1,8,0:0:0:0:
103,241,58138,6,0,L|110:121,1,120,2|8,0:0|0:0,0:0:0:0:
58,70,58597,2,0,L|-4:77,2,60,0|2|0,0:0|0:0|0:0,0:0:0:0:
120,35,59056,1,8,0:0:0:0:
120,35,59209,2,0,P|173:46|221:92,1,120
237,160,59669,1,8,0:0:0:0:
230,231,59822,2,0,L|181:269,2,60,0|2|0,0:0|0:0|0:0,0:0:0:0:
301,240,60281,2,0,L|350:202,1,60,8|0,0:0|0:0,0:0:0:0:
418,185,60587,6,0,P|390:144|322:135,1,120,2|8,0:0|0:0,0:0:0:0:
254,148,61046,1,0,0:0:0:0:
185,126,61199,1,2,0:0:0:0:
185,126,61352,2,0,B|195:84|195:84|190:50|190:50|201:9,2,120
113,117,62118,1,8,0:0:0:0:
113,117,62271,2,0,B|102:158|102:158|107:192|107:192|95:238,1,120,0|0,3:0|0:0,0:0:0:0:
46,286,62730,2,0,L|75:341,1,60,8|0,0:0|0:0,0:0:0:0:
144,355,63036,6,0,P|165:322|167:302,1,60,2|0,0:0|0:0,0:0:0:0:
221,255,63342,1,8,0:0:0:0:
268,309,63495,2,0,P|282:339|308:359,2,60,0|2|0,0:0|0:0|0:0,0:0:0:0:
315,255,63954,1,8,0:0:0:0:
374,296,64107,2,0,B|425:299|425:299|489:273,2,120,0|0|0,0:0|0:0|0:0,0:0:0:0:
315,255,64873,2,0,L|312:192,1,60,2|0,0:0|0:0,0:0:0:0:
264,140,65179,2,0,L|261:77,1,60,8|0,0:0|0:0,0:0:0:0:
169,54,65485,6,0,L|175:180,1,120,4|8,0:0|0:0,0:0:0:0:
178,245,65944,1,0,3:0:0:0:
125,294,66097,1,2,0:0:0:0:
125,294,66250,2,0,P|64:312|13:291,2,120
169,237,67016,1,8,0:0:0:0:
125,179,67169,2,0,P|64:161|13:182,1,120,0|0,3:0|0:0,0:0:0:0:
59,236,67628,1,8,0:0:0:0:
206,313,67934,6,0,L|328:318,1,120,2|8,0:0|0:0,0:0:0:0:
397,321,68393,2,0,P|420:345|430:373,2,60,0|2|0,0:0|0:0|0:0,0:0:0:0:
363,257,68852,2,0,L|375:199,1,60,8|0,0:0|0:0,0:0:0:0:
425,147,69158,2,0,P|369:152|326:107,1,120,2|8,0:0|0:0,0:0:0:0:
297,42,69618,1,0,0:0:0:0:
228,62,69771,2,0,L|200:117,1,60,2|0,0:0|0:0,0:0:0:0:
144,70,70077,2,0,L|113:126,1,60,8|0,0:0|0:0,0:0:0:0:
161,177,70383,6,0,P|116:153|53:179,1,120,2|8,0:0|0:0,0:0:0:0:
5,230,70842,1,0,0:0:0:0:
59,286,70995,1,2,0:0:0:0:
59,286,71148,2,0,B|97:290|97:290|131:278|131:278|178:285,2,120
0,330,71914,1,8,0:0:0:0:
65,362,72067,2,0,B|103:366|103:366|137:354|137:354|184:361,1,120
253,371,72526,2,0,P|280:372|311:359,1,60,8|0,0:0|0:0,0:0:0:0:
332,291,72832,6,0,B|390:270|390:270|448:281,1,120,2|8,0:0|0:0,0:0:0:0:
463,210,73291,2,0,B|404:199|404:199|358:159,1,120
306,110,73750,2,0,P|306:79|321:52,1,60,8|0,0:0|0:0,0:0:0:0:
391,51,74056,2,0,L|406:16,2,30,0|0|0,3:0|3:0|3:0,0:0:0:0:
438,107,74363,1,8,0:0:0:0:
457,181,74516,1,8,0:0:0:0:
457,181,74669,2,0,P|449:216|440:242,1,60
366,292,74975,1,2,3:0:0:0:
366,292,75281,6,0,B|318:298|318:298|297:310|297:310|249:314,1,120,4|0,0:0|3:0,0:0:0:0:
108,285,75893,2,0,B|90:238|111:202|111:202|134:165|109:113,1,180,2|0,0:0|0:0,0:0:0:0:
51,68,76505,1,2,0:0:0:0:
108,112,76658,2,0,L|231:113,1,120,0|0,0:0|0:0,0:0:0:0:
415,331,77577,1,0,0:0:0:0:
415,331,77730,6,0,L|326:330,2,90,2|0|0,0:0|0:0|0:0,0:0:0:0:
490,208,78495,2,0,P|503:154|491:90,2,120,0|0|0,0:0|0:0|0:0,0:0:0:0:
349,174,79414,1,2,0:0:0:0:
349,174,79567,2,0,L|351:110,1,60,0|2,0:0|0:0,0:0:0:0:
236,201,80026,1,0,0:0:0:0:
236,201,80179,6,0,L|242:78,1,120,2|0,0:0|3:0,0:0:0:0:
100,53,80791,2,0,P|73:131|91:226,1,180,2|0,0:0|0:0,0:0:0:0:
124,288,81403,2,0,B|82:269|82:269|38:275,2,90,2|0|0,0:0|0:0|0:0,0:0:0:0:
186,324,82016,2,0,L|177:387,2,60,2|0|0,0:0|0:0|3:0,0:0:0:0:
245,283,82475,1,0,0:0:0:0:
245,283,82628,6,0,L|254:220,2,60,2|0|0,0:0|0:0|3:0,0:0:0:0:
300,329,83087,1,0,0:0:0:0:
368,349,83240,2,0,P|401:341|422:327,1,60,2|0,0:0|0:0,0:0:0:0:
470,272,83546,2,0,P|475:245|474:206,1,60,0|0,3:0|0:0,0:0:0:0:
465,141,83852,1,0,3:0:0:0:
412,92,84005,2,0,L|405:62,2,30
383,159,84312,1,0,0:0:0:0:
323,118,84465,2,0,P|306:94|296:66,1,60,2|0,0:0|0:0,0:0:0:0:
216,65,84771,2,0,P|206:93|189:118,1,60,0|0,3:0|0:0,0:0:0:0:
104,162,85077,5,4,0:0:0:0:
104,162,85383,1,0,3:0:0:0:
225,239,85689,2,0,P|162:191|121:263,1,180,2|0,0:0|0:0,0:0:0:0:
180,298,86301,2,0,P|223:313|266:301,2,90,2|0|0,0:0|0:0|0:0,0:0:0:0:
120,259,86914,1,2,0:0:0:0:
178,127,87220,1,0,3:0:0:0:
254,137,87373,1,0,0:0:0:0:
254,137,87526,6,0,B|259:164|259:164|248:199|248:199|254:225,2,90,2|0|0,0:0|0:0|0:0,0:0:0:0:
266,66,88138,2,0,L|276:4,2,60,2|0|0,0:0|0:0|3:0,0:0:0:0:
348,88,88597,1,0,0:0:0:0:
348,88,88750,2,0,P|395:84|436:42,2,90,2|0|2,0:0|0:0|0:0,0:0:0:0:
263,77,89363,2,0,L|253:136,1,60,0|2,0:0|0:0,0:0:0:0:
297,269,89822,1,0,0:0:0:0:
297,269,89975,6,0,P|325:222|386:212,1,120,2|0,0:0|3:0,0:0:0:0:
369,282,90434,2,0,L|189:308,1,180,0|0,0:0|3:0,0:0:0:0:
137,356,91046,1,0,0:0:0:0:
137,356,91199,2,0,B|96:361|96:361|49:351,2,90,2|0|0,0:0|0:0|0:0,0:0:0:0:
190,307,91812,2,0,L|177:243,1,60,2|0,0:0|0:0,0:0:0:0:
114,215,92118,2,0,L|102:153,1,60,0|0,3:0|0:0,0:0:0:0:
96,84,92424,6,0,L|137:29,1,60,4|4,3:0|3:0,0:0:0:0:
200,55,92730,2,0,L|256:17,1,60,4|4,3:0|3:0,0:0:0:0:
316,53,93036,2,0,L|382:37,1,60,4|4,3:0|3:0,0:0:0:0:
409,104,93343,2,0,L|475:112,1,60,4|4,3:0|3:0,0:0:0:0:
479,197,93649,6,0,L|504:253,1,60,4|4,3:0|3:0,0:0:0:0:
415,234,93955,2,0,L|440:290,1,60,4|4,3:0|3:0,0:0:0:0:
349,268,94261,2,0,L|374:324,1,60,4|4,3:0|3:0,0:0:0:0:
304,375,94567,1,4,3:0:0:0:
215,353,94720,1,4,3:0:0:0:
102,317,94873,6,0,B|77:255|77:255|82:185,1,132.00000402832,4|8,0:0|0:0,0:0:0:0:
43,120,95332,2,0,P|80:161|148:132,1,132.00000402832,4|0,3:0|0:0,0:0:0:0:
187,70,95791,2,0,P|209:44|238:33,1,66.0000020141602,8|0,0:0|0:0,0:0:0:0:
305,93,96097,2,0,B|376:107|439:55,1,132.00000402832,4|8,3:0|0:0,0:0:0:0:
502,31,96556,2,0,B|521:95|502:166,1,132.00000402832,4|0,3:0|0:0,0:0:0:0:
451,221,97016,1,8,0:0:0:0:
390,172,97169,1,0,0:0:0:0:
451,221,97322,6,0,P|407:248|328:217,1,132.00000402832,4|8,3:0|0:0,0:0:0:0:
314,149,97781,2,0,P|335:115|365:98,2,66.0000020141602,4|2|0,3:0|0:0|0:0,0:0:0:0:
257,204,98240,2,0,L|191:210,1,66.0000020141602,8|0,0:0|0:0,0:0:0:0:
118,158,98546,2,0,B|91:97|28:63,1,132.00000402832,4|8,3:0|0:0,0:0:0:0:
3,138,99005,2,0,B|30:199|93:233,1,132.00000402832,4|0,3:0|0:0,0:0:0:0:
167,261,99465,1,8,0:0:0:0:
130,342,99618,1,0,0:0:0:0:
130,342,99771,6,0,B|176:346|176:346|218:339|218:339|270:343,1,132.00000402832,4|8,3:0|0:0,0:0:0:0:
336,366,100230,2,0,L|401:368,2,66.0000020141602,4|2|0,3:0|0:0|0:0,0:0:0:0:
320,288,100689,2,0,P|346:255|367:242,1,66.0000020141602,8|0,0:0|0:0,0:0:0:0:
456,240,100995,6,0,P|405:213|398:140,1,132.00000402832,4|8,3:0|0:0,0:0:0:0:
460,98,101454,2,0,L|326:86,1,132.00000402832,4|0,3:0|0:0,0:0:0:0:
248,86,101914,1,8,0:0:0:0:
198,24,102067,1,0,0:0:0:0:
119,66,102220,6,0,B|123:115|123:115|143:145|143:145|148:194,1,132.00000402832,4|8,3:0|0:0,0:0:0:0:
68,187,102679,2,0,B|72:236|72:236|92:266|92:266|97:315,1,132.00000402832,4|0,3:0|0:0,0:0:0:0:
158,362,103138,1,8,0:0:0:0:
193,291,103291,2,0,B|256:272|256:272|320:291,1,132.00000402832,0|0,0:0|0:0,0:0:0:0:
390,325,103750,1,8,0:0:0:0:
390,325,103903,1,4,3:0:0:0:
453,261,104056,2,0,L|463:195,1,66.0000020141602,2|0,0:0|0:0,0:0:0:0:
374,210,104363,2,0,L|384:144,1,66.0000020141602,8|0,0:0|0:0,0:0:0:0:
440,63,104669,6,0,P|387:73|311:42,1,132.00000402832,4|8,0:0|0:0,0:0:0:0:
236,39,105128,2,0,L|221:182,1,132.00000402832,4|0,3:0|0:0,0:0:0:0:
245,245,105587,2,0,P|292:243|318:233,1,66.0000020141602,8|0,0:0|0:0,0:0:0:0:
381,182,105893,6,0,B|412:220|396:269|396:269|383:308,1,132.00000402832,4|8,3:0|0:0,0:0:0:0:
317,349,106352,2,0,L|186:338,1,132.00000402832,4|0,3:0|0:0,0:0:0:0:
156,263,106812,1,8,0:0:0:0:
185,337,106965,1,0,0:0:0:0:
235,264,107118,2,0,P|220:214|149:183,1,132.00000402832,4|8,3:0|0:0,0:0:0:0:
84,225,107577,2,0,P|52:243|19:245,2,66.0000020141602,4|0|0,3:0|0:0|0:0,0:0:0:0:
74,146,108036,2,0,L|72:76,1,66.0000020141602,8|0,0:0|0:0,0:0:0:0:
152,38,108342,6,0,B|201:81|201:81|216:146,1,132.00000402832,4|8,3:0|0:0,0:0:0:0:
296,146,108801,2,0,B|311:81|311:81|360:38,1,132.00000402832,4|0,3:0|0:0,0:0:0:0:
440,28,109260,1,8,0:0:0:0:
482,104,109414,1,0,0:0:0:0:
482,104,109567,2,0,P|489:164|464:231,1,132.00000402832,4|8,3:0|0:0,0:0:0:0:
389,205,110026,2,0,P|365:265|371:331,1,132.00000402832,4|0,3:0|0:0,0:0:0:0:
301,367,110485,2,0,L|236:356,1,66.0000020141602,8|0,0:0|0:0,0:0:0:0:
164,301,110791,6,0,B|99:298|99:298|34:317,1,132.00000402832,4|8,3:0|0:0,0:0:0:0:
11,241,111250,2,0,B|73:222|73:222|128:183,1,132.00000402832,4|0,3:0|0:0,0:0:0:0:
191,135,111709,1,8,0:0:0:0:
193,55,111863,1,0,0:0:0:0:
288,91,112016,2,0,L|278:164,1,66.0000020141602,4|0,0:0|0:0,0:0:0:0:
339,208,112322,2,0,L|329:281,1,66.0000020141602,8|4,0:0|3:0,0:0:0:0:
396,316,112628,2,0,L|386:389,2,66.0000020141602,0|0|8,0:0|0:0|0:0,0:0:0:0:
454,262,113087,1,0,0:0:0:0:
420,190,113240,6,0,P|395:142|385:63,1,132.00000402832,4|8,3:0|0:0,0:0:0:0:
314,28,113699,1,4,3:0:0:0:
239,54,113852,2,0,L|204:43,2,33.0000010070801,0|0|0,3:0|3:0|3:0,0:0:0:0:
282,120,114158,2,0,P|281:157|270:193,1,66.0000020141602,8|0,0:0|0:0,0:0:0:0:
215,239,114465,5,4,0:0:0:0:
137,253,114618,1,0,0:0:0:0:
68,214,114771,2,0,P|44:182|33:151,1,66.0000020141602,8|0,0:0|0:0,0:0:0:0:
38,78,115077,1,2,0:0:0:0:
100,29,115230,1,0,0:0:0:0:
168,70,115383,2,0,L|240:74,1,66.0000020141602,8|0,0:0|0:0,0:0:0:0:
298,120,115689,6,0,L|370:124,1,66.0000020141602,4|0,3:0|0:0,0:0:0:0:
443,175,115995,1,8,0:0:0:0:
443,175,116148,2,0,B|439:224|439:224|446:259|446:259|442:306,1,132.00000402832,4|0,3:0|0:0,0:0:0:0:
381,356,116607,1,8,0:0:0:0:
234,295,116914,5,4,3:0:0:0:
234,295,117067,2,0,L|303:281,1,66.0000020141602,0|8,0:0|0:0,0:0:0:0:
149,229,117526,2,0,L|218:215,1,66.0000020141602,2|0,0:0|3:0,0:0:0:0:
63,167,117985,1,0,0:0:0:0:
63,167,118138,6,0,L|132:153,1,66.0000020141602,4|0,3:0|0:0,0:0:0:0:
198,118,118444,2,0,P|224:88|236:58,1,66.0000020141602,8|4,0:0|3:0,0:0:0:0:
303,25,118750,2,0,L|377:21,1,66.0000020141602,2|0,0:0|0:0,0:0:0:0:
444,45,119056,2,0,P|458:74|480:98,1,66.0000020141602,8|0,0:0|0:0,0:0:0:0:
494,177,119363,5,4,0:0:0:0:
464,250,119516,1,0,0:0:0:0:
387,230,119669,2,0,L|356:292,1,66.0000020141602,8|4,0:0|3:0,0:0:0:0:
281,268,119975,1,2,0:0:0:0:
249,340,120128,1,0,0:0:0:0:
180,300,120281,2,0,P|145:302|115:312,1,66.0000020141602,8|0,0:0|0:0,0:0:0:0:
73,244,120587,6,0,P|95:219|110:190,1,66.0000020141602,4|0,3:0|0:0,0:0:0:0:
143,110,120893,1,8,0:0:0:0:
143,110,121046,2,0,P|183:106|243:169,1,132.00000402832,4|0,3:0|0:0,0:0:0:0:
255,245,121505,1,8,0:0:0:0:
396,316,121812,6,0,P|420:239|386:124,2,198.000006042481,4|4|8,3:0|3:0|0:0,0:0:0:0:
237,322,123036,5,4,3:0:0:0:
237,322,123189,2,0,P|187:291|87:292,1,132.00000402832,0|4,0:0|3:0,0:0:0:0:
36,279,123648,2,0,L|23:213,1,66.0000020141602,2|0,0:0|0:0,0:0:0:0:
87,168,123954,2,0,L|148:202,1,66.0000020141602,8|0,0:0|0:0,0:0:0:0:
219,226,124260,5,4,0:0:0:0:
297,240,124414,1,0,0:0:0:0:
373,219,124567,2,0,P|411:196|431:177,1,66.0000020141602,8|0,0:0|0:0,0:0:0:0:
480,123,124873,1,2,0:0:0:0:
498,45,125026,1,0,0:0:0:0:
480,123,125179,2,0,L|512:182,1,66.0000020141602,8|0,0:0|0:0,0:0:0:0:
426,181,125485,6,0,L|394:122,1,66.0000020141602,4|0,3:0|0:0,0:0:0:0:
350,64,125791,1,8,0:0:0:0:
350,64,125944,2,0,P|292:47|222:65,1,132.00000402832,4|0,3:0|0:0,0:0:0:0:
156,105,126403,1,8,0:0:0:0:
137,264,126709,2,0,P|80:294|17:277,1,132.00000402832,4|8,3:0|0:0,0:0:0:0:
7,198,127169,2,0,P|64:168|127:185,1,132.00000402832,4|0,3:0|0:0,0:0:0:0:
196,220,127628,2,0,L|254:258,1,66.0000020141602,8|0,0:0|0:0,0:0:0:0:
317,300,127934,6,0,P|361:285|380:273,1,66.0000020141602,4|0,3:0|0:0,0:0:0:0:
428,214,128240,1,8,0:0:0:0:
428,214,128393,2,0,P|445:153|437:86,1,132.00000402832,4|0,3:0|0:0,0:0:0:0:
376,33,128852,1,8,0:0:0:0:
376,33,129158,6,0,L|302:24,1,66.0000020141602,4|0,0:0|0:0,0:0:0:0:
325,103,129465,2,0,L|251:94,1,66.0000020141602,8|4,0:0|3:0,0:0:0:0:
270,173,129771,2,0,L|196:164,1,66.0000020141602,2|0,0:0|0:0,0:0:0:0:
219,243,130078,2,0,L|145:234,1,66.0000020141602,8|0,0:0|0:0,0:0:0:0:
75,222,130383,5,4,3:0:0:0:
43,149,130536,1,0,0:0:0:0:
122,153,130689,1,8,0:0:0:0:
75,222,130842,2,0,P|83:281|145:318,1,132.00000402832,4|0,3:0|0:0,0:0:0:0:
217,337,131301,1,8,0:0:0:0:
256,192,131607,12,4,134056,0:0:0:0:
57,269,141403,6,0,P|48:239|46:210,1,60,4|4,3:0|3:0,0:0:0:0:
111,180,141709,2,0,P|112:148|120:120,1,60,4|4,3:0|3:0,0:0:0:0:
190,102,142016,2,0,P|202:73|219:49,1,60,4|4,3:0|3:0,0:0:0:0:
292,50,142322,2,0,P|310:74|322:102,1,60,4|4,3:0|3:0,0:0:0:0:
391,121,142629,2,0,P|399:150|401:180,1,60,4|4,3:0|3:0,0:0:0:0:
466,210,142935,2,0,P|463:240|455:269,1,60,4|4,3:0|3:0,0:0:0:0:
417,330,143240,1,4,3:0:0:0:
417,330,143393,1,4,3:0:0:0:
345,328,143546,1,4,3:0:0:0:
345,328,143699,1,4,3:0:0:0:
240,272,143852,6,0,P|243:211|289:160,1,132.00000402832,4|8,0:0|0:0,0:0:0:0:
363,186,144312,2,0,P|407:138|411:74,1,132.00000402832,4|0,3:0|0:0,0:0:0:0:
333,65,144771,2,0,L|267:37,1,66.0000020141602,8|0,0:0|0:0,0:0:0:0:
192,4,145077,2,0,B|178:41|190:72|190:72|148:134,1,132.00000402832,4|8,3:0|0:0,0:0:0:0:
79,148,145536,2,0,P|127:150|197:195,1,132.00000402832,4|0,3:0|0:0,0:0:0:0:
220,269,145995,2,0,P|206:298|182:321,1,66.0000020141602,8|0,0:0|0:0,0:0:0:0:
111,376,146301,6,0,L|242:380,1,132.00000402832,4|8,3:0|0:0,0:0:0:0:
311,340,146760,2,0,L|381:347,2,66.0000020141602,4|2|0,3:0|0:0|0:0,0:0:0:0:
253,285,147220,2,0,P|267:256|291:233,1,66.0000020141602,8|0,0:0|0:0,0:0:0:0:
376,261,147526,2,0,P|335:217|379:169,1,132.00000402832,4|8,3:0|0:0,0:0:0:0:
452,162,147985,2,0,P|493:118|449:70,1,132.00000402832,4|0,3:0|0:0,0:0:0:0:
375,69,148444,1,8,0:0:0:0:
309,24,148597,1,0,0:0:0:0:
221,52,148750,6,0,P|207:138|171:177,1,132.00000402832,4|8,3:0|0:0,0:0:0:0:
100,166,149209,2,0,P|62:219|58:284,1,132.00000402832,4|0,3:0|0:0,0:0:0:0:
103,350,149669,2,0,L|174:367,1,66.0000020141602,8|0,0:0|0:0,0:0:0:0:
239,313,149975,6,0,B|285:276|285:276|355:255,1,132.00000402832,4|8,3:0|0:0,0:0:0:0:
432,276,150434,2,0,B|461:240|461:240|489:152,1,132.00000402832,4|0,3:0|0:0,0:0:0:0:
470,80,150893,1,8,0:0:0:0:
470,80,151046,1,0,0:0:0:0:
390,42,151199,5,4,3:0:0:0:
236,82,151505,2,0,L|311:103,1,66.0000020141602,8|4,0:0|3:0,0:0:0:0:
147,147,151965,2,0,L|222:168,1,66.0000020141602,0|8,0:0|0:0,0:0:0:0:
52,179,152424,2,0,L|14:168,2,33.0000010070801,0|0|0,3:0|3:0|3:0,0:0:0:0:
106,236,152730,2,0,B|124:265|124:265|135:304,1,66.0000020141602,8|4,0:0|3:0,0:0:0:0:
207,320,153036,2,0,B|225:291|225:291|233:260,1,66.0000020141602,2|0,0:0|0:0,0:0:0:0:
304,225,153342,2,0,B|322:254|322:254|333:293,1,66.0000020141602,8|0,0:0|0:0,0:0:0:0:
386,340,153648,5,4,0:0:0:0:
463,325,153801,1,0,0:0:0:0:
497,253,153954,2,0,L|504:177,1,66.0000020141602,8|4,0:0|3:0,0:0:0:0:
468,115,154260,2,0,P|435:118|401:107,1,66.0000020141602,2|0,0:0|0:0,0:0:0:0:
346,53,154567,1,8,0:0:0:0:
269,74,154720,1,0,0:0:0:0:
193,96,154873,6,0,P|191:63|202:29,1,66.0000020141602,4|0,3:0|0:0,0:0:0:0:
269,74,155179,2,0,P|271:107|260:141,1,66.0000020141602,8|4,0:0|3:0,0:0:0:0:
132,229,155638,1,0,0:0:0:0:
132,229,155791,2,0,L|66:221,1,66.0000020141602,8|0,0:0|0:0,0:0:0:0:
170,340,156250,5,2,0:0:0:0:
170,340,156403,2,0,L|236:332,1,66.0000020141602,8|4,0:0|3:0,0:0:0:0:
314,323,156709,2,0,P|357:328|382:340,1,66.0000020141602,2|0,0:0|0:0,0:0:0:0:
440,288,157016,2,0,P|424:247|423:219,1,66.0000020141602,8|0,0:0|0:0,0:0:0:0:
350,193,157322,2,0,B|358:121|402:69,1,132.00000402832,4|8,3:0|0:0,0:0:0:0:
471,39,157781,1,4,3:0:0:0:
247,119,158240,1,8,0:0:0:0:
247,119,158393,1,0,0:0:0:0:
249,213,158546,6,0,L|232:279,1,66.0000020141602,4|0,3:0|0:0,0:0:0:0:
209,352,158852,1,8,0:0:0:0:
130,362,159005,1,4,3:0:0:0:
61,322,159158,2,0,P|41:283|35:253,1,66.0000020141602,2|0,0:0|0:0,0:0:0:0:
48,182,159465,1,8,0:0:0:0:
126,168,159618,1,0,0:0:0:0:
177,108,159771,6,0,P|175:69|163:43,1,66.0000020141602,4|0,3:0|0:0,0:0:0:0:
93,9,160077,1,8,0:0:0:0:
20,41,160230,1,4,3:0:0:0:
49,192,160536,1,0,0:0:0:0:
49,192,160689,2,0,L|59:257,1,66.0000020141602,8|0,0:0|0:0,0:0:0:0:
143,295,160995,5,4,3:0:0:0:
143,295,161148,2,0,P|91:342|30:344,2,132.00000402832,0|4|0,0:0|3:0|0:0,0:0:0:0:
200,239,161914,2,0,P|235:222|275:218,1,66.0000020141602,8|0,0:0|0:0,0:0:0:0:
327,273,162220,1,4,3:0:0:0:
327,273,162373,2,0,L|458:259,1,132.00000402832,0|4,0:0|3:0,0:0:0:0:
501,181,162832,2,0,P|499:140|486:115,1,66.0000020141602,2|0,0:0|0:0,0:0:0:0:
401,101,163138,2,0,P|403:142|416:167,1,66.0000020141602,8|0,0:0|0:0,0:0:0:0:
487,117,163444,5,4,3:0:0:0:
468,40,163597,1,0,0:0:0:0:
390,22,163750,2,0,P|357:36|336:57,1,66.0000020141602,8|0,0:0|0:0,0:0:0:0:
325,135,164056,1,2,0:0:0:0:
275,196,164209,1,0,0:0:0:0:
207,153,164363,2,0,L|182:86,1,66.0000020141602,8|0,0:0|0:0,0:0:0:0:
122,41,164669,6,0,P|77:47|41:66,1,66.0000020141602,4|0,3:0|0:0,0:0:0:0:
27,130,164975,1,8,0:0:0:0:
27,130,165128,2,0,P|26:192|64:266,1,132.00000402832,4|0,3:0|0:0,0:0:0:0:
104,316,165587,1,8,0:0:0:0:
255,270,165893,6,0,P|278:230|223:165,1,132.00000402832,4|8,3:0|0:0,0:0:0:0:
167,123,166352,2,0,P|144:83|199:18,1,132.00000402832,4|0,3:0|0:0,0:0:0:0:
254,64,166812,2,0,L|324:76,1,66.0000020141602,8|0,0:0|0:0,0:0:0:0:
354,146,167118,2,0,L|421:127,1,66.0000020141602,4|0,3:0|0:0,0:0:0:0:
497,110,167424,1,8,0:0:0:0:
497,110,167577,2,0,B|505:147|505:147|493:195|493:195|503:238,1,132.00000402832,4|0,3:0|0:0,0:0:0:0:
509,317,168036,1,8,0:0:0:0:
354,281,168342,6,0,P|346:249|347:217,1,66.0000020141602,4|0,3:0|0:0,0:0:0:0:
347,137,168648,2,0,L|296:96,1,66.0000020141602,8|4,0:0|3:0,0:0:0:0:
216,96,168954,2,0,L|165:137,1,66.0000020141602,2|0,0:0|0:0,0:0:0:0:
164,216,169260,2,0,P|165:249|158:281,1,66.0000020141602,8|0,0:0|0:0,0:0:0:0:
84,310,169567,5,4,3:0:0:0:
21,267,169720,1,0,0:0:0:0:
21,267,169873,2,0,P|19:234|27:202,1,66.0000020141602,8|4,0:0|3:0,0:0:0:0:
124,77,170332,1,0,0:0:0:0:
124,77,170485,2,0,P|126:44|118:12,1,66.0000020141602,8|0,0:0|0:0,0:0:0:0:
28,54,170791,5,4,1:0:0:0:
256,246,171250,5,4,1:0:0:0:
484,54,171709,5,4,1:0:0:0:
