osu file format v14

[General]
AudioFilename: audio.mp3
AudioLeadIn: 0
PreviewTime: 35485
Countdown: 0
SampleSet: Soft
StackLeniency: 0.5
Mode: 0
LetterboxInBreaks: 0
WidescreenStoryboard: 1

[Editor]
DistanceSpacing: 1.2
BeatDivisor: 4
GridSize: 4
TimelineZoom: 2

[Metadata]
Title:Labios
TitleUnicode:Labios
Artist:Jenny And The Mexicats
ArtistUnicode:Jenny And The Mexicats
Creator:ezek
Version:Otro de Nowa
Source:Amor de mis amores
Tags:love of my loves soundtrack ome latin MkGuh DTM9 Nowa fieryrage spanish espanol espaƱol
BeatmapID:1482002
BeatmapSetID:534813

[Difficulty]
HPDrainRate:6
CircleSize:4
OverallDifficulty:7.4
ApproachRate:9
SliderMultiplier:1.5
SliderTickRate:2

[Events]
//Background and Video events
0,0,"Amorts.jpg",0,0
Video,0,"Meow.avi"
//Break Periods
2,134256,140758
//Storyboard Layer 0 (Background)
//Storyboard Layer 1 (Fail)
//Storyboard Layer 2 (Pass)
//Storyboard Layer 3 (Foreground)
//Storyboard Sound Samples

[TimingPoints]
1812,306.122448979592,4,2,0,70,1,0
16505,-133.333333333333,4,2,0,50,0,0
33648,-133.333333333333,4,2,0,10,0,0
33954,-125,4,2,0,20,0,0
34260,-117.647058823529,4,2,0,30,0,0
34567,-111.111111111111,4,2,0,50,0,0
34873,-105.263157894737,4,2,0,60,0,0
35179,-100,4,2,0,70,0,0
35485,-100,4,2,0,80,0,0
35791,-90.9090909090909,4,2,0,90,0,0
36097,-80,4,2,0,90,0,1
43368,-80,4,2,0,90,0,1
55689,-100,4,2,0,80,0,0
75281,-133.333333333333,4,2,0,60,0,0
92424,-133.333333333333,4,2,0,10,0,0
92730,-125,4,2,0,20,0,0
93036,-117.647058823529,4,2,0,30,0,0
93342,-111.111111111111,4,2,0,40,0,0
93648,-105.263157894737,4,2,0,50,0,0
93954,-100,4,2,0,60,0,0
94260,-95.2380952380952,4,2,0,70,0,0
94567,-90.9090909090909,4,2,0,85,0,0
94873,-80,4,2,0,90,0,1
114158,-80,4,2,0,90,0,0
114465,-80,4,2,0,90,0,1
134056,-80,4,2,0,90,0,0
141403,-133.333333333333,4,2,0,10,0,0
141709,-125,4,2,0,20,0,0
142016,-117.647058823529,4,2,0,30,0,0
142322,-111.111111111111,4,2,0,40,0,0
142628,-105.263157894737,4,2,0,50,0,0
142934,-100,4,2,0,60,0,0
143240,-95.2380952380952,4,2,0,70,0,0
143546,-90.9090909090909,4,2,0,85,0,0
143852,-80,4,2,0,90,0,1
153342,-80,4,2,0,90,0,0
153648,-80,4,2,0,90,0,1
170638,-80,4,2,0,90,0,0
170791,-50,4,2,0,90,0,1
171863,-50,4,2,0,5,0,0

[Colours]
Combo1 : 150,232,77
Combo2 : 255,125,252
Combo3 : 109,227,252
Combo4 : 241,136,73

[HitObjects]
358,300,6709,6,0,P|352:248|360:208,1,75,4|0,0:0|0:0,0:0:0:0:
414,77,7016,1,8,0:0:0:0:
441,162,7169,1,0,0:0:0:0:
333,109,7322,2,0,L|255:113,1,75,2|0,0:0|0:0,0:0:0:0:
54,129,7628,1,8,0:0:0:0:
127,70,7781,6,0,P|141:105|146:146,1,75,0|2,0:0|0:0,0:0:0:0:
137,230,8087,1,0,0:0:0:0:
224,104,8240,1,8,0:0:0:0:
300,192,8393,2,0,P|366:158|440:161,1,150,0|0,3:0|0:0,0:0:0:0:
512,311,8852,2,0,P|516:272|501:225,1,75,8|0,0:0|0:0,0:0:0:0:
440,161,9158,6,0,P|431:124|435:87,1,75,2|0,0:0|0:0,0:0:0:0:
349,274,9465,1,8,0:0:0:0:
300,192,9618,1,0,3:0:0:0:
211,237,9771,2,0,L|130:229,1,75,2|0,0:0|0:0,0:0:0:0:
31,150,10077,2,0,L|105:142,1,75,8|0,0:0|0:0,0:0:0:0:
7,236,10383,5,2,0:0:0:0:
31,150,10536,1,0,0:0:0:0:
112,315,10689,1,8,0:0:0:0:
136,229,10842,1,0,0:0:0:0:
198,338,10995,2,0,L|279:330,1,75,2|0,0:0|0:0,0:0:0:0:
378,251,11301,2,0,L|303:243,1,75,8|0,0:0|0:0,0:0:0:0:
434,312,11607,6,0,P|459:267|454:220,1,75,2|0,0:0|0:0,0:0:0:0:
418,79,11914,1,8,0:0:0:0:
465,155,12067,1,0,0:0:0:0:
349,138,12220,2,0,L|254:124,1,75,2|0,0:0|0:0,0:0:0:0:
88,103,12526,1,8,0:0:0:0:
157,164,12679,6,0,P|173:130|179:93,1,75,0|2,0:0|0:0,0:0:0:0:
165,4,12985,1,0,0:0:0:0:
274,127,13138,1,8,0:0:0:0:
331,43,13291,2,0,L|487:25,1,150,0|0,3:0|0:0,0:0:0:0:
376,144,13750,2,0,P|377:182|385:219,1,75,8|0,0:0|0:0,0:0:0:0:
294,278,14056,6,0,P|293:240|285:203,1,75,2|0,0:0|0:0,0:0:0:0:
115,259,14363,1,8,0:0:0:0:
208,317,14516,2,0,P|205:240|183:169,1,150,0|0,3:0|0:0,0:0:0:0:
77,92,14975,2,0,P|121:94|165:85,1,75,8|0,0:0|0:0,0:0:0:0:
193,9,15281,6,0,P|155:6|118:11,1,75,2|0,0:0|0:0,0:0:0:0:
302,104,15587,1,8,0:0:0:0:
288,9,15740,1,8,0:0:0:0:
238,174,15893,1,2,0:0:0:0:
238,174,15970,1,0,0:0:0:0:
238,174,16046,2,0,L|230:225,1,37.5,0|0,3:0|0:0,0:0:0:0:
123,298,16199,2,0,L|118:260,1,37.5,0|0,3:0|0:0,0:0:0:0:
202,346,16352,2,0,L|196:383,1,37.5,0|0,3:0|0:0,0:0:0:0:
305,259,16505,5,4,0:0:0:0:
305,259,16812,2,0,L|384:251,1,56.2500021457673,0|0,0:0|0:0,0:0:0:0:
431,279,17118,2,0,P|400:215|446:138,1,168.750006437302,0|0,0:0|0:0,0:0:0:0:
344,48,17730,6,0,P|323:103|266:128,1,112.500004291535,2|0,0:0|0:0,0:0:0:0:
185,130,18189,2,0,L|2:109,1,168.750006437302,0|0,0:0|3:0,0:0:0:0:
3,222,18801,1,0,0:0:0:0:
134,225,18954,6,0,L|19:237,1,112.500004291535,2|0,0:0|0:0,0:0:0:0:
2,314,19414,2,0,P|35:310|61:312,1,56.2500021457673,0|2,0:0|0:0,0:0:0:0:
131,354,19720,2,0,P|159:355|186:351,1,56.2500021457673,0|0,0:0|3:0,0:0:0:0:
257,303,20026,2,0,L|234:113,1,168.750006437302,0|0,0:0|3:0,0:0:0:0:
257,303,20638,5,0,0:0:0:0:
341,218,20791,2,0,L|348:159,2,56.2500021457673,2|2|0,0:0|0:0|0:0,0:0:0:0:
377,338,21250,1,2,0:0:0:0:
480,250,21403,6,0,P|450:251|421:259,1,56.2500021457673,2|0,0:0|0:0,0:0:0:0:
341,218,21709,2,0,P|312:217|285:210,1,56.2500021457673,0|0,3:0|0:0,0:0:0:0:
200,134,22016,2,0,L|215:316,1,168.750006437302,2|0,0:0|0:0,0:0:0:0:
53,270,22628,1,0,3:0:0:0:
129,232,22781,2,0,L|134:295,1,56.2500021457673,0|2,0:0|0:0,0:0:0:0:
167,377,23087,2,0,P|241:328|317:338,1,168.750006437302,0|2,0:0|0:0,0:0:0:0:
380,377,23699,1,0,0:0:0:0:
473,300,23852,6,0,L|418:308,1,56.2500021457673,2|0,0:0|0:0,0:0:0:0:
457,207,24158,2,0,L|512:214,2,56.2500021457673,0|0|2,3:0|0:0|0:0,0:0:0:0:
386,135,24618,1,0,0:0:0:0:
386,135,24694,1,0,0:0:0:0:
386,135,24771,1,0,3:0:0:0:
310,197,24924,1,0,0:0:0:0:
255,125,25077,6,0,P|251:87|242:59,1,56.2500021457673,2|0,0:0|0:0,0:0:0:0:
150,186,25383,2,0,L|232:196,1,56.2500021457673,0|0,3:0|0:0,0:0:0:0:
55,130,25689,2,0,L|137:120,1,56.2500021457673,2|0,0:0|0:0,0:0:0:0:
12,249,25995,2,0,P|1:217|1:184,1,56.2500021457673,0|0,3:0|0:0,0:0:0:0:
113,312,26301,5,4,0:0:0:0:
113,312,26607,2,0,P|143:304|186:304,1,56.2500021457673,0|0,3:0|0:0,0:0:0:0:
248,362,26914,2,0,L|237:232,1,112.500004291535,2|0,0:0|3:0,0:0:0:0:
329,327,27373,1,0,0:0:0:0:
329,327,27526,6,0,L|338:214,1,112.500004291535,2|0,0:0|0:0,0:0:0:0:
385,127,27985,2,0,L|204:137,1,168.750006437302,0|0,0:0|3:0,0:0:0:0:
106,133,28597,1,0,0:0:0:0:
124,217,28750,6,0,L|113:337,1,112.500004291535,2|0,0:0|3:0,0:0:0:0:
176,376,29209,2,0,P|223:316|319:305,1,168.750006437302,0|0,0:0|3:0,0:0:0:0:
377,347,29822,1,0,0:0:0:0:
454,279,29975,5,2,0:0:0:0:
454,279,30128,2,0,L|462:354,1,56.2500021457673,0|0,0:0|3:0,0:0:0:0:
503,206,30434,1,0,0:0:0:0:
365,248,30587,2,0,L|295:235,2,56.2500021457673,2|0|0,0:0|0:0|0:0,0:0:0:0:
454,279,31046,1,0,0:0:0:0:
436,162,31199,6,0,P|431:119|432:97,1,56.2500021457673,2|0,0:0|0:0,0:0:0:0:
450,27,31505,1,0,3:0:0:0:
327,120,31658,2,0,P|250:146|143:134,1,168.750006437302,0|0,0:0|3:0,0:0:0:0:
3,91,32424,1,2,0:0:0:0:
48,182,32577,2,0,L|38:243,1,56.2500021457673,0|0,0:0|0:0,0:0:0:0:
80,313,32883,2,0,P|154:264|230:274,1,168.750006437302,0|0,0:0|3:0,0:0:0:0:
287,329,33495,1,0,0:0:0:0:
323,246,33648,6,0,P|325:221|316:178,1,56.2500021457673,4|4,3:0|3:0,0:0:0:0:
233,138,33954,2,0,P|231:167|236:197,1,60,4|4,3:0|3:0,0:0:0:0:
374,127,34260,6,0,L|292:115,1,63.7500012159348,4|4,3:0|3:0,0:0:0:0:
170,207,34567,2,0,L|236:197,1,67.4999979400635,4|4,3:0|3:0,0:0:0:0:
104,64,34873,6,0,P|88:105|84:154,1,71.2499980974198,4|4,3:0|3:0,0:0:0:0:
148,278,35179,2,0,P|162:243|169:206,1,75,4|4,3:0|3:0,0:0:0:0:
0,215,35485,5,4,3:0:0:0:
78,347,35638,1,4,3:0:0:0:
92,155,35791,1,4,3:0:0:0:
84,360,35944,1,4,3:0:0:0:
240,221,36097,6,0,P|290:211|355:220,1,93.75,4|0,0:0|0:0,0:0:0:0:
512,86,36403,2,0,P|462:96|397:87,1,93.75,8|4,0:0|3:0,0:0:0:0:
310,38,36709,2,0,L|322:130,1,93.75,0|2,0:0|0:0,0:0:0:0:
362,322,37016,1,8,0:0:0:0:
260,271,37169,6,0,P|290:235|331:213,1,93.75,0|4,0:0|3:0,0:0:0:0:
276,370,37475,1,0,0:0:0:0:
188,192,37628,1,8,0:0:0:0:
74,288,37781,2,0,L|260:270,1,187.5,4|0,3:0|0:0,0:0:0:0:
495,248,38240,2,0,L|401:256,1,93.75,8|0,0:0|0:0,0:0:0:0:
301,188,38546,6,0,P|324:141|326:90,1,93.75,4|0,3:0|0:0,0:0:0:0:
150,96,38852,1,8,0:0:0:0:
240,126,39005,1,4,3:0:0:0:
89,34,39158,2,0,P|66:81|64:132,1,93.75,2|0,0:0|0:0,0:0:0:0:
117,303,39465,1,8,0:0:0:0:
173,220,39618,6,0,P|84:210|20:274,1,187.5,0|0,0:0|0:0,0:0:0:0:
225,364,40077,1,8,0:0:0:0:
334,291,40230,2,0,P|384:280|449:276,1,93.75,4|2,3:0|0:0,0:0:0:0:
225,364,40536,1,0,0:0:0:0:
272,165,40689,2,0,L|250:256,1,93.75,8|0,0:0|0:0,0:0:0:0:
207,86,40995,6,0,P|250:68|297:66,1,93.75,4|0,3:0|0:0,0:0:0:0:
153,223,41301,1,8,0:0:0:0:
108,127,41454,1,4,3:0:0:0:
272,165,41607,2,0,L|381:152,1,93.75,2|0,0:0|0:0,0:0:0:0:
482,11,41914,1,8,0:0:0:0:
449,117,42067,6,0,P|445:159|464:234,1,93.75,0|4,0:0|3:0,0:0:0:0:
503,305,42373,1,0,0:0:0:0:
309,289,42526,1,8,0:0:0:0:
386,239,42679,2,0,P|393:324|301:382,1,187.5,4|0,3:0|0:0,0:0:0:0:
135,354,43138,2,0,P|181:340|231:337,1,93.75,8|0,0:0|0:0,0:0:0:0:
386,239,43444,6,0,P|340:235|295:221,1,93.75,4|0,3:0|0:0,0:0:0:0:
174,154,43750,1,8,0:0:0:0:
376,78,43903,2,0,P|336:108|272:134,1,93.75,4|0,3:0|0:0,0:0:0:0:
174,154,44209,1,0,0:0:0:0:
169,349,44363,2,0,P|160:302|157:256,1,93.75,8|0,0:0|0:0,0:0:0:0:
268,344,44669,5,4,3:0:0:0:
268,344,44822,1,0,0:0:0:0:
73,296,44975,1,8,0:0:0:0:
237,226,45128,1,0,3:0:0:0:
169,349,45281,5,2,0:0:0:0:
141,173,45434,1,0,0:0:0:0:
180,364,45587,1,8,0:0:0:0:
130,158,45740,1,0,0:0:0:0:
73,296,45893,6,0,P|119:274|171:266,1,93.75,4|0,0:0|0:0,0:0:0:0:
339,315,46199,1,8,0:0:0:0:
237,341,46352,1,4,3:0:0:0:
277,158,46505,2,0,P|275:210|266:256,1,93.75,0|2,0:0|0:0,0:0:0:0:
216,70,46812,1,8,0:0:0:0:
390,69,46965,6,0,L|297:80,1,93.75,0|4,0:0|3:0,0:0:0:0:
141,105,47271,1,0,0:0:0:0:
320,0,47424,1,8,0:0:0:0:
390,69,47577,2,0,P|415:159|418:265,1,187.5,0|0,3:0|0:0,0:0:0:0:
237,341,48036,2,0,P|224:296|223:243,1,93.75,8|0,0:0|0:0,0:0:0:0:
288,151,48342,6,0,P|300:196|302:249,1,93.75,4|0,3:0|0:0,0:0:0:0:
131,101,48648,1,8,0:0:0:0:
233,81,48801,1,4,3:0:0:0:
108,199,48954,2,0,L|2:185,1,93.75,2|0,0:0|0:0,0:0:0:0:
233,81,49260,1,8,0:0:0:0:
226,258,49414,2,0,P|204:193|240:71,1,187.5,0|0,0:0|0:0,0:0:0:0:
387,12,49873,1,8,0:0:0:0:
441,99,50026,2,0,P|444:138|434:196,1,93.75,4|2,3:0|0:0,0:0:0:0:
388,283,50332,1,0,0:0:0:0:
312,113,50485,2,0,P|309:159|317:205,1,93.75,8|0,0:0|0:0,0:0:0:0:
226,334,50791,6,0,P|228:287|220:241,1,93.75,4|0,3:0|0:0,0:0:0:0:
20,259,51097,1,8,0:0:0:0:
111,302,51250,1,4,3:0:0:0:
138,179,51403,2,0,L|156:76,1,93.75,0|0,0:0|0:0,0:0:0:0:
233,257,51709,1,8,0:0:0:0:
320,191,51863,6,0,P|367:207|428:206,1,93.75,0|4,0:0|3:0,0:0:0:0:
495,176,52169,1,0,0:0:0:0:
368,346,52322,1,8,0:0:0:0:
320,190,52475,2,0,P|289:226|250:251,1,93.75,4|0,3:0|0:0,0:0:0:0:
205,120,52781,1,0,0:0:0:0:
404,172,52934,2,0,P|394:221|362:273,1,93.75,8|0,0:0|0:0,0:0:0:0:
143,219,53240,6,0,P|91:140|-5:145,1,187.5,4|8,0:0|0:0,0:0:0:0:
19,300,53699,2,0,P|48:260|51:200,1,93.75,4|0,3:0|0:0,0:0:0:0:
152,302,54005,1,0,0:0:0:0:
228,152,54158,2,0,P|253:190|294:212,1,93.75,8|0,0:0|0:0,0:0:0:0:
405,190,54465,6,0,P|375:275|372:390,1,187.5,4|8,3:0|0:0,0:0:0:0:
257,364,54924,2,0,P|248:303|233:272,1,93.75,4|0,3:0|3:0,0:0:0:0:
155,187,55230,1,0,3:0:0:0:
70,363,55383,2,0,P|106:313|118:280,1,93.75,8|0,0:0|0:0,0:0:0:0:
234,274,55689,6,0,P|252:311|281:337,1,75,4|0,0:0|0:0,0:0:0:0:
325,174,55995,2,0,L|312:263,1,75,8|0,0:0|0:0,0:0:0:0:
408,109,56301,2,0,L|418:183,1,75,2|0,0:0|0:0,0:0:0:0:
444,347,56607,1,8,0:0:0:0:
350,322,56760,6,0,L|263:336,1,75,0|2,0:0|0:0,0:0:0:0:
194,373,57067,1,0,0:0:0:0:
144,204,57220,1,8,0:0:0:0:
21,272,57374,2,0,P|58:282|95:283,1,75,0|0,3:0|0:0,0:0:0:0:
205,260,57679,1,0,0:0:0:0:
77,105,57832,2,0,L|64:180,1,75,8|0,0:0|0:0,0:0:0:0:
165,115,58138,6,0,L|152:40,1,75,2|0,0:0|0:0,0:0:0:0:
264,197,58444,1,8,0:0:0:0:
339,136,58597,1,0,3:0:0:0:
339,136,58750,2,0,P|375:126|417:128,1,75,2|0,0:0|0:0,0:0:0:0:
273,288,59056,1,8,0:0:0:0:
190,188,59209,6,0,P|227:187|263:196,1,75,0|2,0:0|0:0,0:0:0:0:
356,252,59516,1,0,0:0:0:0:
260,110,59669,1,8,0:0:0:0:
190,188,59822,1,0,3:0:0:0:
98,137,59975,2,0,P|87:102|84:59,1,75,2|0,0:0|0:0,0:0:0:0:
274,36,60281,2,0,P|270:73|259:109,1,75,8|0,0:0|0:0,0:0:0:0:
175,261,60587,6,0,P|178:223|189:187,1,75,2|0,0:0|0:0,0:0:0:0:
367,260,60893,1,8,0:0:0:0:
272,319,61046,1,0,0:0:0:0:
359,175,61199,2,0,P|403:183|434:205,1,75,2|0,0:0|0:0,0:0:0:0:
175,261,61505,1,8,0:0:0:0:
248,138,61658,6,0,P|265:172|274:216,1,75,0|2,0:0|0:0,0:0:0:0:
158,114,61965,1,0,0:0:0:0:
328,76,62118,1,8,0:0:0:0:
173,208,62271,2,0,L|11:191,1,150,0|0,3:0|0:0,0:0:0:0:
7,54,62730,2,0,L|81:46,1,75,8|0,0:0|0:0,0:0:0:0:
208,89,63036,6,0,L|200:134,3,37.5,2|0|0|0,0:0|0:0|0:0|0:0,0:0:0:0:
173,208,63342,2,0,L|160:133,1,75,8|0,0:0|3:0,0:0:0:0:
253,291,63648,2,0,L|240:366,1,75,2|0,0:0|0:0,0:0:0:0:
323,145,63954,1,8,0:0:0:0:
419,174,64107,6,0,L|499:170,1,75,0|2,0:0|0:0,0:0:0:0:
345,246,64414,1,0,0:0:0:0:
264,63,64567,1,8,0:0:0:0:
218,149,64720,1,0,3:0:0:0:
111,62,64873,2,0,P|153:65|186:77,1,75,2|0,0:0|0:0,0:0:0:0:
0,190,65179,2,0,P|3:148|15:115,1,75,8|0,0:0|0:0,0:0:0:0:
103,236,65485,6,0,P|100:273|89:308,1,75,4|0,0:0|0:0,0:0:0:0:
218,149,65791,1,8,0:0:0:0:
304,194,65944,1,0,0:0:0:0:
392,153,66097,2,0,P|407:111|406:56,1,75,2|0,0:0|0:0,0:0:0:0:
476,284,66403,1,8,0:0:0:0:
390,239,66556,6,0,P|316:224|228:232,1,150,0|0,0:0|0:0,0:0:0:0:
57,289,67016,1,8,0:0:0:0:
163,333,67169,2,0,P|150:259|117:192,1,150,0|0,0:0|0:0,0:0:0:0:
114,25,67628,2,0,P|135:63|158:85,1,75,8|0,0:0|0:0,0:0:0:0:
270,147,67934,6,0,P|340:117|429:120,1,150,2|8,0:0|0:0,0:0:0:0:
506,148,68393,1,0,3:0:0:0:
434,276,68546,2,0,P|427:239|434:198,1,75,2|0,0:0|0:0,0:0:0:0:
412,42,68852,2,0,P|418:78|411:119,2,75,8|0|2,0:0|0:0|0:0,0:0:0:0:
318,76,69312,5,0,0:0:0:0:
149,25,69465,1,8,0:0:0:0:
246,12,69618,1,0,3:0:0:0:
209,102,69771,2,0,P|198:139|194:182,1,75,2|0,0:0|0:0,0:0:0:0:
151,320,70077,2,0,P|146:282|136:246,1,75,8|0,0:0|0:0,0:0:0:0:
42,157,70383,6,0,P|81:169|127:171,1,75,2|0,0:0|0:0,0:0:0:0:
300,154,70689,1,8,0:0:0:0:
209,102,70842,1,0,0:0:0:0:
241,219,70995,2,0,P|248:256|250:298,1,75,2|0,0:0|0:0,0:0:0:0:
57,332,71301,1,8,0:0:0:0:
139,248,71454,6,0,P|155:281|168:321,1,75,0|2,0:0|0:0,0:0:0:0:
229,372,71760,1,0,0:0:0:0:
320,194,71914,1,8,0:0:0:0:
399,262,72067,2,0,P|415:194|446:111,1,150,0|0,0:0|0:0,0:0:0:0:
293,3,72526,2,0,P|284:48|269:87,1,75,8|0,0:0|0:0,0:0:0:0:
170,92,72832,6,0,L|19:73,1,150,2|8,0:0|0:0,0:0:0:0:
72,164,73291,2,0,L|220:182,1,150,0|0,3:0|0:0,0:0:0:0:
321,212,73750,2,0,P|281:234|255:264,1,75,8|0,0:0|0:0,0:0:0:0:
181,324,74056,6,0,P|180:278|168:240,1,75,0|0,3:0|3:0,0:0:0:0:
15,265,74363,1,8,0:0:0:0:
15,265,74516,2,0,P|54:287|93:296,1,75,8|2,0:0|0:0,0:0:0:0:
172,250,74822,1,0,0:0:0:0:
28,109,74975,2,0,P|28:154|40:192,1,75,2|0,3:0|0:0,0:0:0:0:
146,30,75281,5,4,0:0:0:0:
172,250,75587,1,0,3:0:0:0:
211,90,75893,2,0,P|293:99|369:64,1,168.750006437302,2|0,0:0|0:0,0:0:0:0:
448,16,76505,6,0,L|438:139,1,112.500004291535,2|0,0:0|0:0,0:0:0:0:
461,218,76965,2,0,P|382:197|302:233,1,168.750006437302,0|0,0:0|3:0,0:0:0:0:
259,294,77577,1,0,0:0:0:0:
166,242,77730,6,0,P|182:295|190:351,1,112.500004291535,2|0,0:0|3:0,0:0:0:0:
77,282,78189,2,0,P|89:195|115:111,1,168.750006437302,0|0,0:0|3:0,0:0:0:0:
172,56,78801,2,0,B|215:70|255:57|255:57|297:45|341:64,1,168.750006437302,0|0,0:0|3:0,0:0:0:0:
418,201,79414,5,2,0:0:0:0:
440,96,79567,2,0,L|450:37,2,56.2500021457673,0|2|0,0:0|0:0|0:0,0:0:0:0:
422,214,80026,1,0,0:0:0:0:
335,172,80179,6,0,P|294:165|261:164,1,56.2500021457673,2|0,0:0|0:0,0:0:0:0:
183,227,80485,2,0,P|224:234|257:235,1,56.2500021457673,0|0,3:0|0:0,0:0:0:0:
103,167,80791,2,0,L|82:357,1,168.750006437302,2|0,0:0|0:0,0:0:0:0:
183,227,81403,6,0,L|195:339,1,112.500004291535,2|0,0:0|0:0,0:0:0:0:
288,379,81863,2,0,P|335:329|440:341,1,168.750006437302,0|0,0:0|3:0,0:0:0:0:
502,363,82475,1,0,0:0:0:0:
495,284,82628,6,0,P|491:255|497:217,1,56.2500021457673,2|0,0:0|0:0,0:0:0:0:
419,150,82934,2,0,P|423:179|417:217,1,56.2500021457673,0|0,3:0|0:0,0:0:0:0:
506,104,83241,1,2,0:0:0:0:
356,69,83394,1,0,0:0:0:0:
508,116,83547,1,0,3:0:0:0:
352,58,83699,1,0,0:0:0:0:
480,21,83852,5,0,3:0:0:0:
340,152,84005,1,0,3:0:0:0:
340,152,84081,1,0,3:0:0:0:
340,152,84158,1,0,3:0:0:0:
506,104,84312,2,0,L|438:88,1,56.2500021457673,0|2,0:0|0:0,0:0:0:0:
301,56,84618,1,0,0:0:0:0:
301,56,84771,2,0,L|369:72,1,56.2500021457673,0|0,3:0|0:0,0:0:0:0:
198,161,85077,5,4,0:0:0:0:
104,26,85383,2,0,P|97:52|93:92,1,56.2500021457673,0|0,3:0|0:0,0:0:0:0:
77,183,85689,2,0,P|74:117|58:54,1,112.500004291535,2|0,0:0|0:0,0:0:0:0:
0,132,86148,1,0,0:0:0:0:
152,162,86301,6,0,L|269:149,1,112.500004291535,2|0,0:0|0:0,0:0:0:0:
388,133,86760,2,0,L|367:251,1,112.500004291535,0|0,0:0|0:0,0:0:0:0:
307,86,87220,1,0,3:0:0:0:
388,133,87373,1,0,0:0:0:0:
470,50,87526,6,0,L|491:168,1,112.500004291535,2|0,0:0|0:0,0:0:0:0:
464,275,87985,2,0,P|396:230|295:244,1,168.750006437302,0|0,0:0|3:0,0:0:0:0:
238,277,88597,1,0,0:0:0:0:
229,156,88750,6,0,L|245:276,1,112.500004291535,2|0,0:0|3:0,0:0:0:0:
139,142,89209,1,2,0:0:0:0:
126,243,89363,2,0,L|117:303,2,56.2500021457673,0|2|0,0:0|0:0|0:0,0:0:0:0:
149,133,89822,1,0,0:0:0:0:
251,187,89975,6,0,P|282:188|310:182,1,56.2500021457673,2|0,0:0|0:0,0:0:0:0:
380,126,90281,1,0,3:0:0:0:
272,98,90434,2,0,L|288:272,1,168.750006437302,0|0,0:0|3:0,0:0:0:0:
122,350,91199,5,2,0:0:0:0:
122,350,91352,2,0,P|93:342|58:341,1,56.2500021457673,0|0,0:0|0:0,0:0:0:0:
136,253,91658,2,0,P|209:269|314:259,1,168.750006437302,0|0,0:0|3:0,0:0:0:0:
400,228,92271,1,0,0:0:0:0:
412,340,92424,6,0,P|381:341|355:334,1,56.2500021457673,4|4,3:0|3:0,0:0:0:0:
400,228,92730,2,0,P|434:226|461:233,1,60,4|4,3:0|3:0,0:0:0:0:
303,263,93036,6,0,L|294:193,1,63.7500012159348,4|4,3:0|3:0,0:0:0:0:
375,77,93342,2,0,L|366:147,1,67.4999979400635,4|4,3:0|3:0,0:0:0:0:
204,214,93648,6,0,P|210:168|221:135,1,71.2499980974198,4|4,3:0|3:0,0:0:0:0:
403,249,93954,2,0,P|397:295|386:328,1,75,4|4,3:0|3:0,0:0:0:0:
299,107,94260,5,4,3:0:0:0:
460,164,94414,1,4,3:0:0:0:
281,203,94567,1,4,3:0:0:0:
464,168,94720,1,4,3:0:0:0:
322,374,94873,6,0,P|306:324|304:275,1,93.75,4|0,0:0|0:0,0:0:0:0:
218,83,95179,2,0,P|214:129|199:173,1,93.75,8|4,0:0|3:0,0:0:0:0:
43,316,95485,2,0,L|134:304,1,93.75,2|0,0:0|0:0,0:0:0:0:
298,283,95792,1,8,0:0:0:0:
97,191,95944,6,0,L|189:203,1,93.75,0|4,0:0|3:0,0:0:0:0:
375,230,96251,1,0,0:0:0:0:
221,337,96404,1,8,0:0:0:0:
250,102,96557,2,0,P|283:201|299:296,1,187.5,4|0,3:0|0:0,0:0:0:0:
128,372,97016,2,0,P|134:320|149:269,1,93.75,8|0,0:0|0:0,0:0:0:0:
383,364,97322,6,0,L|281:372,1,93.75,4|0,3:0|0:0,0:0:0:0:
491,252,97628,1,8,0:0:0:0:
375,230,97781,1,4,3:0:0:0:
512,130,97934,2,0,L|410:138,1,93.75,2|0,0:0|0:0,0:0:0:0:
212,151,98241,1,8,0:0:0:0:
276,72,98394,6,0,P|313:153|270:234,1,187.5,0|0,0:0|0:0,0:0:0:0:
130,316,98853,1,8,0:0:0:0:
271,234,99005,2,0,P|318:219|373:212,1,93.75,4|2,3:0|0:0,0:0:0:0:
238,375,99312,1,0,0:0:0:0:
116,230,99465,2,0,P|160:246|201:270,1,93.75,8|0,0:0|0:0,0:0:0:0:
7,367,99771,6,0,L|16:258,1,93.75,4|0,3:0|0:0,0:0:0:0:
97,121,100077,1,8,0:0:0:0:
116,230,100230,1,4,3:0:0:0:
16,93,100383,2,0,L|25:-16,1,93.75,2|0,0:0|0:0,0:0:0:0:
157,166,100689,1,8,0:0:0:0:
325,60,100843,6,0,L|232:72,1,93.75,0|4,0:0|3:0,0:0:0:0:
411,175,101149,1,0,0:0:0:0:
384,0,101302,1,8,0:0:0:0:
297,160,101455,2,0,P|277:258|274:355,1,187.5,4|0,3:0|0:0,0:0:0:0:
443,381,101914,2,0,P|440:334|431:288,1,93.75,8|0,0:0|0:0,0:0:0:0:
273,345,102220,6,0,P|318:350|365:346,1,93.75,4|0,3:0|0:0,0:0:0:0:
512,305,102526,1,8,0:0:0:0:
316,189,102679,2,0,P|348:226|406:265,1,93.75,4|0,3:0|0:0,0:0:0:0:
512,305,102985,1,0,0:0:0:0:
478,67,103138,2,0,L|493:167,1,93.75,8|0,0:0|0:0,0:0:0:0:
301,99,103445,5,4,3:0:0:0:
301,99,103598,1,0,0:0:0:0:
410,36,103751,1,8,0:0:0:0:
316,189,103904,1,4,3:0:0:0:
219,49,104057,5,2,0:0:0:0:
260,242,104210,1,0,0:0:0:0:
231,36,104363,1,8,0:0:0:0:
249,255,104516,1,0,0:0:0:0:
395,105,104669,6,0,L|296:98,1,93.75,4|0,0:0|0:0,0:0:0:0:
76,140,104975,1,8,0:0:0:0:
207,185,105128,1,4,3:0:0:0:
69,46,105281,2,0,P|71:101|77:150,1,93.75,0|2,0:0|0:0,0:0:0:0:
131,309,105588,1,8,0:0:0:0:
313,274,105741,6,0,P|264:256|204:261,1,93.75,0|4,0:0|3:0,0:0:0:0:
413,358,106047,1,0,0:0:0:0:
343,171,106200,1,8,0:0:0:0:
222,256,106353,2,0,P|295:274|409:267,1,187.5,4|0,3:0|0:0,0:0:0:0:
494,150,106812,2,0,P|497:103|484:53,1,93.75,8|0,0:0|0:0,0:0:0:0:
406,267,107118,6,0,P|403:314|416:364,1,93.75,4|0,3:0|0:0,0:0:0:0:
278,136,107424,1,8,0:0:0:0:
222,256,107577,1,4,3:0:0:0:
97,158,107730,2,0,P|147:155|189:171,1,93.75,2|0,0:0|0:0,0:0:0:0:
30,298,108036,1,8,0:0:0:0:
10,112,108190,6,0,L|30:298,1,187.5,0|0,0:0|0:0,0:0:0:0:
98,53,108649,1,8,0:0:0:0:
204,104,108802,2,0,P|251:106|304:96,1,93.75,4|2,3:0|0:0,0:0:0:0:
397,52,109108,1,0,0:0:0:0:
337,239,109260,2,0,P|341:192|355:147,1,93.75,8|0,0:0|0:0,0:0:0:0:
480,331,109567,6,0,P|433:327|388:312,1,93.75,4|0,3:0|0:0,0:0:0:0:
232,204,109873,1,8,0:0:0:0:
181,384,110026,1,4,3:0:0:0:
40,279,110179,2,0,L|138:265,1,93.75,0|0,0:0|0:0,0:0:0:0:
337,239,110485,1,8,0:0:0:0:
147,104,110638,6,0,P|143:151|156:195,1,93.75,0|4,0:0|3:0,0:0:0:0:
208,12,110945,1,0,0:0:0:0:
7,82,111098,1,8,0:0:0:0:
147,104,111250,2,0,L|244:121,1,93.75,4|0,3:0|0:0,0:0:0:0:
53,159,111556,1,0,0:0:0:0:
239,120,111709,2,0,L|336:103,1,93.75,8|0,0:0|0:0,0:0:0:0:
503,80,112016,6,0,P|440:150|460:240,1,187.5,4|8,0:0|0:0,0:0:0:0:
351,374,112475,2,0,P|363:326|345:269,1,93.75,4|0,3:0|0:0,0:0:0:0:
289,198,112781,1,0,0:0:0:0:
183,323,112934,2,0,P|227:335|273:325,1,93.75,8|0,0:0|0:0,0:0:0:0:
99,183,113241,6,0,L|80:369,1,187.5,4|8,3:0|0:0,0:0:0:0:
197,186,113699,2,0,L|187:93,1,93.75,4|0,3:0|3:0,0:0:0:0:
11,229,114005,1,0,3:0:0:0:
289,198,114159,2,0,P|245:187|196:185,1,93.75,8|0,0:0|0:0,0:0:0:0:
353,308,114465,5,4,0:0:0:0:
411,179,114618,1,0,0:0:0:0:
260,295,114771,2,0,L|351:307,1,93.75,8|4,0:0|3:0,0:0:0:0:
196,210,115077,2,0,L|287:197,1,93.75,2|0,0:0|0:0,0:0:0:0:
90,326,115383,1,8,0:0:0:0:
71,189,115536,1,0,0:0:0:0:
165,371,115689,5,4,3:0:0:0:
196,210,115842,1,0,0:0:0:0:
353,308,115995,1,8,0:0:0:0:
353,308,116148,2,0,P|308:320|258:319,1,93.75,4|2,3:0|0:0,0:0:0:0:
424,167,116454,1,0,0:0:0:0:
424,167,116607,2,0,L|418:262,1,93.75,8|0,0:0|0:0,0:0:0:0:
347,101,116914,5,4,3:0:0:0:
347,101,117067,2,0,P|386:69|433:62,1,93.75,0|8,0:0|0:0,0:0:0:0:
241,112,117373,5,0,0:0:0:0:
241,112,117526,2,0,P|245:61|274:23,1,93.75,0|0,3:0|3:0,0:0:0:0:
174,194,117832,5,8,0:0:0:0:
174,194,117985,2,0,P|142:155|134:108,1,93.75,0|4,0:0|3:0,0:0:0:0:
184,299,118291,5,0,0:0:0:0:
184,299,118444,2,0,P|133:294|95:265,1,93.75,8|4,0:0|3:0,0:0:0:0:
297,248,118750,5,2,0:0:0:0:
297,248,118903,1,0,0:0:0:0:
297,248,119056,2,0,L|283:357,1,93.75,8|0,0:0|0:0,0:0:0:0:
392,167,119363,5,4,0:0:0:0:
374,47,119516,1,0,0:0:0:0:
219,132,119669,2,0,L|312:119,1,93.75,8|4,0:0|3:0,0:0:0:0:
115,34,119975,2,0,L|207:47,1,93.75,2|0,0:0|0:0,0:0:0:0:
50,147,120281,1,8,0:0:0:0:
36,3,120434,1,0,0:0:0:0:
131,193,120587,5,4,3:0:0:0:
161,41,120740,1,0,0:0:0:0:
312,119,120893,1,8,0:0:0:0:
312,119,121046,2,0,P|268:131|219:132,1,93.75,4|2,3:0|0:0,0:0:0:0:
399,27,121352,1,0,0:0:0:0:
399,27,121505,2,0,P|443:15|491:13,1,93.75,8|0,0:0|0:0,0:0:0:0:
409,203,121812,5,4,3:0:0:0:
409,203,121965,2,0,L|396:101,1,93.75,0|8,0:0|0:0,0:0:0:0:
501,277,122271,5,4,3:0:0:0:
501,277,122424,2,0,L|514:175,1,93.75,2|0,0:0|0:0,0:0:0:0:
332,242,122730,5,8,0:0:0:0:
332,242,122883,2,0,P|360:275|419:290,1,93.75,0|4,0:0|3:0,0:0:0:0:
320,93,123189,5,0,0:0:0:0:
320,93,123342,2,0,P|287:121|272:179,1,93.75,8|4,0:0|3:0,0:0:0:0:
296,322,123648,5,2,0:0:0:0:
356,164,123801,1,0,0:0:0:0:
228,255,123954,1,8,0:0:0:0:
356,164,124107,1,0,0:0:0:0:
204,347,124260,5,4,0:0:0:0:
149,224,124414,1,0,0:0:0:0:
36,318,124567,2,0,L|134:327,1,93.75,8|0,0:0|3:0,0:0:0:0:
242,216,124873,2,0,L|148:224,1,93.75,0|2,0:0|0:0,0:0:0:0:
293,345,125179,1,8,0:0:0:0:
330,176,125332,1,0,0:0:0:0:
407,287,125485,5,4,3:0:0:0:
375,107,125638,1,0,0:0:0:0:
496,216,125791,1,8,0:0:0:0:
496,216,125944,2,0,L|507:118,1,93.75,4|0,3:0|0:0,0:0:0:0:
364,13,126250,1,0,0:0:0:0:
364,13,126403,2,0,L|375:111,1,93.75,8|0,0:0|0:0,0:0:0:0:
293,239,126709,6,0,P|279:189|246:143,1,93.75,4|0,3:0|0:0,0:0:0:0:
139,319,127016,1,8,0:0:0:0:
139,319,127169,2,0,P|189:331|245:326,1,93.75,4|2,3:0|0:0,0:0:0:0:
356,291,127475,5,0,0:0:0:0:
198,238,127628,1,8,0:0:0:0:
313,362,127781,1,0,0:0:0:0:
363,201,127934,1,4,3:0:0:0:
363,201,128087,2,0,L|463:186,2,93.75,0|8|4,0:0|0:0|3:0,0:0:0:0:
198,238,128546,1,2,0:0:0:0:
198,238,128699,2,0,L|98:223,2,93.75,0|8|0,0:0|0:0|0:0,0:0:0:0:
356,291,129158,5,4,0:0:0:0:
243,315,129312,1,0,0:0:0:0:
271,149,129465,2,0,L|286:249,1,93.75,8|0,0:0|0:0,0:0:0:0:
343,384,129771,2,0,L|358:284,1,93.75,2|0,0:0|0:0,0:0:0:0:
402,131,130077,1,8,0:0:0:0:
436,263,130230,1,0,0:0:0:0:
335,90,130384,5,0,0:0:0:0:
284,241,130537,1,0,0:0:0:0:
240,66,130689,1,8,0:0:0:0:
240,66,130842,2,0,L|266:163,1,93.75,4|2,3:0|0:0,0:0:0:0:
132,251,131148,1,0,0:0:0:0:
132,251,131301,2,0,P|151:204|195:175,1,93.75,8|0,0:0|0:0,0:0:0:0:
246,337,131607,6,0,P|195:343|148:319,1,93.75,4|0,3:0|0:0,0:0:0:0:
28,230,131914,2,0,L|45:335,1,93.75,8|4,0:0|3:0,0:0:0:0:
142,157,132220,1,2,0:0:0:0:
142,157,132373,2,0,L|130:262,1,93.75,0|8,0:0|0:0,0:0:0:0:
8,113,132679,1,0,0:0:0:0:
127,46,132832,5,0,3:0:0:0:
156,44,132908,1,0,3:0:0:0:
184,51,132985,1,0,3:0:0:0:
209,67,133061,1,0,3:0:0:0:
227,89,133138,2,0,L|241:182,1,93.75,8|0,2:0|3:0,0:0:0:0:
258,329,133444,5,0,3:0:0:0:
268,302,133520,1,0,3:0:0:0:
286,279,133597,1,0,3:0:0:0:
312,263,133673,1,0,3:0:0:0:
339,256,133750,2,0,L|440:269,1,93.75,8|0,0:0|3:0,0:0:0:0:
174,313,134056,5,4,0:0:0:0:
247,317,141403,6,0,L|189:309,1,56.2500021457673,4|4,3:0|3:0,0:0:0:0:
130,239,141709,2,0,L|189:230,1,60,4|4,3:0|3:0,0:0:0:0:
54,295,142016,6,0,P|37:265|33:231,1,63.7500012159348,4|4,3:0|3:0,0:0:0:0:
191,309,142322,2,0,P|183:344|166:375,1,67.4999979400635,4|4,3:0|3:0,0:0:0:0:
120,160,142628,6,0,P|157:146|196:146,1,71.2499980974198,4|4,3:0|3:0,0:0:0:0:
362,252,142934,2,0,P|323:250|288:238,1,75,4|4,3:0|3:0,0:0:0:0:
484,141,143240,5,4,3:0:0:0:
493,317,143393,1,4,3:0:0:0:
463,132,143546,1,4,3:0:0:0:
512,328,143699,1,4,3:0:0:0:
348,177,143852,6,0,P|302:165|249:170,1,93.75,4|0,0:0|0:0,0:0:0:0:
72,242,144158,1,8,0:0:0:0:
191,276,144311,1,4,3:0:0:0:
141,103,144465,2,0,P|142:150|149:196,1,93.75,2|0,0:0|0:0,0:0:0:0:
214,359,144771,1,8,0:0:0:0:
366,292,144924,6,0,P|319:289|273:297,1,93.75,0|4,0:0|3:0,0:0:0:0:
84,362,145230,1,0,0:0:0:0:
191,276,145383,1,8,0:0:0:0:
4,261,145536,2,0,L|197:276,1,187.5,4|0,3:0|0:0,0:0:0:0:
335,154,145995,2,0,L|238:161,1,93.75,8|0,0:0|0:0,0:0:0:0:
89,279,146301,6,0,L|182:286,1,93.75,4|0,3:0|0:0,0:0:0:0:
358,370,146607,1,8,0:0:0:0:
448,264,146760,1,4,3:0:0:0:
335,154,146913,2,0,L|348:255,1,93.75,2|0,0:0|0:0,0:0:0:0:
258,28,147219,1,8,0:0:0:0:
157,136,147373,6,0,P|259:170|344:149,1,187.5,0|0,0:0|0:0,0:0:0:0:
457,41,147832,1,8,0:0:0:0:
409,189,147985,2,0,P|410:236|423:288,1,93.75,4|2,3:0|0:0,0:0:0:0:
473,378,148291,1,0,0:0:0:0:
283,330,148443,2,0,P|330:330|376:341,1,93.75,0|0,0:0|0:0,0:0:0:0:
171,377,148750,6,0,P|124:373|79:358,1,93.75,4|0,3:0|0:0,0:0:0:0:
6,182,149056,1,8,0:0:0:0:
22,274,149209,1,4,3:0:0:0:
85,143,149362,2,0,P|96:95|98:49,1,93.75,2|0,0:0|0:0,0:0:0:0:
158,249,149668,1,8,0:0:0:0:
325,172,149822,6,0,P|285:161|227:165,1,93.75,0|4,0:0|3:0,0:0:0:0:
334,266,150128,1,0,0:0:0:0:
406,78,150281,1,8,0:0:0:0:
503,201,150434,2,0,P|463:212|405:208,1,93.75,4|0,3:0|0:0,0:0:0:0:
233,163,150740,1,0,0:0:0:0:
233,163,150893,2,0,P|279:160|325:172,1,93.75,8|0,0:0|0:0,0:0:0:0:
433,326,151199,6,0,L|450:125,1,187.5,4|8,3:0|0:0,0:0:0:0:
334,266,151658,2,0,L|325:165,1,93.75,4|2,3:0|0:0,0:0:0:0:
230,338,151964,1,0,0:0:0:0:
230,338,152118,2,0,L|238:237,1,93.75,8|0,0:0|0:0,0:0:0:0:
101,130,152424,5,0,3:0:0:0:
103,153,152500,1,0,3:0:0:0:
105,176,152577,1,0,3:0:0:0:
107,200,152653,1,0,3:0:0:0:
109,223,152730,1,8,0:0:0:0:
210,63,152883,2,0,L|201:156,1,93.75,4|2,3:0|0:0,0:0:0:0:
312,6,153189,1,0,0:0:0:0:
312,6,153342,2,0,L|320:99,1,93.75,8|0,0:0|0:0,0:0:0:0:
334,276,153648,5,4,0:0:0:0:
392,147,153801,1,0,0:0:0:0:
241,263,153954,2,0,L|332:275,1,93.75,8|4,0:0|3:0,0:0:0:0:
177,178,154260,2,0,L|268:165,1,93.75,2|0,0:0|0:0,0:0:0:0:
47,265,154566,1,8,0:0:0:0:
150,275,154719,1,0,0:0:0:0:
26,192,154872,5,4,3:0:0:0:
177,178,155025,1,0,0:0:0:0:
52,94,155178,1,8,0:0:0:0:
52,94,155332,2,0,L|146:102,1,93.75,4|2,3:0|0:0,0:0:0:0:
306,26,155638,1,0,0:0:0:0:
306,26,155792,2,0,L|211:34,1,93.75,8|0,0:0|0:0,0:0:0:0:
390,111,156097,5,4,3:0:0:0:
390,111,156250,2,0,P|422:72|429:25,1,93.75,2|8,0:0|0:0,0:0:0:0:
379,217,156556,5,4,3:0:0:0:
379,217,156709,2,0,P|430:213|468:184,1,93.75,2|0,0:0|0:0,0:0:0:0:
297,284,157016,5,8,0:0:0:0:
297,284,157168,2,0,P|336:316|383:324,1,93.75,0|4,0:0|3:0,0:0:0:0:
192,274,157474,5,0,0:0:0:0:
192,274,157627,2,0,P|197:325|226:363,1,93.75,8|4,0:0|3:0,0:0:0:0:
243,128,157933,5,2,0:0:0:0:
243,128,158086,1,0,0:0:0:0:
243,128,158240,2,0,P|259:176|248:223,1,93.75,8|0,0:0|0:0,0:0:0:0:
89,300,158546,5,4,3:0:0:0:
59,195,158699,1,0,0:0:0:0:
180,301,158852,2,0,P|128:308|80:296,1,93.75,8|4,0:0|3:0,0:0:0:0:
342,215,159158,2,0,P|290:208|242:220,1,93.75,2|0,0:0|0:0,0:0:0:0:
397,363,159464,1,8,0:0:0:0:
427,238,159617,1,0,0:0:0:0:
282,380,159770,5,4,3:0:0:0:
250,216,159923,1,0,0:0:0:0:
119,322,160076,1,8,0:0:0:0:
119,322,160229,2,0,P|163:334|212:335,1,93.75,4|2,3:0|0:0,0:0:0:0:
65,178,160536,1,0,0:0:0:0:
65,178,160689,2,0,P|53:222|52:271,1,93.75,8|0,0:0|0:0,0:0:0:0:
240,107,160995,5,4,3:0:0:0:
240,107,161148,2,0,L|137:114,1,93.75,0|8,0:0|0:0,0:0:0:0:
407,34,161454,5,4,3:0:0:0:
407,34,161607,2,0,L|304:26,1,93.75,2|0,0:0|0:0,0:0:0:0:
487,194,161913,5,8,0:0:0:0:
487,194,162066,2,0,P|501:153|485:94,1,93.75,0|4,0:0|3:0,0:0:0:0:
301,154,162373,5,0,0:0:0:0:
301,153,162526,2,0,P|286:197|296:243,1,93.75,8|4,0:0|3:0,0:0:0:0:
388,384,162831,5,2,0:0:0:0:
370,202,162985,1,0,0:0:0:0:
298,372,163137,1,8,0:0:0:0:
469,284,163291,1,0,0:0:0:0:
270,262,163444,5,4,3:0:0:0:
203,345,163597,1,0,0:0:0:0:
96,236,163750,2,0,P|147:233|203:251,1,93.75,8|4,0:0|3:0,0:0:0:0:
25,384,164056,2,0,P|22:333|40:277,1,93.75,2|0,0:0|0:0,0:0:0:0:
153,125,164362,1,8,0:0:0:0:
187,243,164515,1,0,0:0:0:0:
301,122,164669,5,4,3:0:0:0:
270,262,164822,1,0,0:0:0:0:
409,196,164974,1,8,0:0:0:0:
409,196,165127,2,0,P|378:233|352:283,1,93.75,4|0,3:0|0:0,0:0:0:0:
498,368,165434,1,0,0:0:0:0:
498,368,165587,2,0,P|481:322|451:275,1,93.75,8|0,0:0|0:0,0:0:0:0:
304,359,165893,6,0,L|407:364,1,93.75,4|0,3:0|0:0,0:0:0:0:
176,267,166199,1,8,0:0:0:0:
176,267,166352,2,0,L|269:261,1,93.75,4|2,3:0|0:0,0:0:0:0:
71,346,166658,5,0,0:0:0:0:
37,218,166811,1,8,0:0:0:0:
165,368,166964,1,0,0:0:0:0:
214,186,167117,1,4,3:0:0:0:
214,186,167270,2,0,P|260:171|314:171,2,93.75,0|8|4,0:0|0:0|3:0,0:0:0:0:
91,97,167730,1,2,0:0:0:0:
91,97,167883,2,0,P|45:112|-9:112,2,93.75,0|8|0,0:0|0:0|0:0,0:0:0:0:
229,5,168341,5,4,3:0:0:0:
304,96,168495,1,0,0:0:0:0:
455,48,168648,2,0,P|408:35|357:44,1,93.75,8|4,0:0|3:0,0:0:0:0:
489,208,168954,2,0,P|502:163|496:117,1,93.75,2|0,0:0|0:0,0:0:0:0:
306,225,169260,1,8,0:0:0:0:
402,271,169414,1,0,0:0:0:0:
276,364,169567,5,4,3:0:0:0:
399,352,169720,1,0,0:0:0:0:
223,299,169872,1,8,0:0:0:0:
223,299,170025,2,0,L|126:310,1,93.75,4|2,3:0|0:0,0:0:0:0:
26,219,170332,1,0,0:0:0:0:
26,219,170485,2,0,L|123:230,1,93.75,8|0,0:0|0:0,0:0:0:0:
261,136,170791,6,0,B|282:98|259:59|259:59|271:47|285:43|285:43|274:30|267:9,1,150,4|0,1:0|0:0,0:0:0:0:
379,213,171097,1,0,3:0:0:0:
379,213,171250,2,0,B|358:175|380:136|380:136|369:124|354:120|354:120|366:107|372:86,1,150,4|0,1:0|0:0,0:0:0:0:
465,328,171556,1,0,3:0:0:0:
465,328,171709,6,0,L|474:174,1,150,4|0,1:0|0:0,0:0:0:0:
