osu file format v14

[General]
AudioFilename: I need a Hero Nightcore.mp3
AudioLeadIn: 0
PreviewTime: -1
Countdown: 1
SampleSet: Normal
StackLeniency: 0.7
Mode: 0
LetterboxInBreaks: 1
WidescreenStoryboard: 1

[Editor]
DistanceSpacing: 0.9
BeatDivisor: 4
GridSize: 4
TimelineZoom: 1.3

[Metadata]
Title:I Need a Hero (Nightcore)
TitleUnicode:I Need a Hero (Nightcore)
Artist:Jennifer Saunders
ArtistUnicode:Jennifer Saunders
Creator:AlienGo
Version:CHILL
Source:
Tags:
BeatmapID:809006
BeatmapSetID:369075

[Difficulty]
HPDrainRate:6
CircleSize:4.5
OverallDifficulty:8
ApproachRate:9.2
SliderMultiplier:2
SliderTickRate:1

[Events]
//Background and Video events
//Break Periods
2,67103,76410
2,171710,175099
//Storyboard Layer 0 (Background)
//Storyboard Layer 1 (Fail)
//Storyboard Layer 2 (Pass)
//Storyboard Layer 3 (Foreground)
//Storyboard Sound Samples

[TimingPoints]
32354.1198158899,319.9,4,1,0,100,1,0
63074,-66.6666666666667,4,1,0,100,0,0
86114,-100,4,1,0,100,0,0
88674,-66.6666666666667,4,1,0,100,0,0
95074,-100,4,1,0,100,0,0
165474,-125,4,1,0,100,0,0
166754,-166.666666666667,4,1,0,100,0,0
169314,-200,4,1,0,100,0,0
175074,-100,4,1,0,100,0,0

[HitObjects]
256,192,32354,12,0,33314,0:0:0:0:
56,292,33633,5,0,0:0:0:0:
80,275,33712,1,0,0:0:0:0:
105,258,33792,1,0,0:0:0:0:
130,241,33872,1,0,0:0:0:0:
155,224,33952,1,0,0:0:0:0:
180,207,34032,1,0,0:0:0:0:
205,191,34112,1,0,0:0:0:0:
229,174,34192,1,0,0:0:0:0:
254,157,34272,1,0,0:0:0:0:
279,140,34352,1,0,0:0:0:0:
304,123,34432,1,0,0:0:0:0:
329,106,34512,1,0,0:0:0:0:
354,90,34592,1,0,0:0:0:0:
378,73,34672,1,0,0:0:0:0:
403,56,34752,1,0,0:0:0:0:
414,62,34832,1,0,0:0:0:0:
410,92,34912,1,0,0:0:0:0:
406,122,34992,1,0,0:0:0:0:
403,152,35072,1,0,0:0:0:0:
399,182,35152,1,0,0:0:0:0:
395,211,35232,1,0,0:0:0:0:
392,241,35312,1,0,0:0:0:0:
388,271,35392,1,0,0:0:0:0:
367,260,35472,1,0,0:0:0:0:
343,242,35552,1,0,0:0:0:0:
319,224,35632,1,0,0:0:0:0:
295,206,35712,1,0,0:0:0:0:
271,188,35792,1,0,0:0:0:0:
247,170,35872,1,0,0:0:0:0:
223,152,35952,1,0,0:0:0:0:
199,134,36032,1,0,0:0:0:0:
175,116,36112,1,0,0:0:0:0:
160,100,36192,5,0,0:0:0:0:
208,252,36352,1,0,0:0:0:0:
296,104,36512,1,0,0:0:0:0:
448,40,36672,1,0,0:0:0:0:
304,0,36832,1,0,0:0:0:0:
344,160,36992,1,0,0:0:0:0:
496,100,37152,1,0,0:0:0:0:
508,256,37312,1,0,0:0:0:0:
372,340,37472,1,0,0:0:0:0:
264,228,37632,1,0,0:0:0:0:
96,320,37792,6,0,P|56:256|64:224,1,100
72,80,38112,2,0,P|124:32|172:44,1,100
144,184,38432,1,0,0:0:0:0:
276,88,38592,1,0,0:0:0:0:
420,152,38752,5,0,0:0:0:0:
420,164,38832,1,0,0:0:0:0:
420,176,38912,1,0,0:0:0:0:
420,4,39072,1,0,0:0:0:0:
312,132,39231,1,0,0:0:0:0:
200,244,39391,1,0,0:0:0:0:
80,328,39551,5,0,0:0:0:0:
72,316,39631,1,0,0:0:0:0:
64,304,39711,1,0,0:0:0:0:
52,140,39871,1,0,0:0:0:0:
184,68,40031,2,0,P|232:48|264:88,1,100
216,120,40351,2,0,P|272:148|308:116,1,100
316,60,40671,2,0,P|360:116|356:164,1,100
368,280,40991,2,0,L|248:308,1,100
136,340,41311,5,0,0:0:0:0:
96,220,41471,1,0,0:0:0:0:
56,108,41631,1,0,0:0:0:0:
68,100,41711,1,0,0:0:0:0:
80,92,41791,1,0,0:0:0:0:
172,192,41951,1,0,0:0:0:0:
344,192,42111,1,0,0:0:0:0:
256,64,42271,1,0,0:0:0:0:
168,24,42430,1,0,0:0:0:0:
340,28,42590,5,0,0:0:0:0:
348,40,42670,1,0,0:0:0:0:
356,48,42750,1,0,0:0:0:0:
512,136,42910,1,0,0:0:0:0:
336,120,43070,1,0,0:0:0:0:
376,232,43230,2,0,P|368:288|300:312,1,100
424,344,43550,2,0,B|336:332|328:296|292:256|280:180,1,200
268,314,44030,2,0,L|292:198,1,100
232,56,44350,2,0,B|276:96|292:144|292:192|276:248,1,200
120,304,44830,5,0,0:0:0:0:
160,152,44990,1,0,0:0:0:0:
304,88,45150,1,0,0:0:0:0:
432,60,45310,5,0,0:0:0:0:
440,76,45390,1,0,0:0:0:0:
444,92,45470,1,0,0:0:0:0:
296,160,45629,5,0,0:0:0:0:
288,176,45709,1,0,0:0:0:0:
276,192,45789,1,0,0:0:0:0:
452,232,45949,5,0,0:0:0:0:
460,248,46029,1,0,0:0:0:0:
464,264,46109,1,0,0:0:0:0:
304,328,46269,5,0,0:0:0:0:
144,260,46429,2,0,B|92:216|92:168|124:120|156:68,1,200
248,48,46909,1,0,0:0:0:0:
456,48,47069,1,0,0:0:0:0:
288,124,47229,1,0,0:0:0:0:
408,120,47389,1,0,0:0:0:0:
312,192,47549,1,0,0:0:0:0:
384,220,47709,5,0,0:0:0:0:
284,292,47869,1,0,0:0:0:0:
440,288,48029,1,0,0:0:0:0:
276,216,48189,1,0,0:0:0:0:
120,132,48349,1,0,0:0:0:0:
16,336,48509,1,0,0:0:0:0:
28,324,48589,1,0,0:0:0:0:
40,312,48669,1,0,0:0:0:0:
224,376,48828,6,0,P|284:356|388:228,1,200
328,60,49308,2,0,P|412:56|432:68,1,100
472,232,49628,1,0,0:0:0:0:
304,172,49788,2,0,P|240:224|252:268,1,100
128,92,50108,1,0,0:0:0:0:
128,92,50268,6,0,B|72:140|68:192|76:248|88:288,1,200
232,152,50748,2,0,P|264:228|264:268,2,100
96,288,51228,1,0,0:0:0:0:
196,212,51388,1,0,0:0:0:0:
304,296,51548,1,0,0:0:0:0:
372,172,51708,1,0,0:0:0:0:
512,128,51868,1,0,0:0:0:0:
396,56,52027,6,0,P|316:40|192:64,2,200
456,104,52827,1,0,0:0:0:0:
452,200,52987,2,0,B|424:284|364:324|304:320,2,200
376,160,53787,2,0,P|272:148|192:160,1,150
88,96,54107,2,0,P|56:184|80:216,2,100
300,84,54587,2,0,L|460:224,1,200
460,124,55067,5,0,0:0:0:0:
376,296,55226,1,0,0:0:0:0:
368,308,55306,1,0,0:0:0:0:
356,320,55386,2,0,P|268:360|168:316,1,200
72,60,56026,1,0,0:0:0:0:
72,348,56266,1,0,0:0:0:0:
420,56,56506,1,0,0:0:0:0:
188,92,56666,5,0,0:0:0:0:
232,104,56826,1,0,0:0:0:0:
280,120,56986,1,0,0:0:0:0:
328,136,57146,1,0,0:0:0:0:
432,176,57306,1,0,0:0:0:0:
408,220,57466,1,0,0:0:0:0:
384,264,57626,1,0,0:0:0:0:
360,304,57786,1,0,0:0:0:0:
32,284,57946,6,0,L|16:196,7,50
16,192,58585,2,0,P|60:128|188:96,1,200
360,80,59225,2,0,L|436:104,7,50
408,140,59865,2,0,P|340:264|256:296,1,200
8,4,60505,5,0,0:0:0:0:
24,51,60585,1,0,0:0:0:0:
41,98,60665,1,0,0:0:0:0:
58,145,60745,1,0,0:0:0:0:
75,192,60825,1,0,0:0:0:0:
92,239,60905,1,0,0:0:0:0:
109,286,60985,1,0,0:0:0:0:
125,333,61065,1,0,0:0:0:0:
142,380,61145,5,0,0:0:0:0:
153,338,61225,1,0,0:0:0:0:
163,289,61305,1,0,0:0:0:0:
173,240,61385,1,0,0:0:0:0:
183,191,61465,1,0,0:0:0:0:
193,142,61544,1,0,0:0:0:0:
203,93,61624,1,0,0:0:0:0:
213,44,61704,1,0,0:0:0:0:
223,0,61784,5,0,0:0:0:0:
234,37,61864,1,0,0:0:0:0:
255,82,61944,1,0,0:0:0:0:
283,123,62024,1,0,0:0:0:0:
314,163,62104,1,0,0:0:0:0:
343,203,62184,1,0,0:0:0:0:
365,248,62264,1,0,0:0:0:0:
381,295,62344,1,0,0:0:0:0:
401,341,62424,5,0,0:0:0:0:
413,322,62504,1,0,0:0:0:0:
426,274,62584,1,0,0:0:0:0:
438,225,62664,1,0,0:0:0:0:
443,175,62744,1,0,0:0:0:0:
439,126,62824,1,0,0:0:0:0:
427,77,62904,1,0,0:0:0:0:
411,30,62984,1,0,0:0:0:0:
368,4,63064,6,0,L|208:104,1,150
148,160,63464,2,0,B|136:344|196:364|324:368|400:348|472:316|476:272,1,450.000017166138
468,256,64184,2,0,P|304:152|208:148,2,225.000008583069
248,224,64823,1,0,0:0:0:0:
56,128,64983,6,0,P|32:220|72:276,1,150.000005722046
168,128,65303,2,0,P|136:208|176:276,1,150.000005722046
208,52,65623,1,0,0:0:0:0:
404,56,65783,5,0,0:0:0:0:
416,48,65863,1,0,0:0:0:0:
428,40,65943,1,0,0:0:0:0:
452,328,66103,5,0,0:0:0:0:
432,316,66183,1,0,0:0:0:0:
408,304,66263,1,0,0:0:0:0:
88,324,66423,5,0,0:0:0:0:
116,300,66503,1,0,0:0:0:0:
144,280,66583,1,0,0:0:0:0:
80,44,66743,5,0,0:0:0:0:
116,72,66823,1,0,0:0:0:0:
152,100,66903,1,0,0:0:0:0:
304,52,76980,5,0,0:0:0:0:
300,84,77060,1,0,0:0:0:0:
324,100,77140,1,0,0:0:0:0:
508,84,77300,1,0,0:0:0:0:
512,272,77460,2,0,P|428:360|344:348,1,150.000005722046
204,340,77779,2,0,P|52:224|64:124,1,300.000011444092
192,20,78259,2,0,P|300:160|428:228,1,300.000011444092
264,348,78739,2,0,L|176:204,1,150.000005722046
244,44,79059,6,0,L|196:124,7,75.0000028610231
404,104,79699,2,0,P|476:72|508:128,1,150.000005722046
324,152,80019,2,0,B|404:88|436:96|388:156,1,150.000005722046
356,336,80339,2,0,B|340:160|316:168|340:268|220:344,1,300.000011444092
100,164,80818,5,0,0:0:0:0:
92,144,80898,1,0,0:0:0:0:
80,120,80978,2,0,P|136:56|208:56,1,150.000005722046
320,84,81298,2,0,P|364:188|304:244,1,150.000005722046
344,232,81538,1,0,0:0:0:0:
316,232,81618,2,0,P|256:144|220:192,1,150.000005722046
212,208,81938,2,0,L|136:364,1,150.000005722046
112,316,82178,5,0,0:0:0:0:
92,284,82258,2,0,L|36:120,1,150.000005722046
80,64,82578,2,0,P|152:32|248:48,1,150.000005722046
288,112,82898,2,0,P|356:152|472:60,1,225.000008583069
444,52,83218,1,0,0:0:0:0:
408,68,83378,2,0,P|348:132|432:304,2,300.000011444092
196,124,84177,5,0,0:0:0:0:
120,244,84337,1,0,0:0:0:0:
260,312,84497,1,0,0:0:0:0:
336,184,84657,1,0,0:0:0:0:
308,88,84817,5,0,0:0:0:0:
232,220,84977,1,0,0:0:0:0:
84,148,85137,1,0,0:0:0:0:
172,24,85297,1,0,0:0:0:0:
204,128,85457,5,0,0:0:0:0:
400,132,85617,1,0,0:0:0:0:
400,304,85777,1,0,0:0:0:0:
220,308,85937,1,0,0:0:0:0:
64,328,86097,5,0,0:0:0:0:
113,322,86177,1,0,0:0:0:0:
163,316,86257,1,0,0:0:0:0:
212,310,86337,1,0,0:0:0:0:
262,304,86417,1,0,0:0:0:0:
312,298,86497,1,0,0:0:0:0:
361,292,86577,1,0,0:0:0:0:
411,286,86657,1,0,0:0:0:0:
461,280,86737,5,0,0:0:0:0:
431,257,86817,1,0,0:0:0:0:
388,231,86897,1,0,0:0:0:0:
345,206,86977,1,0,0:0:0:0:
302,180,87057,1,0,0:0:0:0:
259,154,87136,1,0,0:0:0:0:
216,128,87216,1,0,0:0:0:0:
174,102,87296,1,0,0:0:0:0:
131,77,87376,5,0,0:0:0:0:
100,63,87456,1,0,0:0:0:0:
124,107,87536,1,0,0:0:0:0:
148,151,87616,1,0,0:0:0:0:
172,195,87696,1,0,0:0:0:0:
196,239,87776,1,0,0:0:0:0:
219,283,87856,1,0,0:0:0:0:
243,327,87936,1,0,0:0:0:0:
267,356,88016,5,0,0:0:0:0:
291,312,88096,1,0,0:0:0:0:
314,268,88176,1,0,0:0:0:0:
337,224,88256,1,0,0:0:0:0:
361,180,88336,1,0,0:0:0:0:
384,135,88416,1,0,0:0:0:0:
408,91,88496,1,0,0:0:0:0:
431,47,88576,1,0,0:0:0:0:
452,8,88656,5,0,0:0:0:0:
360,112,89136,1,0,0:0:0:0:
360,136,89216,1,0,0:0:0:0:
356,160,89296,1,0,0:0:0:0:
476,332,89536,1,0,0:0:0:0:
16,228,89776,1,0,0:0:0:0:
344,0,89936,5,0,0:0:0:0:
0,16,90415,1,0,0:0:0:0:
8,32,90495,1,0,0:0:0:0:
16,48,90575,1,0,0:0:0:0:
512,192,90815,1,0,0:0:0:0:
112,384,91055,1,0,0:0:0:0:
224,28,91215,5,0,0:0:0:0:
452,56,91535,1,0,0:0:0:0:
440,68,91615,1,0,0:0:0:0:
428,80,91695,1,0,0:0:0:0:
0,192,91855,1,0,0:0:0:0:
336,376,92095,1,0,0:0:0:0:
340,56,92335,1,0,0:0:0:0:
480,168,92495,5,0,0:0:0:0:
296,172,92655,1,0,0:0:0:0:
400,312,92815,1,0,0:0:0:0:
176,304,92975,1,0,0:0:0:0:
152,280,93055,1,0,0:0:0:0:
116,292,93135,1,0,0:0:0:0:
8,168,93295,1,0,0:0:0:0:
128,36,93455,1,0,0:0:0:0:
228,160,93614,1,0,0:0:0:0:
252,128,93694,1,0,0:0:0:0:
256,88,93774,5,0,0:0:0:0:
376,0,93934,1,0,0:0:0:0:
464,112,94094,1,0,0:0:0:0:
320,168,94254,1,0,0:0:0:0:
340,180,94334,1,0,0:0:0:0:
360,192,94414,1,0,0:0:0:0:
168,244,94574,1,0,0:0:0:0:
308,296,94734,1,0,0:0:0:0:
292,112,94894,1,0,0:0:0:0:
360,132,95054,5,0,0:0:0:0:
382,176,95134,1,0,0:0:0:0:
384,219,95214,1,0,0:0:0:0:
353,259,95294,1,0,0:0:0:0:
323,298,95374,1,0,0:0:0:0:
292,338,95454,1,0,0:0:0:0:
257,346,95534,1,0,0:0:0:0:
217,317,95614,1,0,0:0:0:0:
176,287,95694,5,0,0:0:0:0:
136,258,95774,1,0,0:0:0:0:
95,229,95854,1,0,0:0:0:0:
84,195,95934,1,0,0:0:0:0:
116,157,96014,1,0,0:0:0:0:
147,118,96094,1,0,0:0:0:0:
179,79,96174,1,0,0:0:0:0:
211,46,96254,1,0,0:0:0:0:
252,74,96334,5,0,0:0:0:0:
364,16,96494,1,0,0:0:0:0:
488,116,96654,1,0,0:0:0:0:
360,372,96813,1,0,0:0:0:0:
488,268,96973,1,0,0:0:0:0:
24,264,97133,1,0,0:0:0:0:
160,372,97293,1,0,0:0:0:0:
164,16,97453,1,0,0:0:0:0:
24,116,97613,5,0,0:0:0:0:
168,316,97773,2,0,P|244:360|288:356,2,100
208,224,98253,2,0,B|300:268|364:220|400:36,1,300
400,56,98813,1,0,0:0:0:0:
404,56,98893,1,0,0:0:0:0:
280,156,99053,1,0,0:0:0:0:
412,292,99213,5,0,0:0:0:0:
392,300,99293,1,0,0:0:0:0:
372,312,99373,1,0,0:0:0:0:
216,216,99533,1,0,0:0:0:0:
188,56,99693,1,0,0:0:0:0:
84,176,99853,1,0,0:0:0:0:
124,332,100012,1,0,0:0:0:0:
340,120,100172,2,0,L|296:60,7,50
304,108,100812,6,0,P|292:192|176:256,1,200
200,56,101292,1,0,0:0:0:0:
176,68,101372,1,0,0:0:0:0:
164,84,101452,1,0,0:0:0:0:
148,220,101612,1,0,0:0:0:0:
236,220,101772,1,0,0:0:0:0:
112,220,101932,1,0,0:0:0:0:
272,220,102092,5,0,0:0:0:0:
80,220,102252,1,0,0:0:0:0:
312,220,102412,1,0,0:0:0:0:
292,64,102572,1,0,0:0:0:0:
132,88,102732,1,0,0:0:0:0:
120,108,102812,1,0,0:0:0:0:
120,136,102892,2,0,P|148:188|192:200,1,100
192,220,103131,1,0,0:0:0:0:
184,248,103211,2,0,P|224:316|196:336,1,100
200,328,103451,1,0,0:0:0:0:
232,324,103531,2,0,L|336:292,1,100
436,240,103851,1,0,0:0:0:0:
456,88,104011,6,0,B|460:0|424:-28|416:40,1,100
288,72,104331,1,0,0:0:0:0:
392,172,104491,1,0,0:0:0:0:
220,236,104651,1,0,0:0:0:0:
172,68,104811,1,0,0:0:0:0:
260,68,104971,2,0,B|272:152|292:180|320:112,1,100
60,212,105291,2,0,B|52:316|56:380|116:252,1,200
152,264,105771,2,0,P|144:332|236:292,1,200
376,68,106251,6,0,L|424:160,1,100
268,152,106570,2,0,B|320:232|348:240|352:176,1,100
84,80,106890,2,0,L|56:200,2,100
184,192,107370,2,0,B|264:164|280:180|244:232,2,100
340,64,107850,1,0,0:0:0:0:
344,200,108010,1,0,0:0:0:0:
200,72,108170,1,0,0:0:0:0:
212,220,108330,1,0,0:0:0:0:
100,288,108490,6,0,P|128:220|432:132,1,400
416,240,109290,1,0,0:0:0:0:
264,340,109450,1,0,0:0:0:0:
260,172,109609,1,0,0:0:0:0:
136,240,109769,1,0,0:0:0:0:
128,228,109849,1,0,0:0:0:0:
120,216,109929,1,0,0:0:0:0:
144,120,110089,1,0,0:0:0:0:
136,112,110169,1,0,0:0:0:0:
128,104,110249,1,0,0:0:0:0:
24,28,110409,5,0,0:0:0:0:
26,77,110489,1,0,0:0:0:0:
35,127,110569,1,0,0:0:0:0:
51,174,110649,1,0,0:0:0:0:
75,218,110729,1,0,0:0:0:0:
108,255,110809,1,0,0:0:0:0:
149,284,110889,1,0,0:0:0:0:
195,301,110969,1,0,0:0:0:0:
245,306,111049,5,0,0:0:0:0:
294,298,111129,1,0,0:0:0:0:
340,277,111209,1,0,0:0:0:0:
379,246,111289,1,0,0:0:0:0:
411,208,111369,1,0,0:0:0:0:
435,164,111449,1,0,0:0:0:0:
451,117,111529,1,0,0:0:0:0:
460,68,111609,1,0,0:0:0:0:
463,18,111689,5,0,0:0:0:0:
340,48,111849,1,0,0:0:0:0:
220,20,112009,1,0,0:0:0:0:
116,120,112169,2,0,P|88:244|124:340,1,200
240,296,112649,1,0,0:0:0:0:
356,312,112808,2,0,P|404:176|360:104,1,200
248,136,113288,1,0,0:0:0:0:
320,56,113448,1,0,0:0:0:0:
144,148,113608,2,0,P|104:264|160:312,1,200
280,368,114088,1,0,0:0:0:0:
512,284,114248,5,0,0:0:0:0:
444,76,114568,1,0,0:0:0:0:
104,296,114888,1,0,0:0:0:0:
116,48,115208,1,0,0:0:0:0:
400,348,115528,5,0,0:0:0:0:
288,44,115848,1,0,0:0:0:0:
136,364,116167,1,0,0:0:0:0:
464,44,116487,1,0,0:0:0:0:
32,352,116807,5,0,0:0:0:0:
448,200,116967,1,0,0:0:0:0:
64,56,117127,1,0,0:0:0:0:
248,372,117287,1,0,0:0:0:0:
168,24,117447,1,0,0:0:0:0:
480,136,117607,1,0,0:0:0:0:
408,360,117767,1,0,0:0:0:0:
72,240,117927,1,0,0:0:0:0:
288,104,118087,5,0,0:0:0:0:
476,292,118247,1,0,0:0:0:0:
100,360,118407,1,0,0:0:0:0:
80,88,118567,1,0,0:0:0:0:
468,28,118727,1,0,0:0:0:0:
232,356,118887,1,0,0:0:0:0:
48,40,119047,1,0,0:0:0:0:
440,168,119206,1,0,0:0:0:0:
216,16,119366,5,0,0:0:0:0:
76,280,119526,1,0,0:0:0:0:
432,304,119686,1,0,0:0:0:0:
188,64,119846,1,0,0:0:0:0:
140,344,120006,1,0,0:0:0:0:
392,72,120166,1,0,0:0:0:0:
356,364,120326,1,0,0:0:0:0:
40,124,120486,1,0,0:0:0:0:
260,360,120646,5,0,0:0:0:0:
460,104,120886,1,0,0:0:0:0:
460,136,120966,2,0,P|400:264|320:280,3,200
328,272,122006,1,0,0:0:0:0:
296,248,122086,1,0,0:0:0:0:
268,228,122166,1,0,0:0:0:0:
236,208,122246,1,0,0:0:0:0:
204,204,122325,1,0,0:0:0:0:
184,220,122405,1,0,0:0:0:0:
172,252,122485,1,0,0:0:0:0:
176,280,122565,5,0,0:0:0:0:
184,308,122645,1,0,0:0:0:0:
188,336,122725,1,0,0:0:0:0:
204,368,122805,1,0,0:0:0:0:
208,372,122885,1,0,0:0:0:0:
240,352,122965,1,0,0:0:0:0:
260,328,123045,1,0,0:0:0:0:
276,300,123125,1,0,0:0:0:0:
272,272,123205,5,0,0:0:0:0:
332,132,123445,1,0,0:0:0:0:
256,84,123525,1,0,0:0:0:0:
112,220,123845,2,0,L|288:328,2,200
436,104,124645,1,0,0:0:0:0:
396,128,124805,1,0,0:0:0:0:
392,180,124965,1,0,0:0:0:0:
380,224,125125,1,0,0:0:0:0:
344,252,125285,1,0,0:0:0:0:
300,268,125445,5,0,0:0:0:0:
72,172,125604,2,0,B|116:88|204:96|268:156|260:164,1,200
252,132,126084,2,0,B|272:64|184:48|84:92,1,200
88,128,126564,1,0,0:0:0:0:
92,176,126724,1,0,0:0:0:0:
100,224,126884,2,0,B|208:216|308:280|396:184,1,300
392,200,127684,5,0,0:0:0:0:
372,156,127844,1,0,0:0:0:0:
344,120,128004,1,0,0:0:0:0:
320,76,128164,1,0,0:0:0:0:
348,40,128324,2,0,P|416:32|432:72,1,100
452,320,128644,2,0,P|416:360|356:320,1,100
52,304,128963,2,0,P|116:348|152:320,1,100
132,48,129283,2,0,P|80:12|44:40,1,100
88,92,129603,5,0,0:0:0:0:
65,135,129683,1,0,0:0:0:0:
69,185,129763,1,0,0:0:0:0:
91,229,129843,1,0,0:0:0:0:
126,265,129923,1,0,0:0:0:0:
169,291,130003,1,0,0:0:0:0:
216,306,130083,1,0,0:0:0:0:
266,312,130163,1,0,0:0:0:0:
316,306,130243,5,0,0:0:0:0:
362,288,130323,1,0,0:0:0:0:
400,256,130403,1,0,0:0:0:0:
417,210,130483,1,0,0:0:0:0:
405,163,130563,1,0,0:0:0:0:
368,130,130643,1,0,0:0:0:0:
319,122,130723,1,0,0:0:0:0:
275,142,130803,1,0,0:0:0:0:
255,187,130883,5,0,0:0:0:0:
273,232,130963,1,0,0:0:0:0:
316,255,131043,1,0,0:0:0:0:
365,247,131123,1,0,0:0:0:0:
401,213,131203,1,0,0:0:0:0:
411,165,131283,1,0,0:0:0:0:
393,119,131363,1,0,0:0:0:0:
357,86,131443,1,0,0:0:0:0:
310,67,131523,5,0,0:0:0:0:
261,62,131603,1,0,0:0:0:0:
212,69,131683,1,0,0:0:0:0:
165,87,131763,1,0,0:0:0:0:
124,116,131843,1,0,0:0:0:0:
91,153,131922,1,0,0:0:0:0:
69,198,132002,1,0,0:0:0:0:
68,247,132082,1,0,0:0:0:0:
104,280,132162,5,0,0:0:0:0:
256,316,132402,1,0,0:0:0:0:
292,312,132482,2,0,B|368:328|460:236|476:180,1,200
428,84,132962,1,0,0:0:0:0:
288,136,133122,2,0,B|296:164|228:224|200:152,1,100
124,40,133442,2,0,P|56:96|64:132,1,100
112,236,133762,1,0,0:0:0:0:
304,252,133922,1,0,0:0:0:0:
364,72,134082,6,0,L|364:176,1,100
356,196,134322,1,0,0:0:0:0:
336,208,134402,2,0,L|216:136,1,100
224,188,134722,2,0,P|200:248|144:244,1,100
156,260,134962,1,0,0:0:0:0:
128,256,135042,1,0,0:0:0:0:
48,104,135201,1,0,0:0:0:0:
208,136,135361,1,0,0:0:0:0:
296,0,135521,1,0,0:0:0:0:
468,36,135681,1,0,0:0:0:0:
376,160,135841,1,0,0:0:0:0:
440,300,136001,5,0,0:0:0:0:
416,316,136081,1,0,0:0:0:0:
392,328,136161,1,0,0:0:0:0:
368,344,136241,1,0,0:0:0:0:
344,360,136321,1,0,0:0:0:0:
220,276,136481,1,0,0:0:0:0:
64,364,136641,1,0,0:0:0:0:
48,216,136801,1,0,0:0:0:0:
104,80,136961,1,0,0:0:0:0:
124,76,137041,1,0,0:0:0:0:
144,72,137121,1,0,0:0:0:0:
312,0,137281,5,0,0:0:0:0:
492,52,137441,1,0,0:0:0:0:
344,140,137601,2,0,P|320:188|268:216,1,100
248,188,137841,1,0,0:0:0:0:
208,172,137921,2,0,P|164:244|196:260,1,100
160,276,138161,1,0,0:0:0:0:
116,276,138241,2,0,P|68:252|64:184,1,100
64,172,138480,1,0,0:0:0:0:
72,136,138560,2,0,P|128:68|164:64,1,100
184,80,138800,1,0,0:0:0:0:
224,68,138880,2,0,P|296:32|340:64,1,100
440,68,139200,5,0,0:0:0:0:
452,168,139360,1,0,0:0:0:0:
428,256,139520,1,0,0:0:0:0:
388,244,139600,1,0,0:0:0:0:
376,284,139680,2,0,P|304:324|280:288,1,100
140,300,140000,1,0,0:0:0:0:
96,152,140160,1,0,0:0:0:0:
260,112,140320,1,0,0:0:0:0:
404,76,140480,5,0,0:0:0:0:
316,264,140640,1,0,0:0:0:0:
184,56,140800,1,0,0:0:0:0:
104,300,140960,1,0,0:0:0:0:
324,188,141120,1,0,0:0:0:0:
276,316,141280,1,0,0:0:0:0:
96,72,141440,1,0,0:0:0:0:
248,48,141599,1,0,0:0:0:0:
328,32,141759,5,0,0:0:0:0:
424,20,141919,1,0,0:0:0:0:
468,176,142079,1,0,0:0:0:0:
508,336,142239,1,0,0:0:0:0:
360,288,142399,2,0,B|208:328|160:292|240:248|296:208|64:184,1,350
136,88,143039,2,0,B|144:56|236:64|376:48|268:112,1,200
272,136,143519,1,0,0:0:0:0:
292,184,143679,6,0,B|384:56|448:132|456:344,1,350
352,240,144319,6,0,B|424:120|384:24|280:52|256:16|188:124,1,350
184,24,144958,6,0,B|80:104|128:164|212:216|296:160|280:276,1,350
212,288,145598,6,0,B|164:256|188:164|284:104|360:56|228:24|176:120,1,350
128,152,146238,6,0,B|152:216|360:184|420:120|408:56,1,350
340,60,146878,6,0,B|328:176|404:300|240:344,1,300
216,344,147518,6,0,P|68:300|60:240,1,200
52,200,147997,2,0,P|96:68|184:56,1,200
216,48,148477,1,0,0:0:0:0:
288,52,148637,2,0,P|372:80|392:120,2,100
348,160,149117,1,0,0:0:0:0:
300,244,149277,1,0,0:0:0:0:
216,284,149437,1,0,0:0:0:0:
128,244,149597,1,0,0:0:0:0:
88,152,149757,5,0,0:0:0:0:
132,80,149917,1,0,0:0:0:0:
144,68,149997,1,0,0:0:0:0:
160,60,150077,1,0,0:0:0:0:
296,16,150237,1,0,0:0:0:0:
400,160,150397,1,0,0:0:0:0:
448,48,150557,1,0,0:0:0:0:
272,148,150717,1,0,0:0:0:0:
380,240,150877,5,0,0:0:0:0:
356,236,150957,1,0,0:0:0:0:
348,256,151037,1,0,0:0:0:0:
184,160,151196,2,0,P|168:232|284:284,1,200
240,216,151676,1,0,0:0:0:0:
136,288,151836,1,0,0:0:0:0:
12,208,151996,1,0,0:0:0:0:
88,120,152156,1,0,0:0:0:0:
88,104,152236,1,0,0:0:0:0:
88,84,152316,1,0,0:0:0:0:
208,8,152476,1,0,0:0:0:0:
320,56,152636,6,0,L|372:92,3,50
368,128,152956,2,0,L|332:200,3,50
328,208,153276,2,0,L|352:264,3,50
328,288,153596,2,0,L|272:324,3,50
232,328,153916,2,0,P|136:320|112:284,1,100
88,268,154236,2,0,B|64:200|132:220|116:76,1,200
188,124,154715,1,0,0:0:0:0:
276,8,154875,5,0,0:0:0:0:
344,152,155035,1,0,0:0:0:0:
328,68,155195,2,0,P|464:172|480:220,2,200
228,176,155995,2,0,P|128:248|168:296,1,200
432,88,156475,5,0,0:0:0:0:
424,112,156555,1,0,0:0:0:0:
416,132,156635,1,0,0:0:0:0:
408,156,156715,1,0,0:0:0:0:
384,172,156795,2,0,L|296:176,3,50
332,216,157115,1,0,0:0:0:0:
328,240,157195,1,0,0:0:0:0:
320,248,157275,1,0,0:0:0:0:
312,268,157355,1,0,0:0:0:0:
288,296,157435,2,0,L|216:308,3,50
184,304,157754,6,0,P|72:220|68:156,1,200
52,72,158394,1,0,0:0:0:0:
476,88,158714,1,0,0:0:0:0:
408,344,159034,5,0,0:0:0:0:
304,48,159194,1,0,0:0:0:0:
88,352,159354,1,0,0:0:0:0:
176,60,159514,1,0,0:0:0:0:
496,240,159674,1,0,0:0:0:0:
284,364,159834,1,0,0:0:0:0:
48,248,159994,1,0,0:0:0:0:
368,120,160154,1,0,0:0:0:0:
204,328,160314,5,0,0:0:0:0:
496,96,160474,1,0,0:0:0:0:
88,172,160634,1,0,0:0:0:0:
464,332,160793,1,0,0:0:0:0:
360,40,160953,1,0,0:0:0:0:
488,172,161113,1,0,0:0:0:0:
360,360,161273,1,0,0:0:0:0:
216,272,161433,1,0,0:0:0:0:
108,48,161593,5,0,0:0:0:0:
56,312,161753,1,0,0:0:0:0:
280,52,161913,1,0,0:0:0:0:
416,256,162073,1,0,0:0:0:0:
164,352,162233,1,0,0:0:0:0:
180,72,162393,1,0,0:0:0:0:
456,68,162553,1,0,0:0:0:0:
292,360,162713,1,0,0:0:0:0:
56,160,162873,5,0,0:0:0:0:
392,40,163033,1,0,0:0:0:0:
436,344,163193,1,0,0:0:0:0:
236,220,163353,1,0,0:0:0:0:
60,336,163513,1,0,0:0:0:0:
124,72,163673,1,0,0:0:0:0:
476,156,163833,1,0,0:0:0:0:
200,364,163992,1,0,0:0:0:0:
316,48,164152,6,0,P|400:88|408:112,1,100
44,180,164472,2,0,P|32:124|72:48,1,100
312,128,164792,2,0,P|384:184|372:216,1,100
332,300,165112,2,0,L|224:336,1,100
156,240,165432,2,0,P|92:176|96:168,1,100
220,176,165752,2,0,P|184:152|168:96,1,80
312,132,166072,2,0,P|260:104|264:64,1,80
392,100,166392,2,0,P|384:40|408:12,1,80
424,192,166712,6,0,P|424:248|172:328,1,359.999989013672
184,332,167671,1,0,0:0:0:0:
192,148,167831,1,0,0:0:0:0:
196,140,167991,6,0,P|244:104|316:92,1,119.999996337891
432,192,168471,1,0,0:0:0:0:
424,232,168551,1,0,0:0:0:0:
396,256,168631,2,0,P|352:280|248:204,1,179.999994506836
48,112,169271,6,0,B|52:188|76:248|132:16|256:40|352:44|460:36|492:56|408:128|300:192|192:240|440:208|472:296|276:352|224:360|108:288,1,839.999974365235
84,136,175669,6,0,P|132:72|272:44,1,200
280,204,176149,1,0,0:0:0:0:
408,88,176309,2,0,L|472:264,2,150
360,296,176948,5,0,0:0:0:0:
348,296,177028,1,0,0:0:0:0:
336,296,177108,1,0,0:0:0:0:
324,296,177188,1,0,0:0:0:0:
312,296,177268,1,0,0:0:0:0:
300,296,177348,1,0,0:0:0:0:
288,296,177428,1,0,0:0:0:0:
272,296,177508,1,0,0:0:0:0:
260,296,177588,6,0,P|188:252|188:132,1,200
128,0,178068,1,0,0:0:0:0:
272,40,178228,2,0,B|368:40|476:64|408:124,1,200
344,216,178708,1,0,0:0:0:0:
236,300,178868,2,0,B|68:308|44:284|104:260,1,200
188,272,179348,1,0,0:0:0:0:
196,168,179508,5,0,0:0:0:0:
88,148,179668,1,0,0:0:0:0:
128,40,179828,1,0,0:0:0:0:
224,56,179987,2,0,P|240:156|304:116,1,200
456,236,180467,1,0,0:0:0:0:
392,344,180627,1,0,0:0:0:0:
272,288,180787,5,0,0:0:0:0:
328,180,180947,1,0,0:0:0:0:
260,80,181107,1,0,0:0:0:0:
392,112,181267,2,0,P|356:196|264:244,1,200
160,184,181747,1,0,0:0:0:0:
92,164,181907,2,0,P|120:64|236:36,1,200
304,44,182387,2,0,P|356:48|332:164,1,200
312,272,182867,1,0,0:0:0:0:
216,188,183027,1,0,0:0:0:0:
120,296,183186,2,0,P|52:172|92:96,1,200
72,40,183666,5,0,0:0:0:0:
168,56,183826,1,0,0:0:0:0:
135,93,183906,1,0,0:0:0:0:
102,131,183986,1,0,0:0:0:0:
118,165,184066,1,0,0:0:0:0:
157,196,184146,1,0,0:0:0:0:
195,228,184226,1,0,0:0:0:0:
234,259,184306,1,0,0:0:0:0:
271,264,184386,1,0,0:0:0:0:
303,226,184466,1,0,0:0:0:0:
335,188,184546,1,0,0:0:0:0:
365,150,184626,1,0,0:0:0:0:
326,119,184706,1,0,0:0:0:0:
286,88,184786,1,0,0:0:0:0:
249,80,184866,1,0,0:0:0:0:
217,118,184946,1,0,0:0:0:0:
209,154,185026,1,0,0:0:0:0:
248,185,185106,1,0,0:0:0:0:
256,192,185266,12,0,186546,0:0:0:0:
