osu file format v14

[General]
AudioFilename: audio.mp3
AudioLeadIn: 0
PreviewTime: 280
Countdown: 0
SampleSet: Soft
StackLeniency: 0.3
Mode: 0
LetterboxInBreaks: 0
WidescreenStoryboard: 1

[Editor]
DistanceSpacing: 1
BeatDivisor: 2
GridSize: 4
TimelineZoom: 1.099999

[Metadata]
Title:My Life As A Teenage Robot
TitleUnicode:My Life As A Teenage Robot
Artist:Jennifer Karr
ArtistUnicode:Jennifer Karr
Creator:m3gB3g
Version:Collab Normal
Source:My Life As A Teenage Robot
Tags:nickelodeon xj-9 jenny wakeman rob renzetti teen nicktoons tv size Djulus gary00737 beiv
BeatmapID:1566419
BeatmapSetID:737235

[Difficulty]
HPDrainRate:3
CircleSize:2.5
OverallDifficulty:3
ApproachRate:5.5
SliderMultiplier:1.00000000596046
SliderTickRate:2

[Events]
//Background and Video events
0,0,"xj-9.png",0,0
Video,253,"00723.mp4"
//Break Periods
//Storyboard Layer 0 (Background)
//Storyboard Layer 1 (Fail)
//Storyboard Layer 2 (Pass)
//Storyboard Layer 3 (Foreground)
//Storyboard Sound Samples

[TimingPoints]
823,350.877192982456,4,2,1,40,1,0
6437,-100,4,2,1,60,0,0

[Colours]
Combo1 : 245,245,245
Combo2 : 36,255,255

[HitObjects]
0,269,822,6,0,P|28:227|38:179,1,100.000000596046,2|2,2:0|2:0,0:0:0:0:
37,128,1349,1,0,0:0:0:0:
107,57,1700,2,0,L|78:-21,2,50.000000298023,2|2|2,2:0|2:0|2:0,0:0:0:0:
207,78,2401,2,0,L|194:126,1,50.000000298023,2|0,2:0|0:0,0:0:0:0:
181,174,2752,2,0,P|208:235|297:211,1,150.000000894069,2|2,2:0|2:0,0:0:0:0:
319,196,3454,1,2,2:0:0:0:
319,196,3630,6,0,P|384:156|434:162,1,100.000000596046,2|2,2:0|2:0,0:0:0:0:
495,199,4331,2,0,L|488:280,2,50.000000298023,2|2|2,2:0|2:0|2:0,0:0:0:0:
497,148,4858,2,0,P|494:98|484:49,1,100.000000596046,2|2,2:0|2:0,0:0:0:0:
386,28,5559,1,2,2:0:0:0:
386,28,5735,2,0,P|302:20|180:60,1,200.000001192092,2|12,2:0|2:0,0:0:0:0:
121,123,6787,6,0,L|130:172,1,50.000000298023,8|0,2:0|0:0,0:0:0:0:
139,221,7138,2,0,L|89:230,2,50.000000298023,4|4|8,3:0|3:0|2:0,0:0:0:0:
149,270,7665,1,4,3:0:0:0:
205,351,8015,2,0,L|259:337,1,50.000000298023,4|8,3:0|2:0,0:0:0:0:
303,333,8366,2,0,P|364:334|428:347,1,100.000000596046,4|4,3:0|3:0,0:0:0:0:
451,349,8893,2,0,L|468:302,1,50.000000298023,8|12,2:0|3:2,0:0:0:0:
485,254,9244,6,0,P|489:205|472:119,1,100.000000596046,4|8,3:0|2:0,0:0:0:0:
404,92,9945,2,0,L|417:42,2,50.000000298023,4|8|4,3:0|2:0|3:0,0:0:0:0:
389,140,10472,2,0,L|358:246,1,100.000000596046,4|8,3:0|0:0,0:0:0:0:
348,284,10998,2,0,L|316:404,2,100.000000596046,8|12|12,0:0|0:0|0:0,0:0:0:0:
252,253,12051,6,0,P|203:240|162:182,1,100.000000596046,4|8,1:0|2:0,0:0:0:0:
152,157,12577,1,0,0:0:0:0:
152,157,12752,2,0,L|206:133,2,50.000000298023,4|4|8,3:0|3:0|2:0,0:0:0:0:
101,157,13279,1,4,3:0:0:0:
16,210,13630,2,0,L|21:259,1,50.000000298023,4|8,3:0|2:0,0:0:0:0:
29,308,13980,2,0,P|56:349|100:372,1,100.000000596046,4|4,3:0|3:0,0:0:0:0:
150,372,14507,2,0,L|201:372,1,50.000000298023,8|4,2:0|3:0,0:0:0:0:
250,372,14858,5,4,1:0:0:0:
323,305,15208,1,4,1:2:0:0:
321,206,15559,2,0,L|270:206,2,50.000000298023,4|8|4,3:0|2:0|3:0,0:0:0:0:
371,206,16086,2,0,P|415:183|442:142,1,100.000000596046,8|2,2:0|0:0,0:0:0:0:
442,91,16612,2,0,P|415:49|371:26,1,100.000000596046,8|4,2:0|3:0,0:0:0:0:
178,78,17665,5,4,1:0:0:0:
195,176,18015,1,4,1:2:0:0:
209,275,18366,2,0,L|179:339,2,50.000000298023,4|4|8,3:0|3:0|2:0,0:0:0:0:
258,264,18893,2,0,L|354:292,1,100.000000596046,4|4,3:0|3:0,0:0:0:0:
403,300,19419,1,8,2:0:0:0:
403,300,19594,2,0,P|424:249|433:194,1,100.000000596046,4|4,3:0|3:0,0:0:0:0:
421,155,20121,1,8,2:0:0:0:
421,54,20472,6,0,P|471:68|509:107,2,100.000000596046,4|4|4,1:0|1:2|3:0,0:0:0:0:
370,54,21349,2,0,L|319:54,1,50.000000298023,8|4,2:0|3:0,0:0:0:0:
269,54,21700,1,12,0:0:0:0:
199,126,22051,2,0,L|157:98,2,50.000000298023,6|6|12,3:0|3:0|3:0,0:0:0:0:
243,149,22577,2,0,L|295:149,1,50.000000298023,8|4,3:0|3:0,0:0:0:0:
337,125,22928,2,0,L|379:98,1,50.000000298023,8|4,3:0|3:0,0:0:0:0:
256,192,23279,12,12,24682,2:0:0:0:
370,317,26086,6,0,L|387:208,1,100.000000596046,4|8,1:0|2:0,0:0:0:0:
405,120,26787,2,0,L|459:71,2,50.000000298023,4|4|8,3:0|3:0|2:0,0:0:0:0:
360,96,27314,2,0,P|283:73|243:77,1,100.000000596046,4|4,3:0|3:0,0:0:0:0:
214,79,27840,2,0,L|176:112,1,50.000000298023,8|4,0:0|3:0,0:0:0:0:
138,144,28191,2,0,L|104:106,2,50.000000298023,4|10|4,3:0|2:0|3:0,0:0:0:0:
138,194,28717,1,10,2:0:0:0:
138,194,28893,6,0,P|149:245|181:288,1,100.000000596046,4|8,1:0|2:0,0:0:0:0:
276,283,29594,2,0,L|293:338,2,50.000000298023,4|4|8,3:0|3:0|2:0,0:0:0:0:
298,237,30121,2,0,P|375:214|415:218,1,100.000000596046,4|4,3:0|3:0,0:0:0:0:
435,187,30647,2,0,L|449:139,1,50.000000298023,8|4,2:0|3:0,0:0:0:0:
429,93,30998,2,0,P|340:58|212:78,1,200.000001192092,4|8,3:0|2:0,0:0:0:0:
170,141,32051,5,4,1:0:0:0:
