osu file format v14

[General]
AudioFilename: audio.mp3
AudioLeadIn: 0
PreviewTime: 24796
Countdown: 0
SampleSet: Normal
StackLeniency: 0.7
Mode: 1
LetterboxInBreaks: 0
WidescreenStoryboard: 0

[Editor]
Bookmarks: 17665
DistanceSpacing: 1.6
BeatDivisor: 4
GridSize: 8
TimelineZoom: 4.099998

[Metadata]
Title:My Life As A Teenage Robot (TV Size)
TitleUnicode:My Life As A Teenage Robot (TV Size)
Artist:Jennifer Karr
ArtistUnicode:Jennifer Karr
Creator:radar
Version:XJ-9
Source:My Life As A Teenage Robot
Tags:hivie nickelodeon jenny wakeman rob renzetti teen nicktoons rock english Peter Lurye MLAATR animation cartoon opening
BeatmapID:2881942
BeatmapSetID:1396357

[Difficulty]
HPDrainRate:8
CircleSize:5
OverallDifficulty:5
ApproachRate:5
SliderMultiplier:1.4
SliderTickRate:1

[Events]
//Background and Video events
0,0,"5 o clock.png",0,0
Video,-27,"jenny.mp4"
//Break Periods
//Storyboard Layer 0 (Background)
//Storyboard Layer 1 (Fail)
//Storyboard Layer 2 (Pass)
//Storyboard Layer 3 (Foreground)
//Storyboard Layer 4 (Overlay)
//Storyboard Sound Samples

[TimingPoints]
849,350.877192982456,4,1,0,75,1,0
6375,-100,4,1,0,90,0,0
26112,-100,4,1,0,90,0,1
31726,-100,4,1,0,90,0,0
32077,-100,4,1,0,90,0,1
32164,-100,4,1,0,70,0,1
33129,-100,4,1,0,65,0,1
33831,-100,4,1,0,50,0,1
34182,-100,4,1,0,35,0,1
34533,-100,4,1,0,20,0,0

[HitObjects]
414,314,848,5,8,0:0:0:0:
387,321,1199,1,0,0:0:0:0:
380,305,1375,1,0,0:0:0:0:
372,310,1726,1,8,0:0:0:0:
391,298,1901,1,0,0:0:0:0:
400,324,2077,1,8,0:0:0:0:
400,298,2427,1,0,0:0:0:0:
400,298,2603,1,0,0:0:0:0:
400,298,2778,1,8,0:0:0:0:
400,298,3305,1,0,0:0:0:0:
390,294,3656,1,8,0:0:0:0:
390,294,4006,1,8,0:0:0:0:
390,294,4357,1,0,0:0:0:0:
390,294,4533,1,8,0:0:0:0:
390,294,4708,1,8,0:0:0:0:
368,309,4884,1,0,0:0:0:0:
363,292,5234,1,0,0:0:0:0:
363,292,5585,1,0,0:0:0:0:
363,292,5761,1,0,0:0:0:0:
380,297,5936,1,8,0:0:0:0:
380,297,6112,1,8,0:0:0:0:
376,305,6199,1,8,0:0:0:0:
380,297,6287,1,8,0:0:0:0:
383,76,6463,1,4,0:0:0:0:
387,308,6813,1,8,0:0:0:0:
366,305,6989,1,8,0:0:0:0:
387,308,7164,1,0,0:0:0:0:
366,305,7340,1,0,0:0:0:0:
387,308,7515,1,8,0:0:0:0:
387,308,7691,1,0,0:0:0:0:
366,305,8217,1,0,0:0:0:0:
387,308,8392,1,8,0:0:0:0:
352,298,8743,1,0,0:0:0:0:
383,292,8919,1,8,0:0:0:0:
383,292,9094,1,0,0:0:0:0:
383,292,9270,1,8,0:0:0:0:
381,281,9620,1,8,0:0:0:0:
381,281,9971,1,0,0:0:0:0:
366,305,10147,1,0,0:0:0:0:
366,305,10322,1,8,0:0:0:0:
366,305,10498,1,0,0:0:0:0:
362,309,11024,1,0,0:0:0:0:
417,54,11375,1,12,0:0:0:0:
374,316,11726,1,8,0:0:0:0:
388,323,11813,1,8,0:0:0:0:
374,316,11901,1,8,0:0:0:0:
387,83,12077,1,4,0:0:0:0:
371,308,12427,1,8,0:0:0:0:
376,301,12603,1,0,0:0:0:0:
371,308,12778,1,0,0:0:0:0:
376,301,12954,1,8,0:0:0:0:
371,308,13129,1,8,0:0:0:0:
371,308,13305,1,0,0:0:0:0:
371,308,13656,1,0,0:0:0:0:
371,308,13831,1,0,0:0:0:0:
371,308,14006,1,8,0:0:0:0:
371,308,14357,1,8,0:0:0:0:
381,314,14533,1,8,0:0:0:0:
371,308,14708,1,0,0:0:0:0:
381,314,14884,1,8,0:0:0:0:
378,305,15234,1,8,0:0:0:0:
378,305,15585,1,0,0:0:0:0:
376,301,15761,1,0,0:0:0:0:
378,305,15936,1,8,0:0:0:0:
378,305,16112,1,0,0:0:0:0:
375,295,16638,1,8,0:0:0:0:
374,299,16989,1,0,0:0:0:0:
375,295,17164,1,8,0:0:0:0:
374,299,17340,1,0,0:0:0:0:
374,299,17515,1,0,0:0:0:0:
118,82,17691,5,12,0:0:0:0:
139,315,18041,1,8,0:0:0:0:
139,315,18392,1,0,0:0:0:0:
139,315,18568,1,0,0:0:0:0:
139,315,18743,1,8,0:0:0:0:
139,315,18919,1,0,0:0:0:0:
139,315,19270,1,0,0:0:0:0:
139,315,19445,1,0,0:0:0:0:
140,308,19620,1,8,0:0:0:0:
127,301,19971,1,8,0:0:0:0:
137,303,20147,1,0,0:0:0:0:
149,298,20498,1,8,0:0:0:0:
146,295,20848,1,8,0:0:0:0:
149,298,21199,1,0,0:0:0:0:
149,298,21375,1,8,0:0:0:0:
148,290,21550,1,0,0:0:0:0:
148,47,21726,1,12,0:0:0:0:
160,287,22077,1,8,0:0:0:0:
160,287,22164,1,8,0:0:0:0:
160,287,22252,1,8,0:0:0:0:
162,287,22427,1,0,0:0:0:0:
160,287,22603,1,8,0:0:0:0:
160,287,22691,1,8,0:0:0:0:
163,271,22778,1,8,0:0:0:0:
160,287,22954,1,8,0:0:0:0:
103,32,23305,1,4,0:0:0:0:
165,290,23656,1,8,0:0:0:0:
165,290,23831,1,8,0:0:0:0:
157,280,24006,1,0,0:0:0:0:
157,280,24182,1,0,0:0:0:0:
157,280,24357,1,8,0:0:0:0:
157,280,24533,1,0,0:0:0:0:
160,27,24708,1,4,0:0:0:0:
131,94,26112,1,12,0:0:0:0:
155,291,26463,1,8,0:0:0:0:
155,291,26638,1,0,0:0:0:0:
155,291,26813,1,8,0:0:0:0:
155,291,26901,1,8,0:0:0:0:
155,291,26989,1,8,0:0:0:0:
155,291,27164,1,0,0:0:0:0:
155,291,27340,1,0,0:0:0:0:
155,291,27691,1,8,0:0:0:0:
174,276,27866,1,0,0:0:0:0:
174,275,27954,1,0,0:0:0:0:
165,288,28041,1,0,0:0:0:0:
165,288,28217,1,8,0:0:0:0:
165,288,28392,1,8,0:0:0:0:
148,79,28919,1,4,0:0:0:0:
113,283,29270,1,8,0:0:0:0:
113,283,29445,1,8,0:0:0:0:
113,283,29620,1,0,0:0:0:0:
113,283,29708,1,0,0:0:0:0:
113,283,29796,1,0,0:0:0:0:
113,283,29971,1,8,0:0:0:0:
113,283,30147,1,0,0:0:0:0:
113,283,30498,1,0,0:0:0:0:
113,283,30673,1,8,0:0:0:0:
113,283,30761,1,8,0:0:0:0:
113,283,30848,1,8,0:0:0:0:
113,283,31024,1,0,0:0:0:0:
113,283,31199,1,8,0:0:0:0:
93,323,31287,1,8,0:0:0:0:
113,283,31375,1,8,0:0:0:0:
113,283,31463,1,8,0:0:0:0:
113,283,31550,1,8,0:0:0:0:
138,81,32077,1,12,0:0:0:0:
256,192,32252,12,0,34533,0:0:0:0:
