osu file format v14

[General]
AudioFilename: audio.mp3
AudioLeadIn: 0
PreviewTime: 24796
Countdown: 0
SampleSet: Normal
StackLeniency: 0.7
Mode: 1
LetterboxInBreaks: 0
WidescreenStoryboard: 1

[Editor]
Bookmarks: 17665
DistanceSpacing: 1.6
BeatDivisor: 4
GridSize: 8
TimelineZoom: 2.1

[Metadata]
Title:My Life As A Teenage Robot (TV Size)
TitleUnicode:My Life As A Teenage Robot (TV Size)
Artist:Jennifer Karr
ArtistUnicode:Jennifer Karr
Creator:radar
Version:Kantan
Source:My Life As A Teenage Robot
Tags:hivie nickelodeon jenny wakeman rob renzetti teen nicktoons rock english Peter Lurye MLAATR animation cartoon opening
BeatmapID:2881941
BeatmapSetID:1396357

[Difficulty]
HPDrainRate:10
CircleSize:5
OverallDifficulty:3
ApproachRate:5
SliderMultiplier:1.4
SliderTickRate:1

[Events]
//Background and Video events
0,0,"5 o clock.png",0,0
Video,-27,"jenny.mp4"
//Break Periods
//Storyboard Layer 0 (Background)
//Storyboard Layer 1 (Fail)
//Storyboard Layer 2 (Pass)
//Storyboard Layer 3 (Foreground)
//Storyboard Layer 4 (Overlay)
//Storyboard Sound Samples

[TimingPoints]
849,350.877192982456,4,1,0,75,1,0
6375,-100,4,1,0,90,0,0
26112,-100,4,1,0,90,0,1
31726,-100,4,1,0,90,0,0
32077,-100,4,1,0,90,0,1
32164,-100,4,1,0,70,0,1
33129,-100,4,1,0,65,0,1
33831,-100,4,1,0,50,0,1
34182,-100,4,1,0,35,0,1
34533,-100,4,1,0,20,0,0

[HitObjects]
377,305,848,5,8,0:0:0:0:
387,293,1726,1,8,0:0:0:0:
387,293,2077,1,8,0:0:0:0:
387,293,2778,1,0,0:0:0:0:
377,289,3656,1,8,0:0:0:0:
377,289,4357,1,0,0:0:0:0:
377,289,4884,1,8,0:0:0:0:
396,74,6463,5,4,0:0:0:0:
391,323,7164,1,8,0:0:0:0:
373,317,7691,1,8,0:0:0:0:
383,317,8392,1,0,0:0:0:0:
364,305,8919,1,8,0:0:0:0:
364,305,9270,1,0,0:0:0:0:
364,305,9971,1,0,0:0:0:0:
357,304,10498,1,8,0:0:0:0:
421,294,11726,1,8,0:0:0:0:
390,67,12077,5,4,0:0:0:0:
395,303,12778,1,8,0:0:0:0:
399,317,13305,1,0,0:0:0:0:
403,297,14006,1,8,0:0:0:0:
422,285,14533,1,8,0:0:0:0:
422,285,14884,1,0,0:0:0:0:
422,285,15585,1,0,0:0:0:0:
429,284,16112,1,8,0:0:0:0:
403,293,17340,1,8,0:0:0:0:
116,74,17691,5,4,0:0:0:0:
148,305,18392,1,8,0:0:0:0:
148,305,18919,1,0,0:0:0:0:
148,305,19620,1,0,0:0:0:0:
148,305,20147,1,8,0:0:0:0:
148,305,20498,1,0,0:0:0:0:
148,305,21199,1,0,0:0:0:0:
146,0,21726,1,12,0:0:0:0:
159,286,22252,1,0,0:0:0:0:
159,286,22603,1,0,0:0:0:0:
159,286,22954,1,0,0:0:0:0:
159,286,23305,1,8,0:0:0:0:
176,286,24357,1,8,0:0:0:0:
176,286,24708,1,0,0:0:0:0:
131,66,26112,1,12,0:0:0:0:
148,308,26463,1,0,0:0:0:0:
148,308,26813,1,0,0:0:0:0:
148,308,27340,1,8,0:0:0:0:
157,294,27866,1,0,0:0:0:0:
157,294,28217,1,8,0:0:0:0:
113,26,28919,1,4,0:0:0:0:
148,285,29270,1,8,0:0:0:0:
148,285,29620,1,8,0:0:0:0:
148,285,30147,1,0,0:0:0:0:
148,285,30673,1,8,0:0:0:0:
148,285,31024,1,8,0:0:0:0:
115,48,32077,1,12,0:0:0:0:
256,192,32252,12,0,34533,0:0:0:0:
