osu file format v14

[General]
AudioFilename: audio.mp3
AudioLeadIn: 0
PreviewTime: 24708
Countdown: 0
SampleSet: Soft
StackLeniency: 0.5
Mode: 0
LetterboxInBreaks: 0
WidescreenStoryboard: 1

[Editor]
DistanceSpacing: 1.2
BeatDivisor: 4
GridSize: 32
TimelineZoom: 1.9

[Metadata]
Title:My Life As A Teenage Robot (TV Size)
TitleUnicode:My Life As A Teenage Robot (TV Size)
Artist:Jennifer Karr
ArtistUnicode:Jennifer Karr
Creator:HEAVENLY MOON
Version:Insane
Source:My Life As A Teenage Robot
Tags:ajt Apo11o Apollo mrowswares ginjani yokespai nickelodeon jenny wakeman rob renzetti teen nicktoons rock english Peter Lurye MLAATR animation cartoon opening
BeatmapID:3499903
BeatmapSetID:1680065

[Difficulty]
HPDrainRate:5
CircleSize:5
OverallDifficulty:8
ApproachRate:7.5
SliderMultiplier:1.4
SliderTickRate:1

[Events]
//Background and Video events
0,0,"ROBOT.png",0,0
Video,250,"00723.mp4"
//Break Periods
//Storyboard Layer 0 (Background)
//Storyboard Layer 1 (Fail)
//Storyboard Layer 2 (Pass)
//Storyboard Layer 3 (Foreground)
//Storyboard Layer 4 (Overlay)
//Storyboard Sound Samples

[TimingPoints]
131,350.877192982456,4,2,1,40,1,0
833,350.877192982456,4,2,1,40,1,0
1796,-100,4,2,0,5,0,0
2060,-100,4,2,0,40,0,0
2147,-100,4,2,0,5,0,0
2235,-100,4,2,0,40,0,0
4603,-100,4,2,0,5,0,0
4867,-100,4,2,0,40,0,0
4954,-100,4,2,0,5,0,0
5218,-100,4,2,0,40,0,0
6446,-76.9230769230769,4,2,0,70,0,0
26096,-71.4285714285714,4,2,0,80,0,1
32061,-71.4285714285714,4,2,0,80,0,0

[Colours]
Combo1 : 0,128,192
Combo2 : 201,201,146

[HitObjects]
12,73,833,6,0,P|67:34|224:73,1,210,6|0,0:0|0:0,0:0:0:0:
184,228,1710,2,0,L|190:185,1,35,2|0,3:0|0:0,0:0:0:0:
166,374,2061,2,0,L|174:319,1,35,2|0,3:0|0:0,0:0:0:0:
18,279,2411,1,2,0:0:0:0:
83,248,2587,1,0,0:0:0:0:
150,275,2762,2,0,L|306:259,1,140,2|0,0:0|0:0,0:0:0:0:
373,253,3289,1,2,0:0:0:0:
381,336,3464,1,0,0:0:0:0:
373,253,3640,6,0,P|355:163|392:27,1,210,2|0,0:0|0:0,0:0:0:0:
510,56,4517,2,0,L|452:52,1,35,2|0,3:0|0:0,0:0:0:0:
380,49,4868,2,0,L|335:47,1,35,2|0,3:0|0:0,0:0:0:0:
251,44,5218,1,2,3:0:0:0:
252,131,5394,1,0,0:0:0:0:
252,131,5569,1,2,0:0:0:0:
167,127,5745,1,2,0:0:0:0:
169,43,5920,1,0,1:0:0:0:
134,36,6008,1,0,1:0:0:0:
100,41,6096,1,2,1:2:0:0:
69,58,6183,1,0,1:0:0:0:
46,84,6271,1,2,1:2:0:0:
33,116,6359,1,0,1:0:0:0:
33,152,6447,6,0,P|51:244|64:342,1,181.999991668702,4|0,3:0|1:0,0:0:0:0:
138,372,6973,1,2,0:0:0:0:
138,372,7148,2,0,P|155:314|169:288,1,90.9999958343508,2|0,3:2|0:0,0:0:0:0:
300,286,7499,2,0,P|328:339|336:367,2,90.9999958343508,0|2|0,1:0|0:0|3:0,0:0:0:0:
237,218,8025,2,0,P|243:161|256:128,1,90.9999958343508,2|0,2:0|0:0,0:0:0:0:
325,41,8376,1,2,0:0:0:0:
139,41,8552,2,0,L|30:41,1,90.9999958343508,0|0,3:0|0:0,0:0:0:0:
47,189,8903,2,0,L|146:189,1,90.9999958343508,0|0,1:0|0:0,0:0:0:0:
311,190,9254,6,0,P|390:211|433:324,2,181.999991668702,0|0|0,3:0|1:0|3:0,0:0:0:0:
270,287,10131,1,2,0:0:0:0:
189,288,10306,1,0,1:0:0:0:
161,190,10482,2,0,P|82:211|39:324,2,181.999991668702,2|2|0,0:0|0:0|0:0,0:0:0:0:
270,287,11359,2,0,L|270:389,1,90.9999958343508,2|0,3:2|1:0,0:0:0:0:
389,217,11710,1,2,1:2:0:0:
389,189,11797,1,0,1:0:0:0:
389,161,11885,1,2,1:2:0:0:
390,134,11973,1,0,1:0:0:0:
389,108,12061,6,0,L|191:107,1,181.999991668702,4|0,1:0|1:0,0:0:0:0:
112,77,12587,1,2,0:0:0:0:
20,108,12762,2,0,L|22:11,1,90.9999958343508,0|2,3:0|0:0,0:0:0:0:
111,172,13113,1,0,1:0:0:0:
207,107,13289,2,0,P|268:123|388:85,1,181.999991668702,2|0,0:0|0:0,0:0:0:0:
282,232,13815,1,0,3:0:0:0:
282,232,13990,2,0,P|215:219|106:264,1,181.999991668702,2|0,0:0|0:0,0:0:0:0:
20,305,14517,1,0,1:0:0:0:
20,220,14692,1,0,3:0:0:0:
20,130,14868,6,0,L|115:129,1,90.9999958343508,0|0,3:0|0:0,0:0:0:0:
345,128,15218,2,0,L|250:128,1,90.9999958343508,0|0,1:0|0:0,0:0:0:0:
183,130,15569,1,0,3:0:0:0:
145,197,15745,1,2,0:0:0:0:
194,251,15920,1,0,1:0:0:0:
255,205,16096,2,0,P|346:270|342:362,1,181.999991668702,2|0,0:0|0:0,0:0:0:0:
256,379,16622,1,0,1:2:0:0:
195,327,16797,1,2,0:0:0:0:
118,377,16973,2,0,L|23:377,1,90.9999958343508,0|0,3:0|0:0,0:0:0:0:
108,261,17324,1,0,1:0:0:0:
38,202,17499,1,0,1:0:0:0:
91,131,17675,6,0,P|145:105|277:125,1,181.999991668702,4|0,1:0|1:0,0:0:0:0:
465,239,18376,1,0,3:0:0:0:
463,153,18552,2,0,L|461:55,1,90.9999958343508,2|0,0:0|1:0,0:0:0:0:
332,0,18903,2,0,L|334:186,1,181.999991668702,2|0,0:0|0:0,0:0:0:0:
335,296,19429,1,0,1:0:0:0:
215,296,19604,2,0,L|215:113,1,181.999991668702,2|0,0:0|0:0,0:0:0:0:
217,10,20131,2,0,L|114:9,1,90.9999958343508,0|0,1:0|0:0,0:0:0:0:
42,64,20482,6,0,P|8:132|40:260,1,181.999991668702,0|0,3:0|1:0,0:0:0:0:
107,264,21008,1,0,0:0:0:0:
22,234,21183,2,0,P|22:311|18:332,1,90.9999958343508,0|0,3:0|0:0,0:0:0:0:
116,381,21534,1,0,1:0:0:0:
189,300,21710,1,4,1:0:0:0:
188,1,22061,2,0,L|236:2,1,45.4999979171754,0|0,1:0|3:0,0:0:0:0:
237,65,22236,2,0,L|177:65,1,45.4999979171754,0|0,1:0|3:0,0:0:0:0:
192,129,22411,1,2,0:0:0:0:
195,218,22587,1,0,1:0:0:0:
195,218,22675,1,0,1:0:0:0:
195,218,22762,1,0,3:0:0:0:
275,132,22938,1,0,1:0:0:0:
276,348,23289,6,0,P|372:348|436:284,1,181.999991668702,4|0,1:0|1:0,0:0:0:0:
432,209,23815,1,2,0:0:0:0:
432,124,23990,2,0,P|382:114|339:128,1,90.9999958343508,0|0,3:0|0:0,0:0:0:0:
164,124,24341,2,0,P|214:134|257:120,1,90.9999958343508,0|0,1:0|1:0,0:0:0:0:
341,0,24692,1,4,1:0:0:0:
256,192,24780,12,0,25920,0:0:0:0:
17,381,26096,6,0,P|15:310|27:275,1,97.9999970092774,4|0,1:0|0:0,0:0:0:0:
229,285,26447,2,0,P|231:356|219:391,1,97.9999970092774,0|0,1:0|0:0,0:0:0:0:
128,285,26797,1,0,3:0:0:0:
196,192,26973,1,2,0:0:0:0:
129,87,27148,1,0,1:0:0:0:
0,192,27324,2,0,L|203:192,1,195.999994018555,2|0,0:0|0:0,0:0:0:0:
289,264,27850,1,0,1:0:0:0:
384,196,28025,1,2,0:0:0:0:
288,95,28201,2,0,L|406:96,1,97.9999970092774,0|0,3:0|0:0,0:0:0:0:
512,14,28552,2,0,L|408:14,1,97.9999970092774,0|0,1:0|1:0,0:0:0:0:
226,14,28903,6,0,P|202:194|215:209,1,195.999994018555,4|0,1:0|1:0,0:0:0:0:
330,190,29429,1,2,0:0:0:0:
199,190,29604,2,0,P|203:250|184:289,1,97.9999970092774,0|2,3:0|0:0,0:0:0:0:
95,358,29955,1,0,1:0:0:0:
8,283,30131,2,0,L|10:75,1,195.999994018555,2|0,0:0|0:0,0:0:0:0:
180,6,30657,2,0,P|163:70|180:126,1,97.9999970092774,0|0,1:0|0:0,0:0:0:0:
299,100,31008,1,2,0:0:0:0:
444,100,31183,1,0,1:0:0:0:
443,132,31271,1,0,1:0:0:0:
443,165,31359,1,0,1:0:0:0:
443,198,31447,1,0,1:0:0:0:
443,231,31534,1,0,1:0:0:0:
443,302,31710,1,2,3:1:0:0:
256,384,32061,5,12,1:0:0:0:
