osu file format v14

[General]
AudioFilename: audio.mp3
AudioLeadIn: 0
PreviewTime: 274
Countdown: 0
SampleSet: Soft
StackLeniency: 0.7
Mode: 0
LetterboxInBreaks: 0
WidescreenStoryboard: 1

[Editor]
Bookmarks: 12061,23289,28903,35131
DistanceSpacing: 0.9
BeatDivisor: 4
GridSize: 8
TimelineZoom: 1.82

[Metadata]
Title:My Life As A Teenage Robot (TV Size)
TitleUnicode:My Life As A Teenage Robot (TV Size)
Artist:Jennifer Karr
ArtistUnicode:Jennifer Karr
Creator:Aranel
Version:Xandit & Aakki's Normal
Source:My Life As A Teenage Robot
Tags:Nickelodeon Animation TV series pop rock cartoon nick english jenny wakeman peter lurye SirMirai cacturne Le Mirai Le_Mirai xandit aakki
BeatmapID:2963010
BeatmapSetID:1428641

[Difficulty]
HPDrainRate:3.5
CircleSize:3
OverallDifficulty:4
ApproachRate:5
SliderMultiplier:1.1
SliderTickRate:1

[Events]
//Background and Video events
0,0,"bgers.jpeg",0,0
Video,250,"video (3).mp4"
//Break Periods
//Storyboard Layer 0 (Background)
//Storyboard Layer 1 (Fail)
//Storyboard Layer 2 (Pass)
//Storyboard Layer 3 (Foreground)
//Storyboard Layer 4 (Overlay)
//Storyboard Sound Samples

[TimingPoints]
131,350.877192982456,4,2,1,60,1,0
833,350.877192982456,4,2,1,60,1,0
833,-111.111111111111,4,2,1,60,0,0
12061,-100,4,2,1,60,0,0
21710,-100,4,2,1,60,0,0
23289,-100,4,2,1,60,0,0
24692,-100,4,2,1,60,0,0
26096,-111.111111111111,4,2,1,60,0,1
31710,-111.111111111111,4,2,1,60,0,0
32061,-133.333333333333,4,2,1,60,0,1
32148,-111.111111111111,4,2,1,60,0,0
32411,-125,4,2,1,62,0,0
32762,-125,4,2,1,54,0,0
33113,-125,4,2,1,46,0,0
33464,-125,4,2,1,38,0,0
33815,-125,4,2,1,30,0,0
34166,-125,4,2,1,22,0,0
34517,-125,4,2,1,14,0,0
34780,-125,4,2,1,11,0,0
34955,-125,4,2,1,8,0,0
35131,-111.111111111111,4,2,1,5,0,0

[Colours]
Combo1 : 255,176,98
Combo2 : 60,141,172
Combo3 : 128,128,128
Combo4 : 117,0,0

[HitObjects]
111,21,833,6,0,L|124:139,1,98.9999969787599,6|2,0:0|0:0,0:0:0:0:
99,158,1359,1,2,0:0:0:0:
154,227,1710,1,2,0:0:0:0:
125,311,2061,6,0,P|175:286|233:295,1,98.9999969787599,2|2,0:0|0:0,0:0:0:0:
295,331,2762,2,0,L|405:339,1,98.9999969787599,2|2,0:0|0:0,0:0:0:0:
434,318,3289,1,2,0:0:0:0:
486,246,3640,6,0,B|498:196|498:196|486:148,1,98.9999969787599,2|2,0:0|0:0,0:0:0:0:
433,78,4341,1,2,0:0:0:0:
433,78,4517,1,2,0:0:0:0:
353,37,4868,2,0,L|245:32,1,98.9999969787599,2|2,0:0|0:0,0:0:0:0:
193,97,5570,1,2,0:0:0:0:
193,97,5745,1,2,0:0:0:0:
247,167,6096,2,0,L|239:225,1,49.4999984893799,10|10,0:0|0:0,0:0:0:0:
215,252,6447,6,0,P|231:303|214:345,1,98.9999969787599,6|10,3:2|0:0,0:0:0:0:
177,362,6973,1,2,0:0:0:0:
177,362,7148,2,0,L|117:352,1,49.4999984893799,2|2,3:2|0:0,0:0:0:0:
94,334,7499,1,10,0:0:0:0:
94,334,7675,2,0,L|82:220,1,98.9999969787599,2|2,0:0|0:0,0:0:0:0:
78,195,8201,1,10,0:0:0:0:
78,195,8376,1,2,0:0:0:0:
90,111,8727,1,2,0:0:0:0:
90,111,8903,2,0,L|147:106,1,49.4999984893799,10|2,0:0|0:0,0:0:0:0:
172,76,9254,6,0,P|228:47|281:59,1,98.9999969787599,2|10,3:2|0:0,0:0:0:0:
341,90,9955,2,0,L|394:80,2,49.4999984893799,2|2|10,3:2|0:0|0:0,0:0:0:0:
309,121,10482,2,0,P|292:177|311:217,1,98.9999969787599,2|2,0:0|0:0,0:0:0:0:
349,226,11008,1,8,0:0:0:0:
319,311,11359,2,0,L|255:302,1,49.4999984893799,14|8,0:0|0:0,0:0:0:0:
230,284,11710,2,0,L|166:293,1,49.4999984893799,10|10,0:0|0:0,0:0:0:0:
138,316,12061,5,6,3:2:0:0:
63,235,12411,2,0,P|58:205|69:178,1,55,10|2,0:0|0:0,0:0:0:0:
112,152,12762,2,0,P|120:126|114:99,1,55,2|2,3:2|0:0,0:0:0:0:
83,53,13113,1,10,0:0:0:0:
83,53,13289,1,2,0:0:0:0:
189,23,13640,2,0,P|226:14|246:17,1,55,2|10,0:0|0:0,0:0:0:0:
284,51,13990,2,0,B|343:37|334:73|398:61,1,110,2|2,0:0|0:0,0:0:0:0:
446,54,14517,2,0,P|469:84|475:115,1,55,10|2,0:0|3:2,0:0:0:0:
466,154,14868,6,0,L|455:280,1,110,2|10,3:2|0:0,0:0:0:0:
356,309,15569,2,0,P|313:308|298:301,1,55,2|2,3:2|0:0,0:0:0:0:
257,271,15920,1,10,0:0:0:0:
257,271,16096,2,0,B|230:217|230:217|259:167,1,110,2|0,0:0|3:2,0:0:0:0:
303,147,16622,2,0,B|327:104|327:104|300:50,1,110,8|0,0:0|3:2,0:0:0:0:
194,79,17324,2,0,P|144:88|126:89,1,55,8|8,0:0|0:0,0:0:0:0:
114,137,17675,6,0,B|152:171|152:171|225:159,1,110,6|10,3:2|0:0,0:0:0:0:
313,122,18376,1,2,3:2:0:0:
313,122,18552,2,0,P|344:131|369:131,1,55,2|10,0:0|0:0,0:0:0:0:
418,111,18903,1,2,0:0:0:0:
386,216,19254,2,0,P|404:253|410:275,1,55,2|10,0:0|0:0,0:0:0:0:
437,311,19604,1,2,0:0:0:0:
348,365,19955,1,2,0:0:0:0:
348,365,20131,2,0,L|269:353,1,55,10|0,0:0|3:2,0:0:0:0:
250,322,20482,6,0,B|196:328|196:328|198:333|198:333|133:342,2,110,2|10|2,3:2|0:0|3:2,0:0:0:0:
279,275,21359,2,0,P|292:227|287:210,1,55,10|8,0:3|0:0,0:0:0:0:
318,175,21710,2,0,P|263:155|202:129,1,110,6|8,3:2|0:0,0:0:0:0:
176,96,22236,1,10,0:0:0:0:
65,96,22587,1,10,0:0:0:0:
11,191,22938,2,0,P|14:222|24:250,1,55,10|2,0:0|0:0,0:0:0:0:
59,284,23289,5,6,3:2:0:0:
100,315,23464,2,0,L|165:304,1,55,2|8,0:0|0:0,0:0:0:0:
180,263,23815,2,0,P|234:290|287:276,1,110,2|2,0:0|3:2,0:0:0:0:
303,236,24341,2,0,L|368:245,1,55,10|10,0:0|0:0,0:0:0:0:
397,272,24692,1,6,3:2:0:0:
139,38,26096,5,6,3:2:0:0:
108,121,26447,2,0,P|112:150|123:174,1,49.4999984893799,10|2,0:0|0:0,0:0:0:0:
157,202,26797,1,2,3:2:0:0:
157,202,26973,2,0,P|153:231|141:255,1,49.4999984893799,2|8,0:0|0:0,0:0:0:0:
112,280,27324,6,0,L|218:298,1,98.9999969787599,2|2,0:0|0:0,0:0:0:0:
252,308,27850,1,10,0:0:0:0:
340,301,28201,2,0,L|403:290,1,49.4999984893799,2|2,3:2|3:2,0:0:0:0:
430,309,28552,2,0,L|441:246,1,49.4999984893799,8|10,0:0|0:0,0:0:0:0:
448,216,28903,5,4,3:2:0:0:
400,141,29254,2,0,P|404:112|415:88,1,49.4999984893799,10|2,0:0|0:0,0:0:0:0:
443,62,29604,1,2,3:2:0:0:
443,62,29780,2,0,P|439:33|428:9,1,49.4999984893799,2|8,0:0|0:0,0:0:0:0:
387,4,30131,6,0,L|281:22,1,98.9999969787599,2|2,0:0|0:0,0:0:0:0:
245,28,30657,1,10,0:0:0:0:
205,107,31008,2,0,P|209:131|216:156,1,49.4999984893799,2|10,0:0|3:2,0:0:0:0:
237,200,31359,1,8,0:0:0:0:
237,200,31534,1,8,0:0:0:0:
339,244,32061,6,0,B|394:190|471:230|471:230|433:142|491:70|491:70|423:78|386:31|386:31|315:126|205:107,1,639.375024390222,6|0,3:2|0:0,0:0:0:0:
