osu file format v14

[General]
AudioFilename: audio.mp3
AudioLeadIn: 0
PreviewTime: 274
Countdown: 0
SampleSet: Soft
StackLeniency: 0.7
Mode: 0
LetterboxInBreaks: 0
WidescreenStoryboard: 1

[Editor]
Bookmarks: 735,6349,11963,17577,20384,25998,28805,31963
DistanceSpacing: 1.2
BeatDivisor: 8
GridSize: 4
TimelineZoom: 3.019999

[Metadata]
Title:My Life As A Teenage Robot (TV Size)
TitleUnicode:My Life As A Teenage Robot (TV Size)
Artist:Jennifer Karr
ArtistUnicode:Jennifer Karr
Creator:Aranel
Version:Hard
Source:My Life As A Teenage Robot
Tags:Nickelodeon Animation TV series pop rock cartoon nick english jenny wakeman peter lurye SirMirai cacturne Le Mirai Le_Mirai xandit aakki
BeatmapID:2941258
BeatmapSetID:1428641

[Difficulty]
HPDrainRate:4.5
CircleSize:4.2
OverallDifficulty:6
ApproachRate:7.8
SliderMultiplier:1.5
SliderTickRate:1

[Events]
//Background and Video events
0,0,"bgers.jpeg",0,0
Video,250,"video (3).mp4"
//Break Periods
//Storyboard Layer 0 (Background)
//Storyboard Layer 1 (Fail)
//Storyboard Layer 2 (Pass)
//Storyboard Layer 3 (Foreground)
//Storyboard Layer 4 (Overlay)
//Storyboard Sound Samples

[TimingPoints]
131,350.877192982456,4,2,1,60,1,0
131,-133.333333333333,4,2,1,60,0,0
833,350.877192982456,4,2,1,60,1,0
833,-133.333333333333,4,2,1,60,0,0
5920,-100,4,2,1,70,0,0
21710,-100,4,2,1,70,0,0
23289,-100,4,2,1,80,0,0
24692,-222.222222222222,4,2,1,60,0,0
26096,-100,4,2,1,70,0,1
31710,-100,4,2,1,70,0,0
31973,-100,4,2,1,5,0,0
32061,-100,4,2,1,70,0,1
32148,-100,4,2,1,70,0,0
32411,-125,4,2,1,62,0,0
32762,-125,4,2,1,54,0,0
33113,-125,4,2,1,46,0,0
33464,-125,4,2,1,38,0,0
33815,-125,4,2,1,30,0,0
34166,-125,4,2,1,22,0,0
34517,-125,4,2,1,14,0,0
34780,-125,4,2,1,11,0,0
34955,-125,4,2,1,8,0,0
35131,-100,4,2,1,5,0,0

[Colours]
Combo1 : 255,176,98
Combo2 : 60,141,172
Combo3 : 128,128,128
Combo4 : 117,0,0

[HitObjects]
465,278,833,6,0,P|420:272|372:313,1,112.500004291535,6|2,0:0|0:0,0:0:0:0:
331,384,1359,1,2,0:0:0:0:
331,384,1710,1,2,0:0:0:0:
267,338,1885,1,2,0:0:0:0:
197,375,2061,2,0,P|134:361|80:363,1,112.500004291535,2|2,0:0|0:0,0:0:0:0:
13,384,2587,1,2,0:0:0:0:
60,321,2762,1,2,0:0:0:0:
19,253,2938,2,0,P|12:225|17:198,1,56.2500021457673,2|0,0:0|0:0,0:0:0:0:
84,154,3289,2,0,P|90:126|85:99,1,56.2500021457673,2|2,0:0|0:0,0:0:0:0:
20,42,3640,6,0,P|67:54|133:60,1,112.500004291535,2|2,0:0|0:0,0:0:0:0:
130,59,4341,1,2,0:0:0:0:
205,35,4517,1,2,0:0:0:0:
269,78,4692,1,2,0:0:0:0:
343,52,4868,2,0,B|350:106|350:106|347:113|347:113|354:175,2,112.500004291535,2|2|2,0:0|0:0|0:0,0:0:0:0:
410,0,5745,1,2,0:0:0:0:
487,50,5920,1,8,0:0:0:0:
487,50,6008,1,8,0:0:0:0:
487,50,6096,2,0,L|493:104,3,37.5,10|8|10|8,0:0|0:0|0:0|0:0,0:0:0:0:
493,102,6447,6,0,B|517:190|459:165|485:256,1,150,6|10,3:2|0:0,0:0:0:0:
503,343,6973,1,2,0:0:0:0:
412,378,7148,2,0,P|371:378|327:355,1,75,2|2,3:2|0:0,0:0:0:0:
280,293,7499,1,10,0:0:0:0:
280,293,7675,2,0,P|239:293|195:316,1,75,2|0,0:0|3:2,0:0:0:0:
126,358,8025,2,0,L|134:261,1,75,2|10,0:0|0:0,0:0:0:0:
44,240,8376,2,0,L|30:80,1,150,2|2,0:0|0:0,0:0:0:0:
94,16,8903,1,10,0:0:0:0:
94,16,9078,1,2,0:0:0:0:
162,95,9254,6,0,P|198:107|235:101,1,75,2|0,3:2|0:0,0:0:0:0:
285,18,9604,2,0,P|321:6|358:12,1,75,10|0,0:0|0:0,0:0:0:0:
402,98,9955,2,0,L|390:177,2,75,2|2|10,3:2|0:0|0:0,0:0:0:0:
472,28,10482,2,0,B|511:69|511:69|495:161,1,150,2|2,0:0|0:0,0:0:0:0:
442,243,11008,2,0,L|453:317,1,75,8|0,0:0|0:0,0:0:0:0:
381,384,11359,1,14,0:0:0:0:
306,338,11534,1,8,0:0:0:0:
306,338,11622,1,8,0:0:0:0:
306,338,11710,2,0,L|254:332,3,37.5,10|8|10|8,0:0|0:0|0:0|0:0,0:0:0:0:
254,335,12061,6,0,B|162:329|204:282|109:279,1,150,6|10,3:2|0:0,0:0:0:0:
26,302,12587,1,2,0:0:0:0:
26,302,12762,2,0,P|20:264|24:228,2,75,2|2|10,3:2|0:0|0:0,0:0:0:0:
95,372,13289,2,0,P|118:302|113:227,1,150,2|2,0:0|0:0,0:0:0:0:
83,133,13815,1,10,0:0:0:0:
158,72,13990,2,0,P|194:60|233:66,1,75,2|0,0:0|3:2,0:0:0:0:
305,130,14341,1,2,0:0:0:0:
305,130,14517,1,10,0:0:0:0:
322,225,14692,1,2,3:2:0:0:
256,307,14868,6,0,B|186:315|186:315|183:311|183:311|105:320,2,150,2|10|2,3:2|0:0|3:2,0:0:0:0:
337,361,15745,1,2,0:0:0:0:
414,302,15920,1,10,0:0:0:0:
414,302,16096,2,0,P|439:256|419:150,1,150,2|0,0:0|3:2,0:0:0:0:
365,67,16622,2,0,B|301:58|301:58|293:60|293:60|238:53|238:53|240:60|240:60|149:73|149:73,1,225,8|0,0:0|3:2,0:0:0:0:
57,87,17324,1,8,0:0:0:0:
57,87,17499,1,8,0:0:0:0:
124,167,17675,6,0,P|133:240|96:307,1,150,6|10,3:2|0:0,0:0:0:0:
97,305,18376,2,0,L|185:312,1,75,2|2,3:2|0:0,0:0:0:0:
243,376,18727,1,10,0:0:0:0:
243,376,18903,2,0,L|417:362,1,150,2|2,0:0|0:0,0:0:0:0:
475,310,19429,1,10,0:0:0:0:
475,310,19605,2,0,P|480:265|463:228,1,75,2|0,0:0|3:2,0:0:0:0:
408,162,19955,1,2,0:0:0:0:
408,162,20131,1,10,0:0:0:0:
473,89,20306,1,0,3:2:0:0:
388,26,20482,6,0,P|314:18|254:64,2,150,2|10|2,3:2|0:0|3:2,0:0:0:0:
341,113,21359,1,10,0:3:0:0:
341,113,21534,1,8,0:0:0:0:
284,192,21710,2,0,P|224:235|151:227,1,150,6|8,3:2|0:0,0:0:0:0:
151,227,22236,1,10,0:0:0:0:
107,139,22411,1,2,3:2:0:0:
46,216,22587,1,10,0:0:0:0:
46,216,22675,1,8,0:0:0:0:
46,216,22762,2,0,P|53:260|54:295,2,75,2|10|2,3:2|0:0|0:0,0:0:0:0:
0,121,23289,5,6,3:2:0:0:
67,50,23464,2,0,P|101:33|144:38,1,75,2|8,0:0|0:0,0:0:0:0:
210,99,23815,2,0,P|202:168|198:264,1,150,2|2,0:0|3:2,0:0:0:0:
275,318,24341,1,10,0:0:0:0:
275,318,24516,1,10,0:0:0:0:
196,384,24692,1,6,3:2:0:0:
463,39,26096,6,0,P|480:72|481:115,1,75,6|0,3:2|0:0,0:0:0:0:
461,201,26447,1,10,0:0:0:0:
461,201,26622,1,2,0:0:0:0:
377,245,26797,1,2,3:2:0:0:
377,245,26973,2,0,P|300:249|231:213,1,150,2|2,0:0|0:0,0:0:0:0:
204,133,27499,6,0,P|210:97|196:55,1,75,0|2,3:2|0:0,0:0:0:0:
132,0,27850,2,0,P|97:-6|55:8,1,75,10|2,0:0|0:0,0:0:0:0:
2,73,28201,2,0,P|-3:108|11:150,1,75,2|2,3:2|3:2,0:0:0:0:
82,195,28552,1,8,0:0:0:0:
82,195,28727,1,10,0:0:0:0:
6,255,28903,6,0,B|-5:291|-5:291|-1:328,1,75,4|0,3:2|0:0,0:0:0:0:
69,384,29254,1,10,0:0:0:0:
69,384,29429,1,2,0:0:0:0:
138,334,29604,1,2,3:2:0:0:
138,334,29780,2,0,B|208:326|208:326|211:330|211:330|290:321,1,150,2|2,0:0|0:0,0:0:0:0:
367,282,30306,6,0,B|371:247|371:247|369:245|369:245|374:206,1,75,0|2,3:2|0:0,0:0:0:0:
450,160,30657,2,0,B|447:125|447:125|449:123|449:123|444:84,1,75,10|2,0:0|0:0,0:0:0:0:
381,21,31008,1,2,0:0:0:0:
302,89,31183,1,10,3:2:0:0:
302,89,31271,1,8,0:0:0:0:
302,89,31359,2,0,L|249:85,3,37.5,8|8|8|8,0:0|0:0|0:0|0:0,0:0:0:0:
250,88,31710,2,0,P|195:108|170:157,1,112.5
169,168,32061,5,6,3:2:0:0:
256,192,32148,12,0,35131,0:0:0:0:
