osu file format v14

[General]
AudioFilename: audio.mp3
AudioLeadIn: 0
PreviewTime: 274
Countdown: 0
SampleSet: Soft
StackLeniency: 0.7
Mode: 0
LetterboxInBreaks: 0
WidescreenStoryboard: 0

[Editor]
Bookmarks: 735,6349,11963,17577,20384,25998,28805,31963
DistanceSpacing: 0.35
BeatDivisor: 4
GridSize: 8
TimelineZoom: 4.319998

[Metadata]
Title:My Life As A Teenage Robot (TV Size)
TitleUnicode:My Life As A Teenage Robot (TV Size)
Artist:Jennifer Karr
ArtistUnicode:Jennifer Karr
Creator:Aranel
Version:Expert
Source:My Life As A Teenage Robot
Tags:Nickelodeon Animation TV series pop rock cartoon nick english jenny wakeman peter lurye SirMirai cacturne Le Mirai Le_Mirai xandit aakki
BeatmapID:2941257
BeatmapSetID:1428641

[Difficulty]
HPDrainRate:5.2
CircleSize:5.2
OverallDifficulty:8.2
ApproachRate:9.2
SliderMultiplier:1.9
SliderTickRate:1

[Events]
//Background and Video events
0,0,"bgers.jpeg",0,0
Video,250,"video (3).mp4"
//Break Periods
//Storyboard Layer 0 (Background)
//Storyboard Layer 1 (Fail)
//Storyboard Layer 2 (Pass)
//Storyboard Layer 3 (Foreground)
//Storyboard Layer 4 (Overlay)
//Storyboard Sound Samples

[TimingPoints]
131,350.877192982456,4,2,1,60,1,0
131,-133.333333333333,4,2,1,5,0,0
350,-133.333333333333,4,2,1,20,0,0
394,-133.333333333333,4,2,1,25,0,0
438,-133.333333333333,4,2,1,30,0,0
481,-133.333333333333,4,2,1,35,0,0
525,-133.333333333333,4,2,1,40,0,0
569,-133.333333333333,4,2,1,45,0,0
613,-133.333333333333,4,2,1,50,0,0
657,-133.333333333333,4,2,1,55,0,0
701,-133.333333333333,4,2,1,60,0,0
745,-133.333333333333,4,2,1,65,0,0
788,-133.333333333333,4,2,1,70,0,0
833,350.877192982456,4,2,1,60,1,0
833,-133.333333333333,4,2,1,60,0,0
5920,-100,4,2,1,70,0,0
6710,-100,4,2,1,5,0,0
6797,-100,4,2,1,70,0,0
9517,-100,4,2,1,5,0,0
9604,-100,4,2,1,70,0,0
9868,-100,4,2,1,5,0,0
9955,-100,4,2,1,70,0,0
12324,-100,4,2,1,5,0,0
12411,-100,4,2,1,70,0,0
15131,-100,4,2,1,5,0,0
15218,-100,4,2,1,70,0,0
15482,-100,4,2,1,5,0,0
15569,-100,4,2,1,70,0,0
16622,-66.6666666666667,4,2,1,70,0,0
17675,-100,4,2,1,70,0,0
17938,-100,4,2,1,5,0,0
18025,-100,4,2,1,70,0,0
18289,-100,4,2,1,5,0,0
18376,-100,4,2,1,70,0,0
20745,-100,4,2,1,5,0,0
20832,-100,4,2,1,70,0,0
21710,-100,4,2,1,70,0,0
23289,-100,4,2,1,80,0,0
24692,-222.222222222222,4,2,1,60,0,0
26008,-222.222222222222,4,2,1,5,0,0
26096,-100,4,2,1,70,0,1
31710,-100,4,2,1,70,0,0
31973,-100,4,2,1,5,0,0
32061,-25,4,2,1,70,0,1
32104,-100,4,2,1,5,0,0
32411,-100,4,2,1,62,0,0
32762,-100,4,2,1,54,0,0
33113,-100,4,2,1,46,0,0
33464,-100,4,2,1,38,0,0
33815,-100,4,2,1,30,0,0
34166,-100,4,2,1,22,0,0
34517,-100,4,2,1,14,0,0
34780,-100,4,2,1,11,0,0
34955,-100,4,2,1,8,0,0
35131,-100,4,2,1,5,0,0

[Colours]
Combo1 : 255,176,98
Combo2 : 60,141,172
Combo3 : 128,128,128
Combo4 : 117,0,0

[HitObjects]
71,82,350,6,0,L|74:58,10,17.812500679493
78,46,833,6,0,B|150:27|145:85|228:67,1,142.500005435944,6|2,0:0|0:0,0:0:0:0:
345,40,1359,1,2,0:0:0:0:
345,40,1710,5,2,0:0:0:0:
307,165,1885,1,2,0:0:0:0:
455,144,2061,2,0,P|421:130|382:133,1,71.2500027179719,2|0,0:0|0:0,0:0:0:0:
451,269,2411,2,0,P|436:236|407:211,1,71.2500027179719,2|2,0:0|0:0,0:0:0:0:
367,354,2762,1,2,0:0:0:0:
367,354,2938,2,0,P|380:320|377:281,1,71.2500027179719,2|0,0:0|0:0,0:0:0:0:
227,210,3289,1,2,0:0:0:0:
300,308,3464,1,2,0:0:0:0:
307,165,3640,6,0,P|234:118|166:144,1,142.500005435944,2|2,0:0|0:0,0:0:0:0:
184,129,4341,1,2,0:0:0:0:
73,188,4517,1,2,0:0:0:0:
138,50,4692,1,2,0:0:0:0:
227,210,4868,2,0,B|231:303|192:258|197:355,2,142.500005435944,2|2|2,0:0|0:0|0:0,0:0:0:0:
309,75,5745,5,2,0:0:0:0:
409,178,5920,1,8,0:0:0:0:
409,178,6008,1,8,0:0:0:0:
409,178,6096,2,0,L|458:170,1,47.5,10|8,0:0|0:0,0:0:0:0:
353,253,6271,2,0,L|304:245,1,47.5,10|8,0:0|0:0,0:0:0:0:
407,337,6447,6,0,P|469:326|443:269,1,142.5,6|0,3:2|0:0,0:0:0:0:
429,274,6797,1,10,0:0:0:0:
314,353,6973,1,2,0:0:0:0:
456,379,7148,1,2,3:2:0:0:
353,253,7324,1,2,0:0:0:0:
224,384,7499,1,10,0:0:0:0:
224,384,7587,1,0,0:0:0:0:
224,384,7675,2,0,B|201:343|201:343|208:295,1,95,2|0,0:0|3:2,0:0:0:0:
233,118,8025,5,2,0:0:0:0:
287,252,8201,1,10,0:0:0:0:
135,93,8376,1,2,0:0:0:0:
94,232,8552,2,0,P|141:230|176:199,1,95,0|2,3:2|0:0,0:0:0:0:
24,143,8903,1,10,0:0:0:0:
63,348,9078,1,2,0:0:0:0:
253,283,9254,6,0,B|288:262|320:277|321:281|321:285|354:300|394:276,1,142.5,2|0,3:2|0:0,0:0:0:0:
393,269,9604,2,0,B|358:290|324:275|324:271|323:267|291:252|256:272,1,142.5,10|0,0:0|0:0,0:0:0:0:
194,301,9955,1,2,3:2:0:0:
137,176,10131,1,2,0:0:0:0:
262,120,10306,1,10,0:0:0:0:
317,244,10482,1,2,0:0:0:0:
353,63,10657,5,0,3:2:0:0:
512,113,10832,1,2,0:0:0:0:
334,165,11008,1,8,0:0:0:0:
485,3,11183,1,0,0:0:0:0:
239,133,11359,5,14,0:0:0:0:
49,33,11534,1,8,0:0:0:0:
49,33,11622,1,8,0:0:0:0:
49,33,11710,2,0,L|58:89,1,47.5,10|8,0:0|0:0,0:0:0:0:
155,125,11885,2,0,L|148:79,1,47.5,10|8,0:0|0:0,0:0:0:0:
47,195,12061,6,0,B|121:174|109:226|188:204,1,142.5,6|0,3:2|0:0,0:0:0:0:
201,200,12411,1,10,0:0:0:0:
307,285,12587,1,2,0:0:0:0:
160,374,12762,2,0,P|166:328|178:282,1,95,2|2,3:2|0:0,0:0:0:0:
68,324,13113,1,10,0:0:0:0:
271,370,13289,6,0,B|345:364|345:364|378:334|378:334|450:327,1,190,2|2,0:0|0:0,0:0:0:0:
512,219,13815,1,10,0:0:0:0:
386,163,13990,2,0,P|371:212|367:255,1,95,2|0,0:0|3:2,0:0:0:0:
462,108,14341,1,2,0:0:0:0:
295,58,14517,1,10,0:0:0:0:
243,236,14692,1,2,3:2:0:0:
170,29,14868,6,0,B|129:19|103:42|103:46|104:50|76:74|32:61,1,142.5,2|0,3:2|0:0,0:0:0:0:
31,53,15218,2,0,B|70:63|98:40|97:36|96:32|123:9|163:18,1,142.5,10|0,0:0|0:0,0:0:0:0:
229,47,15569,1,2,3:2:0:0:
268,185,15745,1,2,0:0:0:0:
124,270,15920,1,10,0:0:0:0:
163,144,16096,1,2,0:0:0:0:
300,314,16271,5,0,3:2:0:0:
268,185,16447,1,0,3:2:0:0:
268,185,16534,1,0,3:2:0:0:
268,185,16622,2,0,B|363:156|363:156|393:160|422:137|422:137|419:169|439:195|439:195|403:194|380:217|380:217|358:193|363:156|363:156|368:116|343:75,1,427.500016307831,8|0,0:0|3:2,0:0:0:0:
334,73,17236,1,0,0:0:0:0:
334,73,17324,1,8,0:0:0:0:
274,258,17499,1,8,0:0:0:0:
470,52,17675,6,0,B|468:133|511:108|506:190,1,142.5,6|0,3:2|0:0,0:0:0:0:
489,254,18025,2,0,P|516:204|460:216,1,142.5,10|0,0:0|0:0,0:0:0:0:
430,283,18376,1,2,3:2:0:0:
499,382,18552,1,2,0:0:0:0:
335,274,18727,1,10,0:0:0:0:
250,377,18903,6,0,P|252:326|260:271,1,95,2|0,0:0|3:2,0:0:0:0:
290,140,19254,1,2,0:0:0:0:
290,140,19429,1,10,0:0:0:0:
159,263,19604,2,0,P|155:212|145:157,1,95,2|0,0:0|3:2,0:0:0:0:
101,46,19955,1,2,0:0:0:0:
31,227,20131,1,10,0:0:0:0:
0,0,20306,1,0,3:2:0:0:
148,169,20482,6,0,P|197:191|279:158,1,142.5,2|0,3:2|0:0,0:0:0:0:
315,100,20832,2,0,P|306:63|296:1,1,95,10|0,0:0|0:0,0:0:0:0:
451,182,21183,1,2,3:2:0:0:
330,306,21359,2,0,P|330:259|336:212,1,95,10|8,0:3|0:0,0:0:0:0:
479,383,21710,1,6,3:2:0:0:
479,383,22061,5,8,0:0:0:0:
336,212,22236,1,10,0:0:0:0:
271,384,22411,1,2,3:2:0:0:
451,182,22587,5,10,0:0:0:0:
451,182,22675,1,8,0:0:0:0:
451,182,22762,1,2,3:2:0:0:
311,38,22938,2,0,P|264:29|220:45,1,95,10|2,0:0|0:0,0:0:0:0:
157,301,23289,5,6,3:2:0:0:
337,234,23464,1,2,0:0:0:0:
160,125,23640,2,0,P|151:171|167:215,1,95,8|2,0:0|0:0,0:0:0:0:
167,215,23903,1,0,0:0:0:0:
167,215,23990,1,0,3:2:0:0:
357,133,24166,1,2,3:2:0:0:
243,318,24341,1,10,0:0:0:0:
160,125,24517,1,10,0:0:0:0:
414,321,24692,6,0,B|337:377|253:317|303:261|213:202|139:246,1,320.624990215302,6|0,3:2|0:0,0:0:0:0:
140,245,26096,6,0,L|168:150,1,95,6|0,3:2|0:0,0:0:0:0:
286,82,26447,1,10,0:0:0:0:
342,190,26622,1,2,0:0:0:0:
382,39,26797,1,2,3:2:0:0:
253,192,26973,2,0,P|297:205|342:191,1,95,2|8,0:0|0:0,0:0:0:0:
381,39,27324,2,0,P|426:24|471:39,1,95,2|0,0:0|3:2,0:0:0:0:
512,194,27675,5,2,0:0:0:0:
512,194,27762,1,0,0:0:0:0:
512,194,27850,1,10,0:0:0:0:
469,329,28025,1,2,0:0:0:0:
342,191,28201,1,2,3:2:0:0:
436,224,28376,1,2,3:2:0:0:
256,294,28552,1,8,0:0:0:0:
123,248,28727,1,10,0:0:0:0:
192,46,28903,6,0,P|215:87|213:142,1,95,4|0,3:2|0:0,0:0:0:0:
123,248,29254,1,10,0:0:0:0:
63,161,29429,1,2,0:0:0:0:
45,333,29604,1,2,3:2:0:0:
217,259,29780,2,0,L|122:247,1,95,2|8,0:0|0:0,0:0:0:0:
300,360,30131,2,0,L|206:349,1,95,2|0,0:0|3:2,0:0:0:0:
354,250,30482,5,2,0:0:0:0:
416,368,30657,1,10,0:0:0:0:
472,175,30832,1,2,0:0:0:0:
300,360,31008,5,2,0:0:0:0:
221,115,31183,1,10,3:2:0:0:
256,84,31270,1,8,0:0:0:0:
301,74,31358,1,8,0:0:0:0:
346,87,31446,1,8,0:0:0:0:
381,117,31534,1,8,0:0:0:0:
427,126,31622,1,8,0:0:0:0:
471,109,31710,2,0,P|420:95|359:164,1,142.5
360,151,32061,6,0,B|374:220|358:188|369:246,1,95,6|0,3:2|0:0,0:0:0:0:
256,192,32148,12,0,35131,0:0:0:0:
