osu file format v14

[General]
AudioFilename: audio.mp3
AudioLeadIn: 0
PreviewTime: 274
Countdown: 0
SampleSet: Soft
StackLeniency: 0.2
Mode: 0
LetterboxInBreaks: 0
WidescreenStoryboard: 1

[Editor]
Bookmarks: 735,6349,11963,17577,20384,25998,28805,31963
DistanceSpacing: 0.9
BeatDivisor: 4
GridSize: 8
TimelineZoom: 5.019998

[Metadata]
Title:My Life As A Teenage Robot (TV Size)
TitleUnicode:My Life As A Teenage Robot (TV Size)
Artist:Jennifer Karr
ArtistUnicode:Jennifer Karr
Creator:Aranel
Version:Aakki's Expert
Source:My Life As A Teenage Robot
Tags:Nickelodeon Animation TV series pop rock cartoon nick english jenny wakeman peter lurye SirMirai cacturne Le Mirai Le_Mirai xandit aakki
BeatmapID:3025763
BeatmapSetID:1428641

[Difficulty]
HPDrainRate:6.2
CircleSize:4.5
OverallDifficulty:8.5
ApproachRate:8.5
SliderMultiplier:2.3
SliderTickRate:1

[Events]
//Background and Video events
0,0,"bgers.jpeg",0,0
Video,250,"video (3).mp4"
//Break Periods
//Storyboard Layer 0 (Background)
//Storyboard Layer 1 (Fail)
//Storyboard Layer 2 (Pass)
//Storyboard Layer 3 (Foreground)
//Storyboard Layer 4 (Overlay)
//Storyboard Sound Samples

[TimingPoints]
131,350.877192982456,4,2,1,60,1,0
131,-133.333333333333,4,2,1,5,0,0
350,-133.333333333333,4,2,1,20,0,0
394,-133.333333333333,4,2,1,25,0,0
438,-133.333333333333,4,2,1,30,0,0
481,-133.333333333333,4,2,1,35,0,0
525,-133.333333333333,4,2,1,40,0,0
569,-133.333333333333,4,2,1,45,0,0
613,-133.333333333333,4,2,1,50,0,0
657,-133.333333333333,4,2,1,55,0,0
701,-133.333333333333,4,2,1,60,0,0
745,-133.333333333333,4,2,1,65,0,0
788,-133.333333333333,4,2,1,70,0,0
833,350.877192982456,4,2,1,60,1,0
833,-133.333333333333,4,2,1,60,0,0
5920,-100,4,2,1,70,0,0
6447,-66.6666666666667,4,2,1,70,0,0
6710,-66.6666666666667,4,2,1,5,0,0
6797,-100,4,2,1,70,0,0
8990,-100,4,2,1,5,0,0
9078,-66.6666666666667,4,2,1,70,0,0
9166,-100,4,2,1,5,0,0
9254,-71.4285714285714,4,2,1,70,0,0
9517,-71.4285714285714,4,2,1,5,0,0
9604,-250,4,2,1,70,0,0
9867,-250,4,2,1,5,0,0
9955,-100,4,2,1,70,0,0
10043,-100,4,2,1,5,0,0
10131,-100,4,2,1,70,0,0
12061,-58.8235294117647,4,2,1,70,0,0
12324,-58.8235294117647,4,2,1,5,0,0
12411,-100,4,2,1,70,0,0
12499,-100,4,2,1,5,0,0
12587,-100,4,2,1,70,0,0
13552,-100,4,2,1,5,0,0
13640,-100,4,2,1,70,0,0
14254,-100,4,2,1,5,0,0
14341,-100,4,2,1,70,0,0
14692,-66.6666666666667,4,2,1,70,0,0
14868,-71.4285714285714,4,2,1,70,0,0
15131,-71.4285714285714,4,2,1,5,0,0
15218,-71.4285714285714,4,2,1,70,0,0
15481,-71.4285714285714,4,2,1,5,0,0
15569,-100,4,2,1,70,0,0
16008,-100,4,2,1,5,0,0
16096,-100,4,2,1,70,0,0
16622,-500,4,2,1,70,0,0
16710,-100,4,2,1,5,0,0
16797,-66.6666666666667,4,2,1,70,0,0
17411,-100,4,2,1,5,0,0
17499,-66.6666666666667,4,2,1,70,0,0
17587,-100,4,2,1,5,0,0
17675,-66.6666666666667,4,2,1,70,0,0
17938,-66.6666666666667,4,2,1,5,0,0
18025,-100,4,2,1,70,0,0
18289,-100,4,2,1,5,0,0
18376,-100,4,2,1,70,0,0
18464,-100,4,2,1,5,0,0
18552,-100,4,2,1,70,0,0
20043,-100,4,2,1,5,0,0
20131,-66.6666666666667,4,2,1,70,0,0
20394,-66.6666666666667,4,2,1,5,0,0
20482,-66.6666666666667,4,2,1,70,0,0
20745,-66.6666666666667,4,2,1,5,0,0
20832,-66.6666666666667,4,2,1,70,0,0
21095,-66.6666666666667,4,2,1,5,0,0
21183,-100,4,2,1,70,0,0
21271,-100,4,2,1,5,0,0
21359,-100,4,2,1,70,0,0
21710,-100,4,2,1,70,0,1
21797,-100,4,2,1,70,0,0
22061,-66.6666666666667,4,2,1,70,0,0
23201,-66.6666666666667,4,2,1,5,0,0
23289,-66.6666666666667,4,2,1,80,0,0
24692,-66.6666666666667,4,2,1,60,0,0
25394,-500,4,2,1,60,0,0
26008,-500,4,2,1,5,0,0
26096,-66.6666666666667,4,2,1,70,0,0
26359,-66.6666666666667,4,2,1,5,0,0
26447,-100,4,2,1,70,0,0
28903,-66.6666666666667,4,2,1,70,0,0
29166,-66.6666666666667,4,2,1,5,0,0
29254,-100,4,2,1,70,0,0
31710,-500,4,2,1,70,0,0
31973,-500,4,2,1,5,0,0
32061,-142.857142857143,4,2,1,70,0,0
32411,-125,4,2,1,62,0,0
32762,-125,4,2,1,54,0,0
33113,-125,4,2,1,46,0,0
33464,-125,4,2,1,38,0,0
33815,-125,4,2,1,30,0,0
34166,-125,4,2,1,22,0,0
34517,-125,4,2,1,14,0,0
34780,-125,4,2,1,11,0,0
34955,-125,4,2,1,8,0,0
35043,-125,4,2,1,5,0,0

[Colours]
Combo1 : 255,176,98
Combo2 : 60,141,172
Combo3 : 128,128,128
Combo4 : 117,0,0

[HitObjects]
98,182,350,6,0,P|103:214|105:221,10,21.5625008225441
4,136,833,6,0,P|30:123|190:117,1,172.500006580353,6|2,0:0|0:0,0:0:0:0:
334,0,1359,2,0,P|308:13|148:19,1,172.500006580353,2|2,0:0|0:0,0:0:0:0:
264,103,1885,1,2,0:0:0:0:
424,27,2061,5,2,0:0:0:0:
424,27,2412,1,2,0:0:0:0:
424,27,2762,1,2,0:0:0:0:
461,152,2938,2,0,P|470:103|486:66,1,86.2500032901765,2|0,0:0|0:0,0:0:0:0:
349,26,3289,2,0,P|340:75|324:112,1,86.2500032901765,2|2,0:0|0:0,0:0:0:0:
282,194,3640,6,0,P|335:195|442:265,2,172.500006580353,2|2|2,0:0|0:0|0:0,0:0:0:0:
221,241,4517,1,2,0:0:0:0:
220,315,4692,1,2,0:0:0:0:
282,352,4868,5,2,0:0:0:0:
282,352,5218,1,2,0:0:0:0:
282,352,5569,1,2,0:0:0:0:
87,273,5745,1,2,0:0:0:0:
184,369,5920,5,8,0:0:0:0:
212,340,6008,1,8,0:0:0:0:
220,294,6096,1,10,0:0:0:0:
190,245,6183,1,8,0:0:0:0:
136,211,6271,1,10,0:0:0:0:
135,141,6359,1,8,0:0:0:0:
199,81,6447,6,0,B|278:106|278:106|304:188|304:188|410:227,1,258.75000987053,6|0,3:2|0:0,0:0:0:0:
459,277,6797,6,0,P|469:235|486:209,1,57.5,10|0,0:0|0:0,0:0:0:0:
435,157,6973,1,2,0:0:0:0:
362,332,7148,5,2,3:2:0:0:
362,332,7324,1,2,0:0:0:0:
212,361,7499,1,10,0:0:0:0:
263,245,7675,2,0,P|281:318|288:366,1,115,2|0,0:0|3:2,0:0:0:0:
75,254,8025,5,2,0:0:0:0:
99,179,8201,1,10,0:0:0:0:
140,68,8376,1,2,0:0:0:0:
298,116,8552,6,0,B|233:130|266:162|185:169,1,115,0|2,3:2|0:0,0:0:0:0:
44,17,8903,2,0,P|73:11|110:-7,1,57.5,10|0,0:0|0:0,0:0:0:0:
140,68,9078,2,0,P|96:77|41:104,1,86.2500032901765,2|0,0:0|0:0,0:0:0:0:
17,323,9254,6,0,B|79:368|121:308|120:295|119:283|186:216|249:324,1,241.499992630005,2|0,3:2|0:0,0:0:0:0:
303,326,9604,2,0,P|309:347|287:329,1,69,10|0,0:0|0:0,0:0:0:0:
332,217,9955,6,0,P|355:226|414:246,1,57.5,2|0,3:2|0:0,0:0:0:0:
459,204,10131,1,2,0:0:0:0:
496,142,10306,1,10,0:0:0:0:
458,75,10482,5,2,0:0:0:0:
317,102,10745,1,0,0:0:0:0:
184,137,11008,1,8,0:0:0:0:
39,175,11271,1,2,0:0:0:0:
39,175,11359,6,0,P|48:211|50:243,1,57.5,14|0,0:0|0:0,0:0:0:0:
157,359,11534,1,8,0:0:0:0:
189,368,11622,1,8,0:0:0:0:
227,352,11710,1,10,0:0:0:0:
245,310,11797,1,8,0:0:0:0:
271,277,11885,1,10,0:0:0:0:
338,272,11973,1,8,0:0:0:0:
402,349,12061,6,0,P|428:234|504:53,1,293.2500055933,6|0,3:2|0:0,0:0:0:0:
397,33,12411,2,0,P|390:71|366:106,1,57.5,10|0,0:0|0:0,0:0:0:0:
309,146,12587,1,2,0:0:0:0:
218,156,12762,1,2,3:2:0:0:
181,75,12938,1,2,0:0:0:0:
253,16,13113,1,10,0:0:0:0:
20,242,13289,6,0,P|91:215|148:208,1,115,2|0,0:0|3:2,0:0:0:0:
93,291,13640,1,2,0:0:0:0:
54,145,13815,1,10,0:0:0:0:
178,272,13990,6,0,P|245:282|396:336,1,172.5,2|0,0:0|0:0,0:0:0:0:
410,367,14341,5,2,0:0:0:0:
441,268,14517,1,10,0:0:0:0:
502,80,14692,1,2,3:2:0:0:
281,51,14868,6,0,B|242:94|248:187|312:192|312:192|360:153|324:101|305:133|273:93|305:18,2,321.99999017334,2|10|2,3:2|0:0|3:2,0:0:0:0:
361,68,15745,1,2,0:0:0:0:
241,233,15920,2,0,P|190:246|175:252,1,57.5,10|0,0:0|0:0,0:0:0:0:
47,255,16096,6,0,B|92:256|114:211|114:211|91:278|113:333|187:336,1,230,2|0,0:0|3:2,0:0:0:0:
260,126,16622,6,0,L|264:136,1,11.5,8|0,0:0|0:0,0:0:0:0:
433,184,16797,6,0,P|258:156|36:86,1,345.000013160706,0|0,0:0|3:2,0:0:0:0:
399,283,17324,6,0,B|403:289|403:289|439:259|495:265,1,86.2500032901765,8|0,0:0|0:0,0:0:0:0:
257,328,17499,2,0,B|253:322|253:322|217:352|161:346,1,86.2500032901765,8|0,0:0|0:0,0:0:0:0:
346,379,17675,6,0,P|322:292|297:114,1,258.75000987053,6|0,3:2|0:0,0:0:0:0:
144,178,18025,2,0,P|162:246|182:387,1,172.5,10|0,0:0|0:0,0:0:0:0:
35,326,18376,2,0,P|25:291|15:221,1,57.5,2|0,3:2|0:0,0:0:0:0:
51,181,18552,1,2,0:0:0:0:
231,235,18727,1,10,0:0:0:0:
14,61,18903,6,0,B|67:72|67:72|71:80|71:80|125:89,1,115,2|0,0:0|3:2,0:0:0:0:
218,27,19254,1,2,0:0:0:0:
335,63,19429,1,10,0:0:0:0:
268,232,19604,6,0,P|231:188|246:131,1,115,2|0,0:0|3:2,0:0:0:0:
427,241,19955,2,0,P|394:250|357:265,1,57.5,2|0,0:0|0:0,0:0:0:0:
96,267,20131,6,0,B|162:187|155:86|108:82|49:189|137:212|232:203,1,258.75000987053,10|0,0:0|0:0,0:0:0:0:
79,25,20482,6,0,P|175:48|391:60,1,258.75000987053,2|0,3:2|0:0,0:0:0:0:
512,185,20832,2,0,P|416:162|200:150,1,258.75000987053,10|0,0:0|0:0,0:0:0:0:
164,200,21183,2,0,P|163:223|174:269,1,57.5,2|0,3:2|0:0,0:0:0:0:
233,329,21359,1,10,0:3:0:0:
329,329,21534,1,8,0:0:0:0:
400,258,21710,5,6,3:2:0:0:
400,258,22061,6,0,L|352:243,1,43.1250016450883,8|8,0:0|0:0,0:0:0:0:
382,177,22236,2,0,L|334:162,1,43.1250016450883,10|8,0:0|0:0,0:0:0:0:
369,90,22411,1,2,3:2:0:0:
424,338,22587,5,10,0:0:0:0:
429,356,22675,1,8,0:0:0:0:
369,90,22938,6,0,L|321:75,1,43.1250016450883,10|8,0:0|0:0,0:0:0:0:
327,77,23289,5,6,3:2:0:0:
260,29,23464,1,2,0:0:0:0:
184,61,23640,1,8,0:0:0:0:
181,140,23815,1,2,0:0:0:0:
252,191,23990,1,0,3:2:0:0:
286,270,24166,1,2,3:2:0:0:
249,348,24341,5,10,0:0:0:0:
308,149,24517,1,10,0:0:0:0:
87,92,24692,6,0,B|169:143|279:80|246:5|328:-32|451:4|479:71|420:109|359:111|367:181|411:213,1,517.500019741059,6|2,3:2|0:0,0:0:0:0:
495,336,25394,6,0,B|423:336|496:343|423:346,1,69,2|2,0:0|0:0,0:0:0:0:
104,226,26096,6,0,P|122:226|366:285,1,258.75000987053,6|0,3:2|0:0,0:0:0:0:
357,290,26447,5,10,0:0:0:0:
401,226,26622,1,2,0:0:0:0:
380,154,26797,1,2,3:2:0:0:
306,131,26973,1,2,0:0:0:0:
250,182,27148,1,8,0:0:0:0:
263,255,27324,1,2,0:0:0:0:
263,255,27675,1,2,0:0:0:0:
263,255,27850,1,10,0:0:0:0:
228,323,28025,1,2,0:0:0:0:
152,346,28201,1,2,3:2:0:0:
80,326,28376,1,2,3:2:0:0:
49,258,28552,5,8,0:0:0:0:
301,348,28727,1,10,0:0:0:0:
338,9,28903,6,0,P|296:101|261:270,1,258.75000987053,4|0,3:2|0:0,0:0:0:0:
393,304,29254,5,10,0:0:0:0:
468,260,29429,1,2,0:0:0:0:
451,177,29604,1,2,3:2:0:0:
368,165,29780,1,2,0:0:0:0:
332,236,29955,1,8,0:0:0:0:
393,304,30131,1,2,0:0:0:0:
441,367,30482,1,2,0:0:0:0:
512,324,30657,1,10,0:0:0:0:
295,128,30832,1,2,0:0:0:0:
257,202,31008,1,2,0:0:0:0:
496,87,31183,2,0,L|515:23,1,57.5,10|8,3:2|0:0,0:0:0:0:
189,79,31359,5,8,0:0:0:0:
221,59,31447,1,8,0:0:0:0:
281,56,31534,1,8,0:0:0:0:
352,94,31622,1,8,0:0:0:0:
375,165,31710,6,0,P|369:183|365:206,1,34.5
367,266,32061,6,0,B|389:383|230:332|232:203|105:152|-26:250|30:354|173:359|226:275|226:275|262:203|223:131|124:133|101:38|193:9|193:9|266:98|137:169|14:218|-50:107|84:41|82:158,1,1247.74996192169,6|0,3:2|0:0,0:0:0:0:
