osu file format v14

[General]
AudioFilename: audio.mp3
AudioLeadIn: 0
PreviewTime: 280
Countdown: 0
SampleSet: Soft
StackLeniency: 0.7
Mode: 2
LetterboxInBreaks: 0
WidescreenStoryboard: 0

[Editor]
Bookmarks: 26070
DistanceSpacing: 1.5
BeatDivisor: 8
GridSize: 16
TimelineZoom: 3.499999

[Metadata]
Title:My Life As A Teenage Robot
TitleUnicode:My Life As A Teenage Robot
Artist:Jennifer Karr
ArtistUnicode:Jennifer Karr
Creator:Nelly
Version:Reimu's Salad
Source:My Life As A Teenage Robot
Tags:nickelodeon xj-9 jenny wakeman rob renzetti teen nicktoons tv size hareimu
BeatmapID:1452670
BeatmapSetID:648863

[Difficulty]
HPDrainRate:4
CircleSize:2.7
OverallDifficulty:7
ApproachRate:7
SliderMultiplier:1.4
SliderTickRate:2

[Events]
//Background and Video events
0,0,"my teenage robot life.png",0,0
//Break Periods
//Storyboard Layer 0 (Background)
//Storyboard Layer 1 (Fail)
//Storyboard Layer 2 (Pass)
//Storyboard Layer 3 (Foreground)
//Storyboard Sound Samples

[TimingPoints]
823,350.877192982456,4,2,1,40,1,0
26086,-100,4,2,1,40,0,1
32051,-100,4,2,1,40,0,0

[Colours]
Combo1 : 192,192,192
Combo2 : 0,170,170

[HitObjects]
313,264,822,6,2,P|357:189|317:133,1,140,2|0,0:0|0:0,0:0:0:0:
266,146,1349,2,0,L|116:146,1,140,0|0,0:0|0:0,0:0:0:0:
196,146,1875,1,0,0:0:0:0:
266,148,2051,1,2,0:0:0:0:
86,173,2401,6,2,L|37:223,1,70,2|0,0:0|0:0,0:0:0:0:
108,215,2752,2,2,L|259:215,1,140,2|0,0:0|0:0,0:0:0:0:
177,214,3279,1,0,0:0:0:0:
107,215,3454,1,0,0:0:0:0:
310,215,3630,6,2,L|475:214,1,140,2|0,0:0|0:0,0:0:0:0:
245,109,4331,2,2,L|165:109,2,70,2|0|0,0:0|0:0|0:0,0:0:0:0:
336,206,4858,2,2,P|414:171|429:111,2,140,2|0|2,2:0|2:0|0:0,2:0:0:0:
239,207,5735,1,0,0:0:0:0:
134,207,5910,2,8,L|81:207,2,35,8|8|8,0:0|0:0|0:0,0:0:0:0:
204,96,6261,1,0,0:0:0:0:
239,95,6349,1,0,0:0:0:0:
203,94,6437,6,12,L|50:95,1,140,12|8,0:0|0:0,0:0:0:0:
133,292,6963,1,0,0:0:0:0:
202,290,7138,2,0,L|298:290,2,70
398,205,7665,6,0,P|441:150|389:76,1,140,0|0,0:0|0:0,0:0:0:0:
347,89,8191,1,8,0:0:0:0:
242,92,8366,2,0,L|91:93,1,140
32,95,8893,2,8,L|101:92,1,70,8|0,0:0|0:0,0:0:0:0:
305,295,9244,6,2,L|462:296,2,140,2|8|0,0:0|0:0|0:0,0:0:0:0:
375,295,10121,2,0,L|392:222,1,70,0|8,0:0|0:0,0:0:0:0:
187,219,10472,2,2,P|128:164|154:107,1,140,2|0,0:0|0:0,0:0:0:0:
249,114,10998,2,2,L|410:112,1,140,2|8,0:0|0:0,0:0:0:0:
318,113,11524,1,0,0:0:0:0:
388,112,11700,1,8,0:0:0:0:
354,113,11787,1,0,0:0:0:0:
319,113,11875,1,8,0:0:0:0:
112,125,12051,6,12,P|66:196|96:231,1,140,12|8,0:0|0:0,0:0:0:0:
163,232,12577,1,0,0:0:0:0:
232,233,12752,2,0,L|328:232,2,70,0|0|8,0:0|0:0|0:0,0:0:0:0:
429,239,13279,6,0,P|464:175|408:131,1,140,0|0,0:0|0:0,0:0:0:0:
354,135,13805,1,8,0:0:0:0:
256,135,13980,2,0,P|219:197|265:246,1,140
353,247,14507,2,8,L|422:247,1,70,8|0,0:0|0:0,0:0:0:0:
219,247,14858,6,2,L|59:248,2,140,2|10|2,0:0|0:0|0:0,0:0:0:0:
148,246,15735,1,0,0:0:0:0:
78,248,15910,1,0,0:0:0:0:
254,147,16086,6,2,L|409:146,1,140,2|0,0:0|0:0,0:0:0:0:
324,147,16612,2,10,L|237:147,1,70,10|0,0:0|0:0,0:0:0:0:
349,146,16963,1,2,0:0:0:0:
405,186,17138,1,0,0:0:0:0:
399,257,17314,1,2,0:0:0:0:
329,262,17489,1,0,0:0:0:0:
155,175,17665,6,12,P|82:130|68:75,2,140,12|8|0,0:0|0:0|0:0,0:0:0:0:
260,175,18542,2,0,L|352:174,1,70,0|8,0:0|0:0,0:0:0:0:
141,179,18893,6,0,L|104:333,1,140,0|0,0:0|0:0,0:0:0:0:
178,315,19419,1,8,0:0:0:0:
282,68,19594,2,0,P|338:123|308:175,1,140,0|0,0:0|0:0,0:0:0:0:
211,179,20121,2,8,L|122:179,1,70,8|0,0:0|0:0,0:0:0:0:
330,179,20472,6,2,P|402:215|419:286,2,140,2|8|0,0:0|0:0|0:0,0:0:0:0:
238,180,21349,1,0,0:0:0:0:
147,180,21524,1,8,0:0:0:0:
335,174,21700,6,2,P|397:208|404:289,1,140,2|0,0:0|0:0,0:0:0:0:
339,275,22226,2,0,L|255:275,1,70
199,275,22577,1,8,0:0:0:0:
234,276,22665,1,0,0:0:0:0:
269,275,22752,1,8,0:0:0:0:
199,275,22928,2,0,L|123:275,1,70
316,199,23279,6,8,P|362:134|326:105,1,140,8|0,0:0|0:0,0:0:0:0:
153,97,23805,2,0,P|112:158|165:204,1,140
232,201,24331,1,0,0:0:0:0:
316,199,24507,1,0,0:0:0:0:
128,59,24682,1,6,0:0:0:0:
393,123,26086,6,14,P|434:195|380:236,1,140,14|8,0:0|0:0,0:0:0:0:
333,231,26612,1,0,0:0:0:0:
228,150,26787,2,0,L|323:151,1,70,0|0,0:0|0:0,0:0:0:0:
403,150,27138,1,2,0:0:0:0:
199,232,27314,6,0,P|121:197|106:137,1,140
175,153,27840,2,8,L|249:154,1,70,8|0,0:0|0:0,0:0:0:0:
315,156,28191,2,0,L|225:156,1,70
308,231,28542,1,8,0:0:0:0:
412,231,28717,1,2,0:0:0:0:
216,238,28893,6,6,L|53:238,1,140,6|8,0:0|0:0,0:0:0:0:
138,130,29419,1,0,0:0:0:0:
242,135,29594,2,0,L|261:213,1,70,0|0,0:0|0:0,0:0:0:0:
153,206,29945,1,8,0:0:0:0:
343,211,30121,6,0,P|384:139|330:98,1,140
283,103,30647,2,8,L|203:103,2,70,8|0|0,0:0|0:0|0:0,0:0:0:0:
366,115,31173,5,8,0:0:0:0:
380,147,31261,1,8,0:0:0:0:
366,115,31349,1,8,0:0:0:0:
255,126,31524,1,8,0:0:0:0:
219,126,31612,1,8,0:0:0:0:
184,123,31700,1,8,0:0:0:0:
470,122,32051,1,4,0:0:0:0:
