osu file format v14

[General]
AudioFilename: audio.mp3
AudioLeadIn: 0
PreviewTime: 280
Countdown: 0
SampleSet: Soft
StackLeniency: 0.7
Mode: 2
LetterboxInBreaks: 0
WidescreenStoryboard: 0

[Editor]
DistanceSpacing: 1.6
BeatDivisor: 4
GridSize: 8
TimelineZoom: 2

[Metadata]
Title:My Life As A Teenage Robot
TitleUnicode:My Life As A Teenage Robot
Artist:Jennifer Karr
ArtistUnicode:Jennifer Karr
Creator:Nelly
Version:Platter
Source:My Life As A Teenage Robot
Tags:nickelodeon xj-9 jenny wakeman rob renzetti teen nicktoons tv size hareimu
BeatmapID:1374633
BeatmapSetID:648863

[Difficulty]
HPDrainRate:5
CircleSize:4
OverallDifficulty:8
ApproachRate:8
SliderMultiplier:1.6
SliderTickRate:2

[Events]
//Background and Video events
0,0,"my teenage robot life.png",0,0
//Break Periods
//Storyboard Layer 0 (Background)
//Storyboard Layer 1 (Fail)
//Storyboard Layer 2 (Pass)
//Storyboard Layer 3 (Foreground)
//Storyboard Sound Samples

[TimingPoints]
823,350.877192982456,4,2,1,40,1,0
26086,-100,4,2,1,40,0,1
32051,-100,4,2,1,40,0,0

[Colours]
Combo1 : 192,192,192
Combo2 : 0,170,170

[HitObjects]
112,64,822,6,0,P|96:112|176:176,1,160,2|0,0:0|0:0,0:0:0:0:
336,176,1349,1,0,0:0:0:0:
96,336,1700,2,0,L|160:272,1,80
304,272,2051,6,0,P|384:256|432:192,1,160,2|2,0:0|0:0,0:0:0:0:
320,144,2577,1,0,0:0:0:0:
176,144,2752,2,0,P|120:168|176:216,1,160,2|0,0:0|0:0,0:0:0:0:
320,224,3279,2,0,L|400:224,1,80
240,48,3630,6,0,P|176:64|136:144,1,160,2|0,0:0|0:0,0:0:0:0:
384,224,4331,2,0,L|464:216,2,80,2|0|0,0:0|0:0|0:0,0:0:0:0:
224,208,4858,6,0,P|176:224|136:320,1,160,2|0,2:0|2:0,2:0:0:0:
400,296,5559,2,0,L|320:280,1,80,2|0,0:0|0:0,0:0:0:0:
168,296,5910,1,8,0:0:0:0:
118,299,5997,1,8,0:0:0:0:
79,269,6085,1,8,0:0:0:0:
70,220,6173,1,8,0:0:0:0:
96,176,6260,1,8,0:0:0:0:
344,116,6437,6,0,L|424:120,1,80,4|0,0:0|0:0,0:0:0:0:
320,192,6787,2,0,L|304:272,1,80,8|0,0:0|0:0,0:0:0:0:
416,256,7138,2,0,L|496:272,1,80
384,352,7489,1,8,0:0:0:0:
208,320,7665,6,0,P|160:320|128:336,1,80,0|2,0:0|0:0,0:0:0:0:
240,240,8015,2,0,L|256:160,1,80,0|8,0:0|0:0,0:0:0:0:
112,128,8366,2,0,P|64:112|112:48,1,160
288,48,8893,2,0,L|368:48,1,80,8|0,0:0|0:0,0:0:0:0:
176,288,9244,6,0,L|160:209,1,80,2|0,0:0|0:0,0:0:0:0:
272,224,9594,2,0,L|287:145,1,80,8|0,0:0|0:0,0:0:0:0:
144,96,9945,2,0,L|64:112,2,80,0|0|8,0:0|0:0|0:0,0:0:0:0:
320,96,10472,6,0,P|368:112|320:176,1,160,2|0,0:0|0:0,0:0:0:0:
144,176,10998,2,0,L|64:176,1,80,2|0,0:0|0:0,0:0:0:0:
336,352,11349,2,0,L|351:273,1,80,8|0,0:0|0:0,0:0:0:0:
240,320,11700,1,8,0:0:0:0:
208,304,11788,1,8,0:0:0:0:
176,288,11875,1,8,0:0:0:0:
416,192,12051,6,0,P|432:144|352:80,1,160,12|8,0:0|0:0,0:0:0:0:
248,88,12577,1,0,0:0:0:0:
194,144,12752,1,0,0:0:0:0:
201,221,12927,1,0,0:0:0:0:
265,266,13103,1,0,0:0:0:0:
416,264,13279,6,0,P|472:224|416:184,1,160
296,184,13805,1,8,0:0:0:0:
152,184,13980,2,0,P|96:144|152:104,1,160
311,102,14507,2,0,L|391:118,1,80,8|0,0:0|0:0,0:0:0:0:
264,264,14858,6,0,L|184:280,1,80,2|0,0:0|0:0,0:0:0:0:
296,360,15208,2,0,L|352:304,1,80,10|0,0:0|0:0,0:0:0:0:
224,176,15559,2,0,L|146:191,2,80,2|0|0,0:0|0:0|0:0,0:0:0:0:
384,168,16086,6,0,P|416:216|352:276,1,160,2|0,0:0|0:0,0:0:0:0:
224,152,16612,2,0,L|144:136,1,80,10|0,0:0|0:0,0:0:0:0:
288,104,16963,2,0,P|304:152|296:184,1,80,2|0,0:0|0:0,0:0:0:0:
192,256,17314,2,0,P|152:261|116:245,1,80,2|0,0:0|0:0,0:0:0:0:
352,352,17665,6,0,L|432:336,1,80,12|0,0:0|0:0,0:0:0:0:
320,272,18015,2,0,L|240:240,1,80,8|0,0:0|0:0,0:0:0:0:
352,160,18366,2,0,L|432:144,2,80,0|0|8,0:0|0:0|0:0,0:0:0:0:
192,160,18893,6,0,P|144:192|112:288,1,160
240,288,19419,1,8,0:0:0:0:
384,288,19594,2,0,P|440:248|384:208,1,160
240,192,20121,2,0,L|160:176,1,80,8|0,0:0|0:0,0:0:0:0:
304,224,20472,6,0,L|320:144,1,80,2|0,0:0|0:0,0:0:0:0:
208,96,20822,2,0,L|128:112,1,80,8|0,0:0|0:0,0:0:0:0:
272,32,21173,2,0,L|352:48,2,80,0|0|8,0:0|0:0|0:0,0:0:0:0:
96,32,21700,6,0,P|64:64|128:144,1,160,2|0,0:0|0:0,0:0:0:0:
352,192,22226,2,8,L|432:192,1,80
320,32,22577,1,8,0:0:0:0:
288,48,22664,1,8,0:0:0:0:
256,64,22752,1,8,0:0:0:0:
424,32,22928,2,8,L|408:110,1,80
128,32,23279,6,0,P|76:96|208:336,1,400,8|0,0:0|0:0,0:0:0:0:
352,336,24331,2,0,L|432:336,1,80
128,32,24682,1,6,0:0:0:0:
320,32,26086,6,0,P|368:48|320:112,1,160,14|8,0:0|0:0,0:0:0:0:
208,80,26612,1,0,0:0:0:0:
320,224,26787,2,0,L|400:208,2,80,0|0|2,0:0|0:0|0:0,0:0:0:0:
176,272,27314,6,0,P|160:224|240:160,1,160
400,80,27840,2,0,L|415:158,1,80,8|0,0:0|0:0,0:0:0:0:
304,176,28191,1,0,0:0:0:0:
416,288,28366,2,0,L|496:272,2,80,0|8|2,0:0|0:0|0:0,0:0:0:0:
104,296,28893,6,0,P|53:301|70:223,1,160,6|8,0:0|0:0,0:0:0:0:
192,256,29419,1,0,0:0:0:0:
304,208,29594,2,0,L|384:224,2,80,0|0|8,0:0|0:0|0:0,0:0:0:0:
160,176,30121,6,0,P|128:144|184:64,1,160
320,64,30647,2,0,L|400:64,1,80,8|0,0:0|0:0,0:0:0:0:
256,144,30998,1,2,0:0:0:0:
111,288,31173,1,8,0:0:0:0:
72,285,31261,1,8,0:0:0:0:
41,261,31349,1,8,0:0:0:0:
29,223,31436,1,8,0:0:0:0:
48,176,31524,1,8,0:0:0:0:
88,160,31612,1,8,0:0:0:0:
136,160,31700,6,0,L|216:168,1,80,8|0,0:0|0:0,0:0:0:0:
464,248,32051,1,4,0:0:0:0:
