osu file format v14

[General]
AudioFilename: audio.mp3
AudioLeadIn: 0
PreviewTime: 11425
Countdown: 0
SampleSet: None
StackLeniency: 0.4
Mode: 0
LetterboxInBreaks: 0
WidescreenStoryboard: 0

[Editor]
Bookmarks: 9305
DistanceSpacing: 1
BeatDivisor: 4
GridSize: 8
TimelineZoom: 1.7

[Metadata]
Title:My Life As A Teenage Robot
TitleUnicode:My Life As A Teenage Robot
Artist:Jennifer Karr
ArtistUnicode:Jennifer Karr
Creator:HydroCannon13
Version:Normal
Source:My Life As A Teenage Robot
Tags:voli bite you death tv size nickelodeon peter lurye opening cartoon jenny wakeman xj-9 byd
BeatmapID:1448179
BeatmapSetID:676178

[Difficulty]
HPDrainRate:4
CircleSize:3.5
OverallDifficulty:4
ApproachRate:5
SliderMultiplier:1.2
SliderTickRate:1

[Events]
//Background and Video events
0,0,"mylifeasateenagerobot.jpg",0,0
//Break Periods
//Storyboard Layer 0 (Background)
//Storyboard Layer 1 (Fail)
//Storyboard Layer 2 (Pass)
//Storyboard Layer 3 (Foreground)
//Storyboard Sound Samples

[TimingPoints]
548,350.877192982456,4,2,0,30,1,0
548,-100,4,2,0,30,0,0
5635,-100,4,3,1,60,0,0
11162,-100,4,3,0,5,0,0
11249,-100,4,3,1,60,0,0
21425,-100,4,3,1,90,0,1
21688,-100,4,3,0,5,0,1
21776,-100,4,3,1,60,0,1
21863,-100,4,3,0,5,0,1
21951,-100,4,3,1,60,0,1
22916,-100,4,3,0,5,0,1
23004,-100,4,3,1,60,0,1
24407,-100,4,3,1,30,0,0
25372,-100,4,3,0,5,0,0
25460,-100,4,3,1,45,0,0
25723,-100,4,3,0,5,0,0
25811,-100,4,3,1,70,0,0
26162,-100,4,3,1,70,0,0
31425,-100,4,3,1,60,0,0
31688,-100,4,3,0,5,0,0
31776,-100,4,3,1,60,0,0
32126,-100,4,3,1,60,0,0
32477,-100,4,3,1,50,0,0
32828,-100,4,3,1,40,0,0
33179,-100,4,3,1,30,0,0
33530,-100,4,3,1,20,0,0
33881,-100,4,3,1,10,0,0

[Colours]
Combo1 : 202,0,0
Combo2 : 1,209,254
Combo3 : 0,70,155
Combo4 : 255,228,43

[HitObjects]
116,57,548,6,0,B|235:29|235:29|302:52,1,180,2|2,0:0|0:0,0:0:0:0:
229,150,1425,2,0,P|216:213|245:272,1,120,2|2,0:0|0:0,0:0:0:0:
339,200,2126,2,0,P|382:192|411:196,1,60,2|0,0:0|0:0,0:0:0:0:
450,222,2477,2,0,P|454:157|417:103,1,120,2|0,0:0|0:0,0:0:0:0:
373,81,3004,1,2,0:0:0:0:
257,112,3355,6,0,P|198:119|137:96,2,120,2|2|0,0:0|0:0|0:0,0:0:0:0:
290,162,4232,2,0,B|296:192|296:192|286:220,1,60,2|0,0:0|0:0,0:0:0:0:
262,273,4583,2,0,L|384:262,2,120,2|2|2,0:0|0:0|0:0,0:0:0:0:
208,300,5460,1,2,0:0:0:0:
152,321,5635,2,0,L|157:382,2,60,8|8|8,0:0|0:0|0:0,0:0:0:0:
107,279,6162,6,0,P|90:222|110:160,1,120,6|8,0:0|0:0,0:0:0:0:
188,77,6863,2,0,L|182:17,2,60,2|0|8,0:0|0:0|0:0,0:0:0:0:
218,129,7390,1,2,0:0:0:0:
325,76,7740,2,0,L|384:81,1,60,0|10,0:0|0:0,0:0:0:0:
436,50,8091,2,0,B|415:106|415:106|429:170,1,120,2|0,0:0|0:0,0:0:0:0:
452,220,8618,1,10,0:0:0:0:
333,237,8969,6,0,P|277:216|203:230,1,120,2|10,0:0|0:0,0:0:0:0:
114,283,9670,2,0,L|122:360,2,60,2|2|8,0:0|0:0|0:0,0:0:0:0:
75,236,10197,2,0,L|87:116,1,120,2|2,0:0|0:0,0:0:0:0:
122,67,10723,1,10,0:0:0:0:
203,155,11074,1,6,0:0:0:0:
284,66,11425,1,8,0:0:0:0:
343,72,11600,1,8,0:0:0:0:
395,42,11776,6,0,P|370:99|385:160,1,120,6|8,0:0|0:0,0:0:0:0:
454,248,12477,2,0,P|424:246|394:253,1,60,2|2,0:0|0:0,0:0:0:0:
353,296,12828,1,8,0:0:0:0:
353,296,13004,2,0,B|291:308|291:308|231:286,1,120,2|0,0:0|0:0,0:0:0:0:
186,256,13530,1,10,0:0:0:0:
186,256,13705,2,0,P|174:196|202:131,1,120,2|0,0:0|0:0,0:0:0:0:
160,91,14232,2,0,L|85:96,1,60,10|0,0:0|0:0,0:0:0:0:
44,117,14583,6,0,L|51:236,1,120,2|10,0:0|0:0,0:0:0:0:
162,280,15284,2,0,P|162:309|156:339,2,60,2|2|8,0:0|0:0|0:0,0:0:0:0:
180,222,15811,2,0,P|243:241|310:221,1,120,2|0,0:0|0:0,0:0:0:0:
343,194,16337,2,0,B|323:251|371:247|353:313,2,120,10|0|8,0:0|0:0|0:0,0:0:0:0:
393,85,17390,6,0,P|336:100|278:88,1,120,6|10,0:0|0:0,0:0:0:0:
161,63,18091,2,0,L|156:3,2,60,0|2|8,0:0|0:0|0:0,0:0:0:0:
164,123,18618,1,2,0:0:0:0:
103,226,18969,2,0,L|162:230,1,60,0|8,0:0|0:0,0:0:0:0:
209,267,19319,2,0,L|328:258,1,120,2|2,0:0|0:0,0:0:0:0:
383,231,19846,1,10,0:0:0:0:
327,124,20197,6,0,P|388:109|454:135,2,120,2|10|2,0:0|0:0|0:0,0:0:0:0:
281,162,21074,2,0,L|218:157,1,60,2|8,0:0|0:0,0:0:0:0:
176,116,21425,2,0,B|188:175|188:175|168:243,1,120,6|10,0:0|0:0,0:0:0:0:
143,285,21951,2,0,P|175:277|218:284,1,60,10|0,0:0|0:0,0:0:0:0:
254,307,22302,2,0,P|283:308|312:300,1,60,10|0,0:0|0:0,0:0:0:0:
358,261,22653,1,10,0:0:0:0:
417,252,22828,1,0,0:0:0:0:
471,279,23004,6,0,L|459:136,1,120,12|8,0:0|0:0,0:0:0:0:
369,81,23705,2,0,L|363:140,1,60,8|0,0:0|0:0,0:0:0:0:
314,175,24056,2,0,L|308:234,1,60,10|8,0:0|0:0,0:0:0:0:
256,192,24407,12,4,25811,0:0:0:0:
265,124,26512,5,0,0:0:0:0:
265,124,26688,2,0,P|310:103|390:113,2,120,2|2|2,0:0|0:0|0:0,0:0:0:0:
220,164,27565,1,10,0:0:0:0:
124,91,27916,1,2,0:0:0:0:
109,210,28267,2,0,L|114:281,1,60,8|8,0:0|0:0,0:0:0:0:
150,317,28618,6,0,P|209:296|278:313,1,120,4|10,0:0|0:0,0:0:0:0:
371,360,29319,1,0,0:0:0:0:
371,360,29495,2,0,L|504:347,2,120,2|2|2,0:0|0:0|0:0,0:0:0:0:
331,314,30372,2,0,P|324:284|332:249,1,60,10|0,0:0|0:0,0:0:0:0:
352,200,30723,2,0,P|357:170|350:141,1,60,2|10,0:0|0:0,0:0:0:0:
311,95,31074,2,0,L|316:27,2,60,8|8|2,0:0|0:0|0:0,0:0:0:0:
221,175,31776,5,6,0:0:0:0:
256,192,31951,12,0,33881,0:0:0:0:
