osu file format v14

[General]
AudioFilename: audio.mp3
AudioLeadIn: 0
PreviewTime: 13991
Countdown: 0
SampleSet: None
StackLeniency: 0.7
Mode: 3
LetterboxInBreaks: 0
SpecialStyle: 0
WidescreenStoryboard: 0

[Editor]
DistanceSpacing: 0.8
BeatDivisor: 4
GridSize: 32
TimelineZoom: 1.6

[Metadata]
Title:Fires of Destiny
TitleUnicode:Fires of Destiny
Artist:Jehezukiel
ArtistUnicode:Jehezukiel
Creator:AJIekceu
Version:Lv.5
Source:Pump It Up XX
Tags:alexey piu andamiro original 2019 20th anniversary edition hardstyle guitar
BeatmapID:1859340
BeatmapSetID:889594

[Difficulty]
HPDrainRate:9
CircleSize:7
OverallDifficulty:9
ApproachRate:5
SliderMultiplier:1.4
SliderTickRate:1

[Events]
//Background and Video events
0,0,"Fires of Destiny.png",0,0
//Break Periods
//Storyboard Layer 0 (Background)
//Storyboard Layer 1 (Fail)
//Storyboard Layer 2 (Pass)
//Storyboard Layer 3 (Foreground)
//Storyboard Sound Samples

[TimingPoints]
1701,387.096774193548,4,1,0,5,1,0
51249,413.793103448276,4,1,0,5,1,0
52490,480,4,1,0,5,1,0
52963,500,4,1,0,5,1,0
54463,666.666666666667,4,1,0,5,1,0
55129,652.173913043478,4,1,0,5,1,0
57085,800,4,1,0,5,1,0
57906,387.096774193548,4,1,0,5,1,0

[HitObjects]
329,192,7894,5,0,0:0:0:0:
329,192,8281,1,0,0:0:0:0:
182,192,8668,1,0,0:0:0:0:
182,192,9055,1,0,0:0:0:0:
402,192,9442,1,0,0:0:0:0:
402,192,9830,1,0,0:0:0:0:
109,192,10217,1,0,0:0:0:0:
109,192,10604,1,0,0:0:0:0:
329,192,10991,1,0,0:0:0:0:
182,192,11378,1,0,0:0:0:0:
402,192,11765,1,0,0:0:0:0:
329,192,11959,1,0,0:0:0:0:
109,192,12152,1,0,0:0:0:0:
182,192,12346,1,0,0:0:0:0:
256,192,12539,128,0,13700:0:0:0:0:
109,192,13700,1,0,0:0:0:0:
402,192,13700,1,0,0:0:0:0:
182,192,14088,1,0,0:0:0:0:
402,192,14475,1,0,0:0:0:0:
182,192,14862,1,0,0:0:0:0:
475,192,15249,1,0,0:0:0:0:
329,192,15636,1,0,0:0:0:0:
109,192,16023,1,0,0:0:0:0:
329,192,16410,1,0,0:0:0:0:
36,192,16797,1,0,0:0:0:0:
109,192,16991,1,0,0:0:0:0:
182,192,17184,1,0,0:0:0:0:
475,192,17571,1,0,0:0:0:0:
182,192,17959,1,0,0:0:0:0:
402,192,18346,1,0,0:0:0:0:
329,192,18733,1,0,0:0:0:0:
109,192,19120,1,0,0:0:0:0:
182,192,19313,1,0,0:0:0:0:
256,192,19507,128,0,20281:0:0:0:0:
402,192,20281,1,0,0:0:0:0:
36,192,20668,1,0,0:0:0:0:
402,192,21055,1,0,0:0:0:0:
109,192,21442,1,0,0:0:0:0:
329,192,21830,1,0,0:0:0:0:
182,192,22217,1,0,0:0:0:0:
36,192,22604,1,0,0:0:0:0:
475,192,22991,1,0,0:0:0:0:
402,192,23184,1,0,0:0:0:0:
329,192,23378,1,0,0:0:0:0:
402,192,23765,1,0,0:0:0:0:
36,192,24152,1,0,0:0:0:0:
475,192,24539,1,0,0:0:0:0:
182,192,24926,1,0,0:0:0:0:
402,192,25313,1,0,0:0:0:0:
329,192,25507,1,0,0:0:0:0:
256,192,25700,1,0,0:0:0:0:
182,192,26088,128,0,26475:0:0:0:0:
402,192,26475,128,0,26862:0:0:0:0:
256,192,26862,1,0,0:0:0:0:
109,192,27249,128,0,27636:0:0:0:0:
329,192,27636,1,0,0:0:0:0:
256,192,28023,1,0,0:0:0:0:
475,192,28410,128,0,28797:0:0:0:0:
182,192,28797,128,0,29184:0:0:0:0:
329,192,29184,128,0,29571:0:0:0:0:
36,192,29571,1,0,0:0:0:0:
109,192,29765,1,0,0:0:0:0:
182,192,29959,128,0,30346:0:0:0:0:
402,192,30346,128,0,30733:0:0:0:0:
256,192,30733,128,0,31120:0:0:0:0:
475,192,31120,1,0,0:0:0:0:
402,192,31313,1,0,0:0:0:0:
329,192,31507,128,0,31894:0:0:0:0:
109,192,31894,128,0,32281:0:0:0:0:
402,192,32281,128,0,32668:0:0:0:0:
256,192,32668,1,0,0:0:0:0:
329,192,32668,128,0,33442:0:0:0:0:
36,192,33055,1,0,0:0:0:0:
182,192,33442,128,0,34217:0:0:0:0:
475,192,33830,1,0,0:0:0:0:
256,192,34217,128,0,34991:0:0:0:0:
109,192,34604,1,0,0:0:0:0:
402,192,34991,128,0,35765:0:0:0:0:
182,192,35378,1,0,0:0:0:0:
329,192,35765,128,0,36152:0:0:0:0:
182,192,36152,128,0,36442:0:0:0:0:
402,192,36539,128,0,36926:0:0:0:0:
109,192,36926,128,0,37313:0:0:0:0:
475,192,37313,128,0,38862:0:0:0:0:
256,192,37313,1,0,0:0:0:0:
182,192,38475,128,0,38862:0:0:0:0:
36,192,38862,128,0,41959:0:0:0:0:
256,192,41571,128,0,41959:0:0:0:0:
329,192,41959,128,0,45055:0:0:0:0:
109,192,44668,128,0,45055:0:0:0:0:
256,192,45055,128,0,48152:0:0:0:0:
402,192,47378,128,0,48152:0:0:0:0:
182,192,48152,128,0,51249:0:0:0:0:
475,192,48926,128,0,51249:0:0:0:0:
329,192,51249,128,0,52963:0:0:0:0:
256,192,51662,1,0,0:0:0:0:
182,192,52076,1,0,0:0:0:0:
109,192,52490,128,0,52963:0:0:0:0:
36,192,52963,128,0,55129:0:0:0:0:
475,192,53463,1,0,0:0:0:0:
329,192,53963,1,0,0:0:0:0:
256,192,54463,128,0,55129:0:0:0:0:
475,192,55129,128,0,57906:0:0:0:0:
182,192,55781,1,0,0:0:0:0:
402,192,56433,1,0,0:0:0:0:
182,192,57085,128,0,57906:0:0:0:0:
329,192,57906,128,0,59454:0:0:0:0:
36,192,58293,1,0,0:0:0:0:
109,192,58680,1,0,0:0:0:0:
182,192,59067,1,0,0:0:0:0:
256,192,59454,128,0,61002:0:0:0:0:
402,192,59454,1,0,0:0:0:0:
109,192,59841,1,0,0:0:0:0:
475,192,60228,1,0,0:0:0:0:
36,192,60615,1,0,0:0:0:0:
402,192,61002,128,0,61389:0:0:0:0:
182,192,61389,1,0,0:0:0:0:
256,192,61583,1,0,0:0:0:0:
109,192,61776,128,0,62164:0:0:0:0:
475,192,62164,1,0,0:0:0:0:
329,192,62357,1,0,0:0:0:0:
182,192,62551,128,0,63712:0:0:0:0:
256,192,62938,1,0,0:0:0:0:
402,192,63325,1,0,0:0:0:0:
329,192,63712,1,0,0:0:0:0:
256,192,63905,1,0,0:0:0:0:
329,192,64099,128,0,64873:0:0:0:0:
182,192,64486,1,0,0:0:0:0:
36,192,64873,128,0,65260:0:0:0:0:
256,192,65260,128,0,65647:0:0:0:0:
109,192,65647,128,0,68744:0:0:0:0:
329,192,66035,1,0,0:0:0:0:
475,192,66422,1,0,0:0:0:0:
402,192,66809,1,0,0:0:0:0:
329,192,67196,1,0,0:0:0:0:
256,192,67583,1,0,0:0:0:0:
36,192,67970,1,0,0:0:0:0:
182,192,68357,1,0,0:0:0:0:
329,192,68744,128,0,69131:0:0:0:0:
402,192,69131,128,0,69518:0:0:0:0:
182,192,69518,128,0,69905:0:0:0:0:
109,192,69905,128,0,70293:0:0:0:0:
256,192,70293,128,0,71067:0:0:0:0:
329,192,70680,1,0,0:0:0:0:
402,192,71067,128,0,71454:0:0:0:0:
182,192,71454,128,0,71841:0:0:0:0:
329,192,71841,128,0,73389:0:0:0:0:
256,192,72228,1,0,0:0:0:0:
182,192,72615,1,0,0:0:0:0:
109,192,73002,1,0,0:0:0:0:
36,192,73389,128,0,73776:0:0:0:0:
256,192,73776,128,0,74164:0:0:0:0:
182,192,74164,128,0,74551:0:0:0:0:
329,192,74551,128,0,74938:0:0:0:0:
475,192,74938,128,0,78035:0:0:0:0:
182,192,75325,1,0,0:0:0:0:
329,192,75712,1,0,0:0:0:0:
109,192,76099,1,0,0:0:0:0:
329,192,76486,1,0,0:0:0:0:
36,192,76873,1,0,0:0:0:0:
182,192,77260,128,0,78035:0:0:0:0:
329,192,78035,128,0,79583:0:0:0:0:
256,192,78422,1,0,0:0:0:0:
402,192,78809,1,0,0:0:0:0:
109,192,79196,1,0,0:0:0:0:
182,192,79583,128,0,81131:0:0:0:0:
256,192,79970,1,0,0:0:0:0:
109,192,80357,1,0,0:0:0:0:
402,192,80744,128,0,81131:0:0:0:0:
329,192,81131,128,0,82293:0:0:0:0:
256,192,81518,1,0,0:0:0:0:
182,192,81905,1,0,0:0:0:0:
109,192,82293,128,0,82680:0:0:0:0:
256,192,82486,1,0,0:0:0:0:
402,192,82680,128,0,83067:0:0:0:0:
182,192,83067,128,0,83454:0:0:0:0:
475,192,83454,128,0,83841:0:0:0:0:
329,192,83841,128,0,84228:0:0:0:0:
182,192,84228,128,0,85389:0:0:0:0:
402,192,84615,1,0,0:0:0:0:
109,192,85002,1,0,0:0:0:0:
256,192,85389,128,0,85776:0:0:0:0:
36,192,85776,128,0,87325:0:0:0:0:
329,192,86164,1,0,0:0:0:0:
256,192,86551,1,0,0:0:0:0:
182,192,86938,1,0,0:0:0:0:
475,192,87325,128,0,88873:0:0:0:0:
329,192,87712,1,0,0:0:0:0:
109,192,88099,1,0,0:0:0:0:
256,192,88486,1,0,0:0:0:0:
36,192,88873,1,0,0:0:0:0:
329,192,89260,128,0,89647:0:0:0:0:
109,192,89647,128,0,90035:0:0:0:0:
182,192,90035,128,0,90422:0:0:0:0:
402,192,90422,128,0,91002:0:0:0:0:
182,192,91002,1,0,0:0:0:0:
109,192,91196,128,0,93518:0:0:0:0:
256,192,91583,1,0,0:0:0:0:
329,192,91970,1,0,0:0:0:0:
182,192,92357,1,0,0:0:0:0:
402,192,92744,1,0,0:0:0:0:
36,192,93131,1,0,0:0:0:0:
256,192,93518,128,0,93905:0:0:0:0:
329,192,93905,1,0,0:0:0:0:
109,192,94099,1,0,0:0:0:0:
329,192,94293,1,0,0:0:0:0:
109,192,94486,1,0,0:0:0:0:
256,192,94873,1,0,0:0:0:0:
329,192,95260,1,0,0:0:0:0:
182,192,95454,1,0,0:0:0:0:
402,192,95647,1,0,0:0:0:0:
182,192,95841,128,0,96615:0:0:0:0:
256,192,96228,1,0,0:0:0:0:
329,192,96422,1,0,0:0:0:0:
402,192,96615,1,0,0:0:0:0:
36,192,97002,1,0,0:0:0:0:
329,192,97196,1,0,0:0:0:0:
36,192,97389,1,0,0:0:0:0:
329,192,97583,1,0,0:0:0:0:
182,192,97970,1,0,0:0:0:0:
402,192,98357,1,0,0:0:0:0:
256,192,98551,1,0,0:0:0:0:
402,192,98744,1,0,0:0:0:0:
182,192,98938,128,0,99325:0:0:0:0:
475,192,99325,128,0,99712:0:0:0:0:
36,192,99712,128,0,101260:0:0:0:0:
256,192,100099,1,0,0:0:0:0:
475,192,100486,1,0,0:0:0:0:
182,192,100873,1,0,0:0:0:0:
329,192,101260,128,0,102809:0:0:0:0:
109,192,101647,1,0,0:0:0:0:
475,192,102035,1,0,0:0:0:0:
36,192,102422,1,0,0:0:0:0:
402,192,102809,128,0,103970:0:0:0:0:
256,192,103196,1,0,0:0:0:0:
36,192,103583,1,0,0:0:0:0:
109,192,103970,128,0,104357:0:0:0:0:
182,192,104357,128,0,105905:0:0:0:0:
475,192,104744,1,0,0:0:0:0:
402,192,105131,1,0,0:0:0:0:
329,192,105518,128,0,105905:0:0:0:0:
256,192,105905,128,0,106293:0:0:0:0:
109,192,106293,1,0,0:0:0:0:
402,192,106293,1,0,0:0:0:0:
329,192,106680,1,0,0:0:0:0:
182,192,107067,1,0,0:0:0:0:
402,192,107454,1,0,0:0:0:0:
256,192,107841,1,0,0:0:0:0:
109,192,108228,1,0,0:0:0:0:
182,192,108615,1,0,0:0:0:0:
475,192,109002,1,0,0:0:0:0:
329,192,109389,1,0,0:0:0:0:
36,192,109776,1,0,0:0:0:0:
182,192,110164,1,0,0:0:0:0:
256,192,110357,1,0,0:0:0:0:
329,192,110551,1,0,0:0:0:0:
182,192,110744,1,0,0:0:0:0:
402,192,110938,1,0,0:0:0:0:
109,192,111131,1,0,0:0:0:0:
475,192,111325,128,0,112099:0:0:0:0:
182,192,112099,1,0,0:0:0:0:
329,192,112293,1,0,0:0:0:0:
109,192,112486,1,0,0:0:0:0:
402,192,112680,1,0,0:0:0:0:
329,192,112873,1,0,0:0:0:0:
256,192,113067,1,0,0:0:0:0:
182,192,113260,1,0,0:0:0:0:
109,192,113454,1,0,0:0:0:0:
475,192,113647,1,0,0:0:0:0:
36,192,113841,1,0,0:0:0:0:
402,192,114035,1,0,0:0:0:0:
109,192,114228,1,0,0:0:0:0:
329,192,114422,1,0,0:0:0:0:
182,192,114615,1,0,0:0:0:0:
402,192,114809,1,0,0:0:0:0:
109,192,115002,1,0,0:0:0:0:
475,192,115196,1,0,0:0:0:0:
256,192,115196,128,0,117905:0:0:0:0:
36,192,115583,1,0,0:0:0:0:
402,192,115970,1,0,0:0:0:0:
109,192,116357,1,0,0:0:0:0:
475,192,116744,1,0,0:0:0:0:
36,192,116938,1,0,0:0:0:0:
475,192,117131,1,0,0:0:0:0:
36,192,117325,1,0,0:0:0:0:
329,192,117518,1,0,0:0:0:0:
182,192,117712,1,0,0:0:0:0:
402,192,117905,128,0,118293:0:0:0:0:
109,192,118293,128,0,118680:0:0:0:0:
402,192,118680,1,0,0:0:0:0:
256,192,118680,1,0,0:0:0:0:
