osu file format v14

[General]
AudioFilename: audio.mp3
AudioLeadIn: 0
PreviewTime: 13036
Countdown: 0
SampleSet: Normal
StackLeniency: 0.7
Mode: 0
LetterboxInBreaks: 0
WidescreenStoryboard: 1

[Editor]
DistanceSpacing: 0.8
BeatDivisor: 2
GridSize: 4
TimelineZoom: 1

[Metadata]
Title:Somebody To Love
TitleUnicode:Somebody To Love
Artist:Jefferson Airplane
ArtistUnicode:Jefferson Airplane
Creator:allein
Version:Normal
Source:
Tags:surrealistic pillow psychedelic rock english folk
BeatmapID:3890749
BeatmapSetID:1888186

[Difficulty]
HPDrainRate:4
CircleSize:4
OverallDifficulty:5
ApproachRate:5
SliderMultiplier:1.2
SliderTickRate:1

[Events]
//Background and Video events
0,0,"659594.jpg",0,0
//Break Periods
2,66320,68968
2,94049,96256
//Storyboard Layer 0 (Background)
//Storyboard Layer 1 (Fail)
//Storyboard Layer 2 (Pass)
//Storyboard Layer 3 (Foreground)
//Storyboard Layer 4 (Overlay)
//Storyboard Sound Samples

[TimingPoints]
-1181,451.127819548872,4,1,0,65,1,0
-1181,-100,4,1,0,65,0,0
4232,-100,4,1,0,65,0,0
9633,444.444444444444,4,1,0,65,1,0
9633,-100,4,1,0,65,0,0
13633,470.588235294118,4,1,0,65,1,0
13633,-100,4,1,0,65,0,0
14103,-100,4,1,0,50,0,0
15045,451.127819548872,4,1,0,70,1,0
15045,-100,4,1,0,70,0,0
18654,454.545454545455,4,1,0,70,1,0
18654,-100,4,1,0,70,0,0
25926,447.761194029851,4,1,0,60,1,0
27717,-100,4,1,0,60,0,0
33979,454.545454545455,4,1,0,65,1,0
33979,-100,4,1,0,65,0,0
34888,458.015267175572,4,1,0,65,1,0
34888,-100,4,1,0,65,0,0
38539,451.127819548872,4,1,0,65,1,0
38539,-100,4,1,0,65,0,0
52975,454.545454545455,4,1,0,70,1,0
52975,-100,4,1,0,70,0,0
60247,447.761194029851,4,1,0,70,1,0
60247,-100,4,1,0,70,0,0
63830,458.015267175573,4,1,0,70,1,0
63830,-100,4,1,0,70,0,0
66557,-100,4,1,0,60,0,0
66571,454.545454545455,4,1,0,60,1,0
66571,-100,4,1,0,60,0,0
70207,-100,4,1,0,60,0,0
72011,-100,4,1,0,70,0,0
72025,-100,4,1,0,70,0,0
78375,451.127819548872,4,1,0,70,1,0
78375,-100,4,1,0,70,0,0
79277,-100,4,1,0,70,0,0
81081,454.545454545455,4,1,0,70,1,0
82899,-100,4,1,0,70,0,0
84717,458.015267175573,4,1,0,70,1,0
90213,454.545454545455,4,1,0,70,1,0
94076,-100,4,1,0,70,0,0
94749,451.127819548872,4,1,0,60,1,0
94749,-100,4,1,0,60,0,0
95652,451.127819548872,4,1,0,60,1,0
95652,-100,4,1,0,60,0,0
99261,444.444444444444,4,1,0,60,1,0
99261,-100,4,1,0,60,0,0
101038,457.142857142857,4,1,0,65,1,0
101038,-100,4,1,0,65,0,0
103775,446.096654275093,4,1,0,65,1,0
104667,452.488687782805,4,1,0,75,1,1
104667,-100,4,1,0,75,0,1
110096,-100,4,1,0,70,0,0
119138,461.538461538461,4,1,0,70,1,0
119138,-100,4,1,0,70,0,0
120984,458.015267175572,4,1,0,70,1,0
124648,457.142857142857,4,1,0,70,1,0
131048,472.440944881889,4,1,0,70,1,0
131756,-100,4,1,0,70,0,0
131992,463.320463320463,4,1,0,60,1,0
131992,-100,4,1,0,60,0,0
137551,453.686200378072,4,1,0,70,1,0
137551,-100,4,1,0,70,0,0
144806,451.127819548872,4,1,0,70,1,0
144806,-100,4,1,0,70,0,0
150219,458.015267175572,4,1,0,70,1,0
150219,-100,4,1,0,70,0,0
152051,451.127819548872,4,1,0,70,1,0
157465,461.538461538461,4,1,0,70,1,0
157465,-100,4,1,0,70,0,0
159311,458.015267175572,4,1,0,70,1,0
161143,461.538461538461,4,1,0,70,1,0
162989,458.015267175572,4,1,0,70,1,0
168485,-100,4,1,0,70,0,0
168943,521.739130434782,4,1,0,70,1,0
169203,-100,4,1,0,70,0,0
169464,-100,4,2,0,60,0,0
169986,-100,4,2,0,50,0,0
170508,-100,4,2,0,40,0,0
171029,-100,4,2,0,30,0,0
171551,-100,4,2,0,20,0,0
172073,-100,4,2,0,10,0,0
172334,-100,4,2,0,10,0,0
172595,-100,4,2,0,5,0,0

[Colours]
Combo1 : 255,205,53
Combo2 : 104,255,104
Combo3 : 74,156,255
Combo4 : 244,72,98

[HitObjects]
418,30,623,6,0,L|440:179,1,120,12|8,0:0|0:0,0:0:0:0:
463,187,1300,1,0,0:0:0:0:
434,225,1525,2,0,L|446:295,2,60,8|2|8,0:0|0:0|0:0,0:0:0:0:
321,183,2428,1,8,0:0:0:0:
217,244,2879,1,8,0:0:0:0:
123,169,3330,1,8,0:0:0:0:
84,197,3555,2,0,L|9:177,2,60,2|8|0,0:0|0:0|0:0,0:0:0:0:
107,238,4232,6,0,P|117:294|126:360,1,120,8|8,0:0|0:0,0:0:0:0:
167,379,4909,1,0,0:0:0:0:
201,345,5134,1,8,0:0:0:0:
316,379,5585,1,8,0:0:0:0:
430,344,6037,2,0,P|408:286|339:264,1,120,10|8,0:0|0:0,0:0:0:0:
245,220,6939,1,8,0:0:0:0:
214,182,7164,2,0,L|226:124,1,60,0|8,0:0|0:0,0:0:0:0:
201,5,7841,6,0,L|64:21,1,120,10|8,0:0|0:0,0:0:0:0:
37,1,8518,1,2,0:0:0:0:
16,119,8969,2,0,L|29:186,1,60,0|8,0:0|0:0,0:0:0:0:
137,230,9633,2,0,L|118:365,1,120,8|8,0:0|0:0,0:0:0:0:
158,378,10299,1,0,0:0:0:0:
201,357,10521,1,8,0:0:0:0:
243,334,10744,2,0,L|361:350,1,120,2|0,0:0|0:0,0:0:0:0:
396,383,11410,5,8,0:0:0:0:
466,285,11855,1,8,0:0:0:0:
397,186,12299,1,8,0:0:0:0:
360,154,12521,1,0,0:0:0:0:
311,155,12744,1,8,0:0:0:0:
210,220,13188,2,0,P|200:278|186:346,1,120,4|4,1:0|1:0,0:0:0:0:
187,337,15045,6,0,P|118:321|88:266,2,120,4|8|8,0:0|0:0|0:0,0:0:0:0:
221,318,16172,1,2,0:0:0:0:
259,289,16398,1,8,0:0:0:0:
365,343,16849,2,0,L|497:357,1,120,8|8,0:0|0:0,0:0:0:0:
510,315,17526,1,2,0:0:0:0:
489,271,17751,1,8,0:0:0:0:
492,151,18202,1,10,0:0:0:0:
421,54,18654,6,0,L|284:71,1,120,8|10,0:0|0:0,0:0:0:0:
195,123,19563,2,0,L|125:105,2,60,8|2|8,0:0|0:0|0:0,0:0:0:0:
229,156,20244,1,0,0:0:0:0:
201,195,20472,2,0,L|222:333,1,120,8|8,0:0|0:0,0:0:0:0:
250,350,21154,1,2,0:0:0:0:
294,332,21381,1,8,0:0:0:0:
408,368,21835,1,10,0:0:0:0:
495,285,22290,6,0,P|447:238|372:231,1,120,8|10,0:0|0:0,0:0:0:0:
284,185,23199,2,0,L|217:194,2,60,8|2|8,0:0|0:0|0:0,0:0:0:0:
320,153,23881,1,0,0:0:0:0:
320,153,24108,2,0,B|290:91|290:91|296:25,1,120,8|8,0:0|0:0,0:0:0:0:
338,20,24790,1,2,0:0:0:0:
454,50,25244,2,0,L|443:121,1,60,2|8,0:0|0:0,0:0:0:0:
506,190,25926,5,12,0:0:0:0:
417,271,26373,1,10,0:0:0:0:
306,224,26821,2,0,L|235:213,1,60,8|2,0:0|0:0,0:0:0:0:
199,225,27269,1,8,0:0:0:0:
184,270,27493,1,0,3:0:0:0:
173,316,27717,1,0,0:0:0:0:
256,192,27940,12,0,30403,0:0:0:0:
292,303,31299,5,0,0:0:0:0:
325,336,31523,2,0,L|395:319,1,60,2|0,0:2|0:0,0:0:0:0:
433,239,32194,2,0,L|491:253,2,60,0|2|0,0:0|0:2|0:0,0:0:0:0:
403,201,32866,2,0,L|384:72,1,120,14|0,0:2|0:0,0:0:0:0:
426,57,33537,1,0,0:0:0:0:
313,21,33979,1,4,3:0:0:0:
196,49,34433,2,0,L|142:98,1,60,8|4,0:0|3:0,0:0:0:0:
114,120,34888,5,4,0:0:0:0:
189,213,35346,1,0,0:0:0:0:
142,226,35575,2,0,P|137:290|127:355,1,120,0|0,3:0|3:0,0:0:0:0:
165,375,36262,1,2,0:2:0:0:
265,308,36720,1,2,0:2:0:0:
369,366,37178,2,0,L|431:379,2,60,2|0|2,0:2|3:0|0:2,0:0:0:0:
346,323,37865,1,2,0:0:0:0:
378,288,38094,1,0,0:0:0:0:
456,196,38539,6,0,P|418:148|352:139,1,120,2|0,0:0|0:0,0:0:0:0:
325,165,39215,1,2,0:0:0:0:
276,166,39441,2,0,L|244:105,2,60,0|0|0,0:0|3:0|0:0,0:0:0:0:
188,247,40343,2,0,L|56:229,1,120
26,253,41020,1,2,0:0:0:0:
16,133,41471,2,0,L|36:67,1,60,0|2,3:0|0:0,0:0:0:0:
137,16,42148,5,0,0:0:0:0:
178,39,42373,2,0,L|198:105,1,60,0|0,3:0|0:0,0:0:0:0:
300,154,43050,2,0,L|367:161,2,60,0|0|0,0:0|3:0|0:0,0:0:0:0:
253,167,43726,1,0,3:0:0:0:
213,201,43952,2,0,P|199:263|210:341,1,120,2|0,0:0|0:0,0:0:0:0:
235,354,44629,2,0,P|295:345|385:340,1,120,2|2,0:0|0:0,0:0:0:0:
397,362,45305,1,0,0:0:0:0:
463,262,45757,6,0,P|426:197|360:198,1,120,2|0,0:0|0:0,0:0:0:0:
341,207,46433,1,2,0:0:0:0:
267,111,46884,1,0,3:0:0:0:
310,89,47110,2,0,L|291:32,1,60,2|0,0:0|3:0,0:0:0:0:
247,12,47561,1,0,0:0:0:0:
134,54,48012,1,0,0:0:0:0:
187,161,48463,1,0,0:0:0:0:
155,197,48689,2,0,P|159:265|158:330,1,120,2|0,0:0|3:0,0:0:0:0:
193,350,49366,6,0,P|227:350|262:357,1,60,0|0,0:0|3:0,0:0:0:0:
284,318,49817,1,2,0:0:0:0:
400,345,50268,2,0,P|429:345|459:340,2,60,0|2|0,0:0|0:0|0:0,0:0:0:0:
373,304,50945,1,0,3:0:0:0:
342,267,51170,2,0,P|354:205|358:139,1,120,2|0,0:0|0:0,0:0:0:0:
452,75,52072,1,2,0:0:0:0:
338,35,52523,1,2,0:0:0:0:
230,87,52975,6,0,B|154:67|171:118|77:108,1,120,4|8,0:0|0:0,0:0:0:0:
67,218,53884,2,0,P|42:218|3:220,2,60,8|2|8,0:0|0:0|0:0,0:0:0:0:
103,248,54565,1,0,3:0:0:0:
139,279,54793,1,8,0:0:0:0:
253,243,55247,1,8,0:0:0:0:
296,221,55475,2,0,P|312:286|311:360,1,120,2|0,0:0|0:0,0:0:0:0:
278,372,56156,1,10,0:0:0:0:
397,365,56611,6,0,P|472:344|493:281,1,120,8|10,0:0|0:0,0:0:0:0:
497,191,57520,2,0,L|425:178,1,60,8|2,0:0|0:0,0:0:0:0:
401,211,57975,2,0,L|329:224,1,60,8|0,0:0|0:0,0:0:0:0:
299,200,58429,1,8,0:0:0:0:
257,87,58884,1,8,0:0:0:0:
284,47,59111,2,0,P|346:58|380:142,1,120,2|0,0:0|0:0,0:0:0:0:
358,145,59793,1,10,0:0:0:0:
237,160,60247,6,0,P|154:144|86:134,2,120,8|10|8,0:0|0:0|0:0,0:0:0:0:
259,202,61366,1,2,0:0:0:0:
238,245,61590,1,8,0:0:0:0:
341,306,62038,1,8,0:0:0:0:
227,344,62485,2,0,L|169:374,1,60,8|2,0:0|0:0,0:0:0:0:
61,327,63157,1,2,0:0:0:0:
28,291,63381,2,0,L|37:223,1,60,8|0,0:0|0:0,0:0:0:0:
78,209,63829,5,12,0:0:0:0:
197,223,64288,1,10,0:0:0:0:
217,104,64746,2,0,L|208:36,1,60,8|2,0:0|0:0,0:0:0:0:
168,19,65204,2,0,L|100:28,1,60,8|0,0:0|3:0,0:0:0:0:
75,61,65662,1,8,0:0:0:0:
151,152,66120,1,12,0:0:0:0:
256,192,70207,12,12,72934,0:0:0:0:
422,201,73843,6,0,P|426:250|439:367,1,120,14|8,0:0|0:0,0:0:0:0:
395,349,74525,1,2,0:0:0:0:
276,369,74980,2,0,L|204:348,1,60,2|8,0:0|0:0,0:0:0:0:
200,307,75434,1,2,0:0:0:0:
80,309,75889,2,0,L|69:372,2,60,0|10|0,3:0|0:0|0:0,0:0:0:0:
101,265,76571,1,10,0:0:0:0:
79,221,76798,1,0,0:0:0:0:
62,176,77025,1,10,0:0:0:0:
158,106,77480,6,0,L|263:79,1,60,10|0,0:0|3:0,0:0:0:0:
233,46,77934,1,10,0:0:0:0:
346,85,78375,1,8,0:0:0:0:
393,121,78600,2,0,L|451:106,2,60,2|8|0,3:2|0:0|3:0,0:0:0:0:
369,163,79277,1,8,0:0:0:0:
262,217,79728,1,8,0:0:0:0:
377,249,80179,2,0,L|442:279,1,60,10|0,0:0|0:0,0:0:0:0:
479,268,80630,1,10,0:0:0:0:
379,335,81081,6,0,L|255:352,1,120,4|10,0:0|0:0,0:0:0:0:
217,329,81762,1,0,3:0:0:0:
170,338,81990,2,0,L|97:362,2,60,4|0|8,0:0|0:0|0:0,0:0:0:0:
231,236,82899,1,14,0:0:0:0:
173,130,83353,1,8,0:0:0:0:
205,94,83581,2,0,L|171:30,1,60,0|10,0:0|0:0,0:0:0:0:
86,120,84262,1,8,0:0:0:0:
168,207,84717,6,0,L|321:239,2,120,12|10|10,0:0|0:0|0:0,0:0:0:0:
120,205,85862,1,0,0:0:0:0:
81,233,86091,1,8,0:0:0:0:
127,343,86549,1,8,0:0:0:0:
240,305,87007,2,0,L|305:331,1,60,8|2,0:0|0:0,0:0:0:0:
334,299,87465,1,8,0:0:0:0:
449,330,87923,1,10,0:0:0:0:
490,217,88381,6,0,P|462:161|399:134,2,120,12|10|8,0:0|0:0|0:0,0:0:0:0:
447,239,89526,1,2,0:0:0:0:
401,254,89755,1,8,0:0:0:0:
291,204,90213,1,8,0:0:0:0:
238,96,90667,2,0,L|257:33,1,60,8|2,0:0|0:0,0:0:0:0:
372,11,91349,1,2,0:0:0:0:
400,49,91576,2,0,L|381:112,1,60,8|0,0:0|0:0,0:0:0:0:
341,131,92031,5,12,0:0:0:0:
440,198,92485,1,10,0:0:0:0:
345,272,92940,2,0,L|257:286,1,60,8|2,0:0|0:0,0:0:0:0:
238,275,93394,1,8,0:0:0:0:
203,308,93622,1,0,3:0:0:0:
174,346,93849,1,4,0:0:0:0:
256,192,97456,12,4,100149,3:0:0:0:
100,60,101038,6,0,P|159:67|196:136,1,120,4|0,0:0|0:0,0:0:0:0:
180,159,101723,1,2,3:2:0:0:
142,188,101952,2,0,L|156:265,2,60,0|0|0,0:0|3:0|0:0,0:0:0:0:
95,176,102638,1,2,3:2:0:0:
50,193,102866,1,0,0:0:0:0:
42,312,103323,2,0,L|125:325,1,60,2|0,0:2|3:0,0:0:0:0:
146,337,103775,1,0,0:0:0:0:
182,368,103998,2,0,B|228:326|228:326|314:350,1,120,2|0,0:2|3:0,0:0:0:0:
329,326,104667,6,0,L|303:194,1,120,4|0,0:0|0:0,0:0:0:0:
339,174,105345,1,0,0:0:0:0:
386,171,105571,2,2,L|448:190,2,60,0|0|0,0:0|0:0|0:0,0:0:0:0:
293,94,106476,2,0,L|278:30,2,60,0|0|0,1:0|3:0|0:0,0:0:0:0:
266,134,107155,1,2,3:1:0:0:
153,91,107608,1,2,3:1:0:0:
106,78,107834,2,0,L|43:100,1,60,0|2,0:0|3:1,0:0:0:0:
26,140,108286,5,0,0:0:0:0:
37,186,108513,1,0,3:0:0:0:
45,233,108739,1,2,0:0:0:0:
129,317,109191,2,0,L|202:325,1,60,2|0,0:0|0:0,0:0:0:0:
224,291,109644,1,0,0:0:0:0:
327,351,110096,1,0,0:0:0:0:
372,336,110323,2,0,P|386:258|377:202,1,120,0|0,3:0|3:0,0:0:0:0:
346,185,111001,2,0,L|275:201,2,60,0|0|0,0:0|3:0|0:0,0:0:0:0:
452,128,111906,6,0,P|429:64|367:51,1,120,2|0,0:0|0:0,0:0:0:0:
267,17,112811,1,0,0:0:0:0:
231,49,113038,2,0,P|217:81|208:107,1,60,2|0,3:1|0:0,0:0:0:0:
132,197,113716,2,0,L|60:206,2,60,0|0|0,0:0|3:0|0:0,0:0:0:0:
176,216,114395,1,0,3:0:0:0:
206,253,114621,1,2,0:0:0:0:
129,346,115074,1,2,0:0:0:0:
245,375,115526,6,0,L|339:355,1,60,2|0,0:0|0:0,0:0:0:0:
347,342,115979,1,0,0:0:0:0:
391,359,116205,1,2,3:1:0:0:
437,346,116431,2,0,P|456:278|426:221,1,120
338,167,117336,2,0,L|271:188,1,60,0|0,0:0|3:0,0:0:0:0:
249,221,117789,1,0,0:0:0:0:
156,144,118241,2,0,L|171:78,1,60,2|0,0:0|3:0,0:0:0:0:
215,71,118694,2,0,L|230:5,1,60,2|0,0:0|3:0,0:0:0:0:
276,9,119138,6,0,P|360:26|406:96,1,120,6|8,0:0|0:0,0:0:0:0:
399,94,119830,1,0,0:0:0:0:
432,128,120061,2,0,L|446:273,1,120,14|8,0:0|0:0,0:0:0:0:
458,366,120984,2,0,L|529:350,2,60,8|8|8,3:0|3:0|3:0,0:0:0:0:
347,319,121900,2,0,L|276:303,1,60,8|8,3:0|3:0,0:0:0:0:
240,305,122358,1,8,3:0:0:0:
196,325,122587,1,8,3:0:0:0:
151,342,122816,6,0,P|115:287|118:216,1,120,6|8,0:0|0:0,0:0:0:0:
160,124,123732,2,0,L|140:61,2,60,6|0|8,0:0|0:0|0:0,0:0:0:0:
193,157,124419,1,0,0:0:0:0:
227,190,124648,2,0,L|296:172,1,60,8|8,3:0|3:0,0:0:0:0:
308,133,125105,1,8,3:0:0:0:
425,158,125562,2,0,L|422:236,1,60,8|8,3:0|3:0,0:0:0:0:
448,258,126019,1,8,3:0:0:0:
474,297,126248,1,8,3:0:0:0:
509,329,126476,6,0,P|426:341|372:358,1,120,4|8,0:0|0:0,0:0:0:0:
272,363,127390,2,0,P|194:333|179:252,1,120,12|8,0:0|0:0,0:0:0:0:
143,271,128076,1,0,0:0:0:0:
96,260,128305,2,0,L|15:278,2,60,8|8|8,3:0|3:0|3:0,0:0:0:0:
189,184,129219,1,8,3:0:0:0:
209,140,129448,1,8,3:0:0:0:
180,101,129676,2,0,L|109:113,1,60,8|0,3:0|3:0,0:0:0:0:
78,87,130133,5,4,0:0:0:0:
180,24,130590,1,10,0:0:0:0:
292,52,131048,1,10,0:0:0:0:
331,78,131284,1,0,0:0:0:0:
310,121,131520,2,0,L|329:201,1,60,8|0,0:0|3:0,0:0:0:0:
359,212,131992,1,2,0:0:0:0:
256,192,132223,12,8,136625,0:0:0:0:
512,273,137551,5,8,0:0:0:0:
393,289,138004,1,8,0:0:0:0:
275,314,138458,1,8,0:0:0:0:
156,331,138912,1,8,0:0:0:0:
80,237,139365,6,0,P|83:161|90:100,2,120,14|10|8,0:0|0:0|0:0,0:0:0:0:
46,271,140499,1,2,0:0:0:0:
12,305,140726,2,0,P|21:338|34:384,1,60,8|0,0:0|0:0,0:0:0:0:
73,377,141180,1,10,0:0:0:0:
178,320,141634,2,0,P|210:326|246:335,1,60,10|0,0:0|0:0,0:0:0:0:
279,363,142087,1,8,0:0:0:0:
279,363,142314,2,0,P|311:356|347:348,1,60,0|8,0:0|0:0,0:0:0:0:
378,324,142768,6,0,B|400:283|354:212|354:212|338:257|296:261,1,180,2|8,0:2|0:0,0:0:0:0:
202,215,143902,2,0,L|132:198,2,60,2|0|8,0:2|0:0|0:0,0:0:0:0:
234,179,144583,1,0,0:0:0:0:
275,153,144806,2,0,L|253:19,1,120,0|8,0:0|0:0,0:0:0:0:
296,9,145482,1,2,0:2:0:0:
414,26,145933,2,0,L|485:52,1,60,0|8,3:0|0:0,0:0:0:0:
493,164,146610,5,0,0:0:0:0:
456,195,146836,2,0,L|476:264,1,60,2|8,3:2|0:0,3:0:0:0:
391,340,147512,2,0,L|315:335,1,60,2|0,0:2|0:0,0:0:0:0:
293,305,147963,1,8,0:0:0:0:
250,328,148189,2,0,B|161:351|171:257|46:301,1,180,2|8,0:2|0:0,0:0:0:0:
45,176,149317,1,0,0:0:0:0:
29,130,149542,1,2,3:2:0:0:
14,84,149768,2,0,L|81:71,1,60,8|0,0:0|0:0,0:0:0:0:
111,101,150219,6,0,L|178:114,1,60,2|0,0:2|3:0,3:0:0:0:
213,93,150677,1,8,0:0:0:0:
321,143,151135,1,0,0:0:0:0:
358,112,151364,2,0,L|425:99,2,60,2|8|0,0:2|0:0|0:0,0:0:0:0:
313,94,152051,2,0,P|303:26|408:13,1,180,2|2,0:2|0:2,0:0:0:0:
436,22,152953,1,0,3:0:0:0:
486,130,153404,2,0,L|498:198,1,60,8|0,0:0|0:0,0:0:0:0:
467,227,153855,5,2,0:2:0:0:
350,199,154306,1,8,0:0:0:0:
305,181,154532,2,0,P|244:197|168:216,1,120,2|0,0:2|0:0,0:0:0:0:
144,190,155208,1,8,0:0:0:0:
37,244,155660,1,2,0:2:0:0:
124,326,156111,1,8,0:0:0:0:
167,304,156336,2,0,P|225:318|283:333,1,120
316,299,157013,1,8,0:0:0:0:
422,354,157465,6,0,P|486:306|481:251,1,120,6|8,0:2|0:0,0:0:0:0:
503,224,158157,1,0,0:0:0:0:
468,191,158388,2,0,P|409:183|331:173,1,120,6|8,0:2|0:0,0:0:0:0:
234,138,159311,2,0,L|157:155,2,60,6|0|8,0:2|0:0|0:0,0:0:0:0:
319,53,160227,1,2,0:2:0:0:
359,26,160456,1,0,0:0:0:0:
406,33,160685,2,0,L|419:98,1,60,8|0,0:0|0:0,0:0:0:0:
453,123,161143,6,0,P|447:189|441:272,1,120,6|8,0:2|0:0,0:0:0:0:
340,304,162066,1,6,0:2:0:0:
301,275,162296,2,0,P|304:251|310:209,2,60,0|8|0,0:0|0:0|0:0,0:0:0:0:
254,285,162989,1,6,0:2:0:0:
135,263,163447,1,8,0:0:0:0:
98,294,163676,2,0,P|30:268|5:204,1,120,2|0,0:2|0:0,0:0:0:0:
23,183,164363,1,8,0:0:0:0:
124,118,164821,6,0,L|250:99,1,120,6|8,0:2|0:0,0:0:0:0:
284,76,165508,1,0,0:0:0:0:
319,43,165737,1,6,0:2:0:0:
427,93,166195,1,8,0:0:0:0:
343,178,166653,2,0,P|342:208|345:245,1,60,6|0,0:2|0:0,0:0:0:0:
371,277,167111,1,8,0:0:0:0:
254,307,167569,2,0,P|217:312|179:332,1,60,2|0,0:2|0:0,0:0:0:0:
153,342,168027,1,8,0:0:0:0:
111,330,168256,1,0,0:0:0:0:
67,321,168485,5,6,0:2:0:0:
256,192,169203,12,0,172334,0:0:0:0:
