osu file format v14

[General]
AudioFilename: audio.mp3
AudioLeadIn: 0
PreviewTime: 13036
Countdown: 0
SampleSet: Normal
StackLeniency: 0.7
Mode: 0
LetterboxInBreaks: 0
WidescreenStoryboard: 0

[Editor]
DistanceSpacing: 1.1
BeatDivisor: 4
GridSize: 4
TimelineZoom: 0.9

[Metadata]
Title:Somebody To Love
TitleUnicode:Somebody To Love
Artist:Jefferson Airplane
ArtistUnicode:Jefferson Airplane
Creator:allein
Version:Insane
Source:
Tags:surrealistic pillow psychedelic rock english folk
BeatmapID:3888610
BeatmapSetID:1888186

[Difficulty]
HPDrainRate:6
CircleSize:4
OverallDifficulty:7
ApproachRate:7
SliderMultiplier:1.7
SliderTickRate:1

[Events]
//Background and Video events
0,0,"659594.jpg",0,0
//Break Periods
//Storyboard Layer 0 (Background)
//Storyboard Layer 1 (Fail)
//Storyboard Layer 2 (Pass)
//Storyboard Layer 3 (Foreground)
//Storyboard Layer 4 (Overlay)
//Storyboard Sound Samples

[TimingPoints]
-1181,451.127819548872,4,1,0,65,1,0
619,-100,4,1,0,65,0,0
9633,444.444444444444,4,1,0,65,1,0
13633,470.588235294118,4,1,0,65,1,0
14103,-200,4,1,0,50,0,0
15045,451.127819548872,4,1,0,70,1,0
15045,-80,4,1,0,70,0,0
18654,454.545454545455,4,1,0,70,1,0
18654,-80,4,1,0,70,0,0
25926,447.761194029851,4,1,0,70,1,0
25926,-80,4,1,0,60,0,0
28164,-100,4,1,0,60,0,0
32866,-80,4,1,0,60,0,0
33531,-100,4,1,0,60,0,0
33979,454.545454545455,4,1,0,65,1,0
34888,458.015267175572,4,1,0,65,1,0
38539,451.127819548872,4,1,0,65,1,0
52975,454.545454545455,4,1,0,70,1,0
52975,-80,4,1,0,70,0,0
60247,447.761194029851,4,1,0,70,1,0
60247,-80,4,1,0,70,0,0
63830,458.015267175573,4,1,0,70,1,0
64284,-80,4,1,0,70,0,0
66557,-100,4,1,0,60,0,0
66571,454.545454545455,4,1,0,60,1,0
72011,-80,4,1,0,70,0,0
78375,451.127819548872,4,1,0,70,1,0
81081,454.545454545455,4,1,0,70,1,0
81081,-80,4,1,0,70,0,0
84717,458.015267175573,4,1,0,70,1,0
84717,-80,4,1,0,70,0,0
90213,454.545454545455,4,1,0,70,1,0
92485,-80,4,1,0,70,0,0
94303,-100,4,1,0,70,0,0
94749,451.127819548872,4,1,0,60,1,0
95652,451.127819548872,4,1,0,60,1,0
99035,-98.0392156862745,4,1,0,60,0,0
99261,444.444444444444,4,1,0,60,1,0
101038,457.142857142857,4,1,0,65,1,0
103775,446.096654275093,4,1,0,65,1,0
104667,452.488687782805,4,1,0,75,1,1
104667,-74.0740740740741,4,1,0,75,0,1
105571,-58.8235294117647,4,1,0,75,0,1
106476,-80,4,1,0,75,0,1
110096,-100,4,1,0,70,0,0
119137,-80,4,1,0,70,0,0
119138,461.538461538461,4,1,0,70,1,0
119138,-80,4,1,0,70,0,0
120984,458.015267175572,4,1,0,70,1,0
122816,-80,4,1,0,70,0,0
124648,457.142857142857,4,1,0,70,1,0
126476,-80,4,1,0,70,0,0
130590,-100,4,1,0,70,0,0
131048,472.440944881889,4,1,0,70,1,0
131992,463.320463320463,4,1,0,60,1,0
137551,453.686200378072,4,1,0,70,1,0
139365,-80,4,1,0,70,0,0
144806,451.127819548872,4,1,0,70,1,0
144806,-80,4,1,0,70,0,0
150219,458.015267175572,4,1,0,70,1,0
150219,-80,4,1,0,70,0,0
152051,451.127819548872,4,1,0,70,1,0
152051,-80,4,1,0,70,0,0
157465,461.538461538461,4,1,0,70,1,0
157465,-80,4,1,0,70,0,0
159311,458.015267175572,4,1,0,70,1,0
159311,-80,4,1,0,70,0,0
161143,461.538461538461,4,1,0,70,1,0
161143,-80,4,1,0,70,0,0
162989,458.015267175572,4,1,0,70,1,0
162989,-80,4,1,0,70,0,0
168485,-100,4,1,0,70,0,0
168943,521.739130434782,4,1,0,70,1,0
169464,-100,4,2,0,60,0,0
169986,-100,4,2,0,50,0,0
170508,-100,4,2,0,40,0,0
171029,-100,4,2,0,30,0,0
171551,-100,4,2,0,20,0,0
172073,-100,4,2,0,10,0,0
172595,-100,4,2,0,5,0,0

[Colours]
Combo1 : 255,205,53
Combo2 : 104,255,104
Combo3 : 74,156,255
Combo4 : 244,72,98

[HitObjects]
433,270,172,5,0,2:0:0:0:
433,270,397,1,0,2:0:0:0:
333,213,623,6,0,L|314:375,1,127.5,12|0,0:0|0:0,0:0:0:0:
299,347,1074,2,0,L|197:363,1,85,8|0,0:0|0:0,0:0:0:0:
0,291,1525,1,8,0:0:0:0:
176,226,1751,1,2,0:0:0:0:
101,165,1976,1,8,0:0:0:0:
57,346,2202,1,0,0:0:0:0:
59,224,2428,6,0,L|71:119,1,85,8|0,0:0|3:0,0:0:0:0:
68,139,2766,1,0,3:0:0:0:
68,139,2879,1,8,0:0:0:0:
139,92,3104,1,0,0:0:0:0:
219,46,3330,1,8,0:0:0:0:
378,55,3555,1,2,0:0:0:0:
483,196,3781,1,8,0:0:0:0:
492,273,4006,1,0,0:0:0:0:
389,247,4232,6,0,P|418:188|520:138,2,170,8|8|8,0:0|0:0|0:0,0:0:0:0:
372,362,5360,1,0,0:0:0:0:
443,341,5585,1,8,0:0:0:0:
227,299,5811,1,0,3:0:0:0:
185,310,5924,1,0,3:0:0:0:
146,328,6037,6,0,P|91:294|80:210,1,127.5,10|0,0:0|0:0,0:0:0:0:
96,200,6488,1,8,0:0:0:0:
218,122,6713,1,0,0:0:0:0:
101,23,6939,2,0,P|110:72|114:120,1,85,8|0,0:0|0:0,0:0:0:0:
209,214,7390,1,8,0:0:0:0:
209,214,7615,1,0,0:0:0:0:
346,127,7841,6,0,P|389:103|407:55,1,85,10|0,0:0|3:0,0:0:0:0:
405,30,8179,1,0,3:0:0:0:
366,11,8292,1,8,0:0:0:0:
275,87,8518,1,2,0:0:0:0:
420,250,8743,1,8,0:0:0:0:
512,189,8969,1,0,0:0:0:0:
440,147,9194,1,8,0:0:0:0:
512,280,9420,1,0,0:0:0:0:
334,321,9633,6,0,L|182:350,1,127.5,8|0,0:0|0:0,0:0:0:0:
169,325,10077,1,8,0:0:0:0:
32,211,10299,1,0,0:0:0:0:
166,173,10521,1,8,0:0:0:0:
120,237,10744,1,2,0:0:0:0:
80,84,10966,1,8,0:0:0:0:
227,61,11188,1,0,0:0:0:0:
267,214,11410,1,8,0:0:0:0:
166,173,11632,5,0,3:0:0:0:
166,173,11744,1,0,3:0:0:0:
166,173,11855,1,8,0:0:0:0:
317,132,12077,1,0,0:0:0:0:
429,243,12299,1,8,0:0:0:0:
317,132,12521,1,0,0:0:0:0:
353,0,12744,1,8,0:0:0:0:
317,132,12966,1,0,0:0:0:0:
512,151,13188,5,4,1:0:0:0:
0,227,13632,1,4,1:0:0:0:
252,252,14103,6,0,L|260:163,1,85,0|0,2:0|2:0,2:0:0:0:
259,167,15045,6,0,L|285:350,1,159.375,4|0,0:0|0:0,0:0:0:0:
319,348,15496,2,0,B|362:318|362:318|426:346,1,106.25,8|0,0:0|0:0,0:0:0:0:
479,142,15947,1,8,0:0:0:0:
430,69,16172,1,2,0:0:0:0:
267,83,16398,1,8,0:0:0:0:
316,10,16623,1,0,0:0:0:0:
363,112,16849,5,8,0:0:0:0:
195,35,17075,1,0,3:0:0:0:
195,35,17187,1,0,3:0:0:0:
195,35,17300,1,8,0:0:0:0:
115,165,17526,1,2,0:0:0:0:
274,209,17751,2,0,L|242:92,1,106.25,8|0,0:0|0:0,0:0:0:0:
128,278,18202,2,0,L|96:161,1,106.25,10|0,0:0|0:0,0:0:0:0:
285,353,18654,6,0,B|354:324|354:324|435:372,1,159.375,8|0,0:0|0:0,0:0:0:0:
459,325,19108,2,0,L|491:208,1,106.25,10|0,0:0|0:0,0:0:0:0:
342,94,19563,1,8,0:0:0:0:
294,199,19790,1,2,0:0:0:0:
342,94,20017,1,8,0:0:0:0:
465,92,20244,1,0,0:0:0:0:
344,0,20472,5,8,0:0:0:0:
414,167,20699,1,0,3:0:0:0:
414,167,20813,1,0,3:0:0:0:
414,167,20926,1,8,0:0:0:0:
188,183,21154,1,2,0:0:0:0:
241,55,21381,1,8,0:0:0:0:
300,144,21608,1,0,0:0:0:0:
129,99,21835,1,10,0:0:0:0:
284,268,22063,1,0,3:0:0:0:
284,268,22176,1,0,3:0:0:0:
284,268,22290,6,0,P|351:235|504:221,2,212.5,8|10|8,0:0|0:0|0:0,0:0:0:0:
200,252,23426,1,2,0:0:0:0:
68,265,23654,1,8,0:0:0:0:
5,149,23881,1,0,0:0:0:0:
144,46,24108,6,0,L|171:178,1,106.25,8|0,0:0|3:0,0:0:0:0:
152,179,24449,1,0,3:0:0:0:
134,205,24563,1,8,0:0:0:0:
78,123,24790,1,2,0:0:0:0:
242,77,25017,1,8,0:0:0:0:
387,165,25244,1,2,0:0:0:0:
223,211,25472,1,8,0:0:0:0:
312,117,25699,5,0,0:0:0:0:
462,212,25926,2,0,P|449:290|436:380,1,159.375,12|0,0:0|0:0,0:0:0:0:
406,367,26373,2,0,P|361:359|281:348,1,106.25,10|0,0:0|0:0,0:0:0:0:
42,262,26821,1,8,0:0:0:0:
176,241,27045,1,2,0:0:0:0:
191,372,27269,1,8,0:0:0:0:
109,201,27493,1,0,3:0:0:0:
124,173,27605,1,0,3:0:0:0:
139,145,27717,1,0,0:0:0:0:
139,145,28164,6,0,L|171:286,1,127.5,4|0,0:0|0:0,0:0:0:0:
196,274,28612,1,0,0:0:0:0:
266,217,28836,2,0,L|247:135,1,85,2|0,0:2|0:0,0:0:0:0:
394,26,29284,6,0,P|458:41|480:151,1,170,10|0,0:0|0:0,0:0:0:0:
487,207,29955,2,0,L|400:221,1,85
343,168,30403,1,0,0:0:0:0:
480,352,30739,5,0,0:0:0:0:
480,352,30851,2,0,B|457:365|457:365|377:323|377:323|342:328,1,127.5,2|0,0:2|0:0,0:0:0:0:
352,314,31299,2,0,L|337:378,1,42.5
246,367,31523,6,0,B|225:335|180:331|180:331|193:294,2,85,2|0|0,0:2|0:0|0:0,0:0:0:0:
96,358,32194,1,0,0:0:0:0:
108,352,32306,1,0,0:0:0:0:
93,346,32418,1,2,0:2:0:0:
244,248,32642,1,0,0:0:0:0:
10,362,32866,6,0,L|154:245,1,159.375,14|0,0:2|0:0,0:0:0:0:
155,242,33314,1,0,0:0:0:0:
322,260,33537,5,0,0:0:0:0:
322,260,33649,2,0,L|206:216,1,85,2|0,0:2|0:0,0:0:0:0:
171,79,33979,6,0,L|191:201,1,85,4|0,3:0|0:0,0:0:0:0:
184,162,34319,1,8,0:0:0:0:
184,162,34433,1,8,0:0:0:0:
44,190,34660,1,4,3:0:0:0:
283,54,34888,5,4,0:0:0:0:
384,117,35117,1,0,3:0:0:0:
283,54,35346,1,0,0:0:0:0:
384,117,35575,1,0,3:0:0:0:
286,189,35804,1,2,1:2:0:0:
291,164,35918,1,0,3:0:0:0:
296,139,36033,1,0,3:0:0:0:
357,23,36262,1,2,0:2:0:0:
510,189,36491,1,0,3:0:0:0:
510,189,36605,1,0,3:0:0:0:
510,189,36720,6,0,L|353:210,1,127.5,2|0,0:2|3:0,0:0:0:0:
362,193,37178,1,2,0:2:0:0:
235,316,37407,1,0,3:0:0:0:
421,318,37636,1,2,0:2:0:0:
288,252,37865,1,2,0:0:0:0:
367,380,38094,1,0,0:0:0:0:
152,289,38323,1,0,3:0:0:0:
152,289,38437,1,0,3:0:0:0:
152,289,38539,6,0,P|168:219|264:175,1,170,2|0,0:0|0:0,0:0:0:0:
358,112,39215,1,2,0:0:0:0:
253,16,39441,2,0,P|264:58|269:109,2,85,0|0|0,0:0|3:0|0:0,0:0:0:0:
340,6,40117,1,0,3:0:0:0:
159,115,40343,6,0,L|54:86,1,85,0|0,0:0|3:0,0:0:0:0:
57,75,40681,1,0,3:0:0:0:
54,49,40794,1,0,0:0:0:0:
164,197,41020,2,0,L|209:284,1,85,2|0,0:0|0:0,0:0:0:0:
146,324,41471,1,0,3:0:0:0:
344,372,41696,2,0,L|467:342,1,127.5,2|0,0:0|0:0,0:0:0:0:
489,307,42148,5,0,0:0:0:0:
434,166,42373,1,0,3:0:0:0:
434,166,42486,1,0,3:0:0:0:
434,166,42599,1,0,0:0:0:0:
286,207,42824,1,0,3:0:0:0:
393,236,43050,1,0,0:0:0:0:
322,118,43275,1,0,3:0:0:0:
211,181,43501,2,0,L|169:273,1,85,0|0,0:0|3:0,0:0:0:0:
32,131,43952,6,0,P|38:63|133:15,1,170,2|0,0:0|0:0,0:0:0:0:
251,73,44629,1,2,0:0:0:0:
166,106,44854,1,0,0:0:0:0:
208,4,45080,1,2,0:0:0:0:
380,114,45305,1,0,0:0:0:0:
338,12,45531,1,0,3:0:0:0:
265,148,45757,6,0,L|285:292,1,127.5,2|0,0:0|0:0,0:0:0:0:
224,328,46208,1,0,0:0:0:0:
409,374,46433,2,0,P|450:348|455:304,1,85,2|0,0:0|0:0,0:0:0:0:
421,166,46884,1,0,3:0:0:0:
382,164,46997,1,0,3:0:0:0:
356,192,47110,1,2,0:0:0:0:
500,237,47335,1,0,3:0:0:0:
485,112,47561,6,0,P|425:119|360:19,1,170
257,2,48238,1,0,3:0:0:0:
179,91,48463,1,0,0:0:0:0:
255,130,48689,1,2,0:0:0:0:
257,2,48914,1,0,0:0:0:0:
101,41,49140,1,0,3:0:0:0:
143,196,49366,6,0,L|168:296,1,85,0|0,0:0|3:0,0:0:0:0:
163,278,49704,1,0,3:0:0:0:
163,278,49817,1,2,0:0:0:0:
333,338,50042,1,0,3:0:0:0:
252,239,50268,1,0,0:0:0:0:
182,373,50493,1,2,0:0:0:0:
335,254,50719,1,0,0:0:0:0:
366,231,50832,1,0,3:0:0:0:
397,209,50945,1,0,3:0:0:0:
512,291,51170,6,0,L|487:391,1,85,2|0,0:0|0:0,0:0:0:0:
335,254,51621,2,0,L|360:154,1,85
468,19,52072,1,2,0:0:0:0:
501,97,52298,1,0,0:0:0:0:
384,20,52523,1,2,0:0:0:0:
417,98,52749,1,0,0:0:0:0:
257,139,52975,6,0,B|192:93|192:93|99:137,1,159.375,4|0,0:0|0:0,0:0:0:0:
75,128,53429,2,0,L|99:244,1,106.25,8|0,0:0|0:0,0:0:0:0:
209,334,53884,1,8,0:0:0:0:
318,303,54111,1,2,0:0:0:0:
198,204,54338,1,8,0:0:0:0:
66,333,54565,1,0,3:0:0:0:
66,333,54679,1,0,3:0:0:0:
66,333,54793,6,0,L|291:371,1,212.5,8|8,0:0|0:0,0:0:0:0:
411,268,55475,1,2,0:0:0:0:
338,310,55702,1,8,0:0:0:0:
497,372,55929,1,0,0:0:0:0:
512,226,56156,2,0,P|460:186|395:180,1,106.25,10|0,0:0|0:0,0:0:0:0:
214,141,56611,6,0,P|231:82|328:49,1,159.375,8|0,0:0|0:0,0:0:0:0:
342,24,57065,2,0,L|368:145,1,106.25,10|0,0:0|0:0,0:0:0:0:
322,352,57520,1,8,0:0:0:0:
233,269,57747,1,2,0:0:0:0:
338,208,57975,1,8,0:0:0:0:
427,291,58202,1,0,0:0:0:0:
322,352,58429,5,8,0:0:0:0:
256,182,58656,1,0,3:0:0:0:
256,182,58770,1,0,3:0:0:0:
256,182,58884,1,8,0:0:0:0:
423,202,59111,1,2,0:0:0:0:
323,89,59338,2,0,L|344:205,1,106.25,8|0,0:0|0:0,0:0:0:0:
484,137,59793,1,10,0:0:0:0:
255,5,60020,1,0,3:0:0:0:
255,5,60134,1,0,3:0:0:0:
255,5,60247,6,0,L|214:229,2,212.5,8|10|8,0:0|0:0|0:0,0:0:0:0:
151,35,61366,1,2,0:0:0:0:
78,64,61590,1,8,0:0:0:0:
3,94,61814,1,0,0:0:0:0:
101,240,62038,5,8,0:0:0:0:
146,145,62261,1,0,3:0:0:0:
146,145,62373,1,0,3:0:0:0:
146,145,62485,1,8,0:0:0:0:
22,225,62709,1,2,0:0:0:0:
195,218,62933,1,8,0:0:0:0:
50,135,63157,1,2,0:0:0:0:
64,361,63381,1,8,0:0:0:0:
84,285,63605,1,0,0:0:0:0:
105,211,63829,1,12,0:0:0:0:
501,226,64288,6,0,L|484:360,1,106.25,10|0,0:0|0:0,0:0:0:0:
281,353,64746,1,8,0:0:0:0:
397,256,64975,1,2,0:0:0:0:
274,177,65204,1,8,0:0:0:0:
138,257,65433,1,0,3:0:0:0:
176,261,65547,1,0,3:0:0:0:
214,265,65662,1,8,0:0:0:0:
485,61,66120,2,0,L|301:99,1,159.375,12|0,0:0|0:0,0:0:0:0:
283,88,66571,6,0,L|296:-8,1,85,8|0,0:0|0:0,0:0:0:0:
77,164,67025,2,0,L|90:68,1,85,10|0,0:0|0:0,0:0:0:0:
213,261,67480,6,0,L|200:165,1,85,8|0,0:0|0:0,0:0:0:0:
201,176,67935,2,0,L|188:80,1,85,10|0,0:0|0:0,0:0:0:0:
364,347,68389,6,0,L|377:251,1,85,10|0,0:0|0:0,0:0:0:0:
290,291,68844,1,8,0:0:0:0:
362,263,69071,2,0,L|373:347,1,85,2|8,0:0|0:0,0:0:0:0:
193,255,69525,2,0,L|204:340,1,85,2|8,0:0|0:0,0:0:0:0:
289,371,69980,1,0,0:0:0:0:
438,248,70207,5,8,0:0:0:0:
512,280,70435,1,2,0:0:0:0:
435,276,70662,1,8,0:0:0:0:
509,244,70889,1,2,0:0:0:0:
317,224,71116,5,8,0:0:0:0:
234,219,71344,1,0,0:0:0:0:
180,156,71571,1,8,0:0:0:0:
190,74,71798,1,0,0:0:0:0:
432,54,72025,5,12,0:0:0:0:
411,158,72253,1,0,0:0:0:0:
387,261,72480,1,12,0:2:0:0:
361,364,72707,1,0,0:0:0:0:
135,289,72935,5,12,0:0:0:0:
144,179,73162,1,0,0:0:0:0:
63,213,73389,1,12,0:2:0:0:
115,81,73616,1,0,0:0:0:0:
234,243,73843,6,0,L|349:258,1,106.25,14|0,0:0|3:0,0:0:0:0:
375,279,74185,1,0,3:0:0:0:
399,313,74298,1,8,0:0:0:0:
502,236,74525,1,2,0:0:0:0:
441,384,74753,1,8,0:0:0:0:
395,169,74980,1,2,0:0:0:0:
456,21,75207,1,8,0:0:0:0:
373,58,75435,1,2,0:0:0:0:
511,136,75662,1,8,0:0:0:0:
300,113,75889,1,0,3:0:0:0:
264,125,76003,1,0,3:0:0:0:
227,132,76116,6,0,L|207:250,1,106.25,10|0,0:0|0:0,0:0:0:0:
275,368,76571,1,10,0:0:0:0:
368,306,76798,1,0,0:0:0:0:
117,196,77025,1,10,0:0:0:0:
124,307,77253,1,0,0:0:0:0:
327,182,77480,1,10,0:0:0:0:
227,132,77707,1,0,3:0:0:0:
227,132,77821,1,0,3:0:0:0:
227,132,77934,6,0,L|247:250,1,106.25,10|0,0:0|0:0,0:0:0:0:
409,276,78375,1,8,0:0:0:0:
466,113,78600,1,2,3:2:0:0:
428,105,78713,1,0,3:0:0:0:
391,116,78826,1,8,0:0:0:0:
363,143,78938,1,0,3:0:0:0:
352,180,79051,1,0,3:0:0:0:
506,280,79277,2,0,P|495:239|490:184,1,85,8|0,0:0|0:0,0:0:0:0:
304,370,79728,2,0,P|315:329|320:274,1,85,8|0,0:0|0:0,0:0:0:0:
107,73,80179,5,10,0:0:0:0:
43,210,80405,1,0,0:0:0:0:
111,153,80630,1,10,0:0:0:0:
47,291,80856,1,0,0:0:0:0:
223,266,81081,6,0,B|350:222|315:343|453:312,1,212.5,4|10,0:0|0:0,0:0:0:0:
501,143,81762,1,0,3:0:0:0:
493,101,81876,1,0,3:0:0:0:
485,59,81990,2,0,P|430:66|395:117,1,106.25,4|0,0:0|0:0,0:0:0:0:
489,235,82444,1,8,0:0:0:0:
264,166,82671,1,0,3:0:0:0:
264,166,82785,1,0,3:0:0:0:
264,166,82899,6,0,L|283:33,1,106.25,14|0,0:0|0:0,0:0:0:0:
310,41,83240,1,0,3:0:0:0:
345,28,83353,1,8,0:0:0:0:
339,194,83581,1,0,0:0:0:0:
17,217,83808,2,0,L|181:134,1,159.375,10|0,0:0|0:0,0:0:0:0:
158,107,84262,1,8,0:0:0:0:
86,80,84490,1,0,0:0:0:0:
113,272,84717,6,0,L|146:415,1,106.25,12|0,0:0|0:0,0:0:0:0:
295,269,85174,2,0,L|324:399,1,106.25,10|0,0:0|0:0,0:0:0:0:
486,262,85632,1,10,0:0:0:0:
453,116,85861,1,0,0:0:0:0:
304,139,86090,1,8,0:0:0:0:
416,196,86319,1,2,0:0:0:0:
318,42,86548,5,8,0:0:0:0:
200,144,86777,1,0,3:0:0:0:
184,177,86892,1,0,3:0:0:0:
169,211,87006,1,8,0:0:0:0:
110,330,87235,1,2,0:0:0:0:
58,191,87464,1,8,0:0:0:0:
221,350,87693,1,0,0:0:0:0:
169,211,87922,1,10,0:0:0:0:
341,277,88151,1,0,3:0:0:0:
341,277,88266,1,0,3:0:0:0:
341,277,88380,6,0,P|411:262|436:166,1,159.375,12|0,0:0|0:0,0:0:0:0:
457,149,88838,2,0,L|415:28,1,106.25,10|0,0:0|0:0,0:0:0:0:
227,26,89296,1,8,0:0:0:0:
100,100,89525,1,2,0:0:0:0:
227,26,89754,1,8,0:0:0:0:
354,100,89983,1,0,0:0:0:0:
330,17,90212,5,8,0:0:0:0:
209,119,90440,1,0,3:0:0:0:
209,119,90554,1,0,3:0:0:0:
209,119,90667,1,8,0:0:0:0:
355,203,90895,1,2,0:0:0:0:
196,281,91122,1,8,0:0:0:0:
356,375,91349,5,2,0:0:0:0:
337,293,91577,1,8,0:0:0:0:
241,209,91804,5,0,0:0:0:0:
260,127,92031,1,12,0:0:0:0:
477,159,92485,6,0,L|508:322,1,159.375,10|0,0:0|0:0,0:0:0:0:
477,336,92940,1,8,0:0:0:0:
374,366,93167,1,2,0:0:0:0:
309,262,93394,1,8,0:0:0:0:
409,277,93622,1,0,3:0:0:0:
409,277,93735,1,0,3:0:0:0:
409,277,93849,1,4,0:0:0:0:
165,358,94303,6,0,L|9:333,1,127.5,4|0,0:0|0:0,0:0:0:0:
12,310,94749,1,0,0:0:0:0:
74,253,94974,1,0,0:0:0:0:
9,176,95200,5,4,3:0:0:0:
180,104,95425,2,0,P|222:140|231:251,1,170,8|0,0:0|0:0,0:0:0:0:
151,312,96103,2,0,L|137:361,2,42.5,0|2|0,3:0|3:2|3:0,3:0:0:0:
274,368,96554,2,0,P|320:360|361:353,1,85
498,266,97005,2,0,P|452:258|411:251,1,85
286,151,97456,6,0,B|275:105|275:105|295:64,1,85,0|2,0:0|0:2,0:0:0:0:
375,41,97907,1,0,3:0:0:0:
384,42,98020,1,0,3:0:0:0:
378,50,98133,1,0,3:0:0:0:
462,85,98358,1,0,0:0:0:0:
274,58,98584,2,0,L|230:22,1,42.5,2|0,3:2|0:0,0:0:0:0:
222,19,98809,1,0,0:0:0:0:
3,125,99035,6,0,B|31:112|31:112|138:152|138:152|171:134,1,171.699996594086,12|0,0:0|0:0,0:0:0:0:
309,247,99705,2,0,B|240:193|240:193|255:173|249:138,1,127.5
251,156,100149,2,0,L|238:254,1,85,4|0,3:0|0:0,0:0:0:0:
216,258,100483,1,8,0:0:0:0:
192,275,100594,1,8,0:0:0:0:
123,225,100816,1,4,3:0:0:0:
302,359,101038,5,4,0:0:0:0:
467,322,101266,1,0,3:0:0:0:
467,322,101380,1,0,3:0:0:0:
467,322,101495,1,0,0:0:0:0:
458,144,101723,1,2,3:2:0:0:
291,185,101952,2,0,L|310:282,1,85,0|0,0:0|3:0,0:0:0:0:
463,226,102409,1,0,0:0:0:0:
357,49,102638,6,0,B|344:63|344:63|340:109,1,42.5,2|0,3:2|3:0,0:0:0:0:
257,115,102866,2,0,B|245:105|245:105|161:116|161:116|126:94,1,127.5
117,76,103323,1,2,0:2:0:0:
189,22,103552,1,0,3:0:0:0:
40,17,103775,2,0,L|25:107,1,85,0|2,0:0|0:2,0:0:0:0:
5,178,104221,1,0,0:0:0:0:
5,178,104332,1,0,3:0:0:0:
5,178,104444,1,0,3:0:0:0:
462,113,104667,6,0,B|510:91|510:91|413:79,1,114.750000437737,4|0,0:0|3:0,0:0:0:0:
375,99,105006,1,0,3:0:0:0:
338,83,105119,1,0,0:0:0:0:
435,209,105345,1,0,0:0:0:0:
85,360,105571,6,2,B|38:189|38:189|62:97,1,216.750004134178,0|0,0:0|0:0,0:0:0:0:
87,159,106024,1,0,0:0:0:0:
74,199,106137,1,0,3:0:0:0:
64,239,106250,1,0,3:0:0:0:
345,303,106476,5,0,1:0:0:0:
187,252,106703,1,0,3:0:0:0:
292,375,106929,1,0,0:0:0:0:
272,223,107155,2,0,L|250:144,1,53.125,2|0,3:1|3:0,3:0:0:0:
306,114,107381,1,0,0:0:0:0:
138,180,107608,6,0,L|160:101,1,53.125,2|0,3:1|3:0,3:0:0:0:
104,71,107834,1,0,0:0:0:0:
428,144,108060,6,0,L|406:65,1,53.125,2|0,3:1|3:0,3:0:0:0:
462,34,108286,1,0,0:0:0:0:
503,265,108513,5,0,3:0:0:0:
503,265,108626,1,0,3:0:0:0:
503,265,108739,2,0,B|447:255|447:255|375:289,1,106.25,2|0,0:0|0:0,0:0:0:0:
137,343,109191,2,0,L|299:369,1,159.375,2|0,0:0|0:0,0:0:0:0:
321,342,109644,2,0,L|302:275,1,53.125,0|0,0:0|3:0,0:0:0:0:
335,218,109870,1,0,3:0:0:0:
115,72,110096,6,0,L|102:180,1,85,0|0,0:0|3:0,0:0:0:0:
82,185,110435,1,0,3:0:0:0:
58,202,110549,1,0,0:0:0:0:
36,85,110775,1,0,3:0:0:0:
198,122,111001,1,0,0:0:0:0:
137,274,111227,1,0,3:0:0:0:
277,343,111454,2,0,L|376:326,1,85
512,197,111906,6,0,L|428:211,1,85,2|0,0:0|0:0,0:0:0:0:
308,143,112359,1,0,0:0:0:0:
323,118,112472,1,0,3:0:0:0:
350,107,112585,1,0,3:0:0:0:
448,119,112811,1,0,0:0:0:0:
250,23,113037,1,2,3:1:0:0:
223,36,113150,1,0,3:0:0:0:
195,47,113264,2,0,L|169:161,1,85,0|0,0:0|3:0,0:0:0:0:
246,285,113716,5,0,0:0:0:0:
323,240,113942,1,0,3:0:0:0:
314,211,114055,1,0,3:0:0:0:
304,182,114169,1,0,0:0:0:0:
135,235,114395,1,0,3:0:0:0:
187,364,114621,1,2,0:0:0:0:
458,298,114847,1,0,3:0:0:0:
512,353,115073,1,2,0:0:0:0:
380,82,115300,1,0,3:0:0:0:
322,132,115526,6,0,L|142:177,1,170,2|0,0:0|0:0,0:0:0:0:
68,273,116205,1,2,3:1:0:0:
41,260,116318,1,0,3:0:0:0:
17,243,116431,2,0,L|43:144,1,85,0|0,0:0|3:0,0:0:0:0:
252,277,116883,2,0,L|226:376,1,85,0|0,0:0|3:0,0:0:0:0:
510,292,117336,5,0,0:0:0:0:
475,218,117562,1,0,3:0:0:0:
305,197,117788,1,0,0:0:0:0:
340,123,118015,1,0,3:0:0:0:
416,316,118241,5,2,0:0:0:0:
342,281,118467,1,0,3:0:0:0:
132,352,118693,1,2,0:0:0:0:
167,278,118920,1,0,3:0:0:0:
124,119,119138,6,0,L|294:172,1,159.375,6|0,0:0|0:0,0:0:0:0:
313,166,119599,1,8,0:0:0:0:
359,19,119830,1,0,0:0:0:0:
511,141,120061,6,0,L|341:88,1,159.375,14|0,0:0|0:0,0:0:0:0:
322,94,120522,1,8,0:0:0:0:
280,241,120753,1,0,0:0:0:0:
509,274,120984,5,8,3:0:0:0:
448,215,121213,1,8,3:0:0:0:
354,368,121442,1,8,3:0:0:0:
352,283,121671,1,8,3:0:0:0:
182,287,121900,1,8,3:0:0:0:
240,225,122129,1,8,3:0:0:0:
112,114,122358,1,8,3:0:0:0:
196,111,122587,1,8,3:0:0:0:
364,14,122816,6,0,L|400:202,1,159.375,6|0,0:0|0:0,0:0:0:0:
432,189,123274,1,8,0:0:0:0:
310,305,123503,1,0,3:0:0:0:
310,305,123617,1,0,3:0:0:0:
310,305,123732,2,0,B|221:272|238:347|146:331,1,159.375,6|0,0:0|0:0,0:0:0:0:
142,290,124190,1,8,0:0:0:0:
278,378,124419,1,0,0:0:0:0:
250,129,124648,5,8,3:0:0:0:
210,39,124876,1,8,3:0:0:0:
319,190,125104,1,8,3:0:0:0:
409,150,125333,1,8,3:0:0:0:
258,259,125562,1,8,3:0:0:0:
298,350,125790,1,8,3:0:0:0:
189,199,126019,1,8,3:0:0:0:
99,239,126247,1,8,3:0:0:0:
338,278,126476,6,0,L|505:297,1,159.375,4|0,0:0|0:0,0:0:0:0:
512,272,126933,1,8,0:0:0:0:
512,148,127162,1,0,0:0:0:0:
375,40,127390,6,0,L|214:18,1,159.375,12|0,0:0|0:0,0:0:0:0:
201,46,127847,1,8,0:0:0:0:
201,170,128076,1,0,0:0:0:0:
413,199,128304,5,8,3:0:0:0:
305,137,128533,1,8,3:0:0:0:
306,352,128762,1,8,3:0:0:0:
414,289,128990,1,8,3:0:0:0:
222,174,129219,1,8,3:0:0:0:
223,299,129448,1,8,3:0:0:0:
319,234,129676,1,8,3:0:0:0:
144,236,129905,1,0,3:0:0:0:
109,248,130019,1,0,3:0:0:0:
73,260,130133,1,4,0:0:0:0:
343,349,130590,6,0,L|505:373,1,127.5,10|0,0:0|0:0,0:0:0:0:
506,335,131048,1,10,0:0:0:0:
512,251,131284,1,0,0:0:0:0:
353,223,131520,1,8,0:0:0:0:
205,296,131756,1,0,3:0:0:0:
205,296,131874,1,0,3:0:0:0:
205,296,131992,6,0,L|33:342,2,170,2|8|8,0:0|0:0|0:0,0:0:0:0:
253,227,133150,1,0,0:0:0:0:
238,142,133382,1,8,0:0:0:0:
160,104,133613,1,0,0:0:0:0:
75,140,133845,2,0,L|98:237,1,85,10|0,0:0|0:0,0:0:0:0:
322,353,134308,2,0,L|358:218,1,127.5,8|0,0:0|0:0,0:0:0:0:
373,210,134772,5,8,0:0:0:0:
453,231,135003,1,0,0:0:0:0:
512,167,135235,1,8,0:0:0:0:
432,146,135467,1,0,0:0:0:0:
311,37,135698,5,8,0:0:0:0:
332,117,135930,1,0,0:0:0:0:
223,7,136161,1,8,0:0:0:0:
244,87,136393,1,0,0:0:0:0:
58,104,136625,5,8,0:0:0:0:
37,184,136856,1,0,0:0:0:0:
146,74,137088,1,8,0:0:0:0:
125,154,137320,1,0,0:0:0:0:
343,118,137551,5,8,0:0:0:0:
370,201,137777,1,0,3:0:0:0:
362,247,137890,1,0,3:0:0:0:
329,279,138004,1,8,0:0:0:0:
246,306,138231,1,0,0:0:0:0:
168,265,138457,1,8,0:0:0:0:
141,182,138684,1,0,0:0:0:0:
182,104,138911,1,8,0:0:0:0:
265,77,139138,1,0,0:0:0:0:
495,200,139365,6,0,L|471:363,1,159.375,14|0,0:0|0:0,0:0:0:0:
428,352,139819,2,0,L|318:378,1,106.25,10|0,0:0|0:0,0:0:0:0:
99,320,140273,1,8,0:0:0:0:
153,264,140500,1,2,0:0:0:0:
344,266,140727,1,8,0:0:0:0:
290,210,140954,1,0,0:0:0:0:
233,325,141181,5,10,0:0:0:0:
196,156,141407,1,0,3:0:0:0:
196,156,141521,1,0,3:0:0:0:
196,156,141634,1,10,0:0:0:0:
351,130,141861,1,0,0:0:0:0:
174,49,142088,2,0,L|58:30,1,106.25,8|0,0:0|0:0,0:0:0:0:
34,121,142542,1,8,0:0:0:0:
262,306,142768,6,0,B|304:298|315:257|315:257|356:235|410:254|384:316|471:313,1,212.5,2|0,0:2|3:0,0:0:0:0:
512,234,143336,1,0,3:0:0:0:
503,227,143449,2,0,P|447:234|398:304,1,106.25,8|0,0:0|0:0,0:0:0:0:
95,205,143903,6,0,B|78:206|47:197|48:242|12:249|12:249|14:226|47:197,1,159.375,2|0,0:2|0:0,0:0:0:0:
98,284,144356,2,0,B|110:291|110:291|101:324|110:363|110:363|124:380,1,106.25,8|0,0:0|0:0,0:0:0:0:
239,238,144806,6,0,L|262:73,1,159.375
241,55,145257,1,8,0:0:0:0:
427,105,145482,6,0,B|438:83|395:33|433:5,2,106.25,2|0|0,0:2|0:0|3:0,0:0:0:0:
512,81,146046,1,0,3:0:0:0:
512,81,146159,2,0,B|484:88|484:88|354:32,1,159.375,8|0,0:0|0:0,0:0:0:0:
334,8,146610,1,0,0:0:0:0:
155,36,146836,6,0,B|146:38|146:38|125:107,1,53.125,2|0,3:2|3:0,3:0:0:0:
203,120,147061,1,8,0:0:0:0:
57,69,147287,1,0,0:0:0:0:
11,198,147512,1,2,0:2:0:0:
11,198,147625,1,0,3:0:0:0:
11,198,147738,2,0,B|30:183|30:183|134:218,1,106.25,0|8,0:0|0:0,0:0:0:0:
303,268,148189,2,0,B|291:246|291:246|218:265|218:265|168:317|168:317|121:330,1,212.5,2|0,0:2|0:0,0:0:0:0:
376,384,148866,6,0,B|501:344|501:344|520:302,1,159.375,8|0,0:0|0:0,0:0:0:0:
500,289,149317,1,0,0:0:0:0:
390,166,149542,2,0,L|368:237,1,53.125,2|0,3:2|3:0,3:0:0:0:
376,159,149768,2,0,L|341:268,1,106.25,8|0,0:0|0:0,0:0:0:0:
68,305,150219,6,0,B|15:292|15:292|60:321,1,106.25,2|0,0:2|3:0,3:0:0:0:
119,379,150562,1,0,3:0:0:0:
119,379,150677,2,0,L|79:176,1,159.375,8|0,0:0|0:0,0:0:0:0:
78,191,151135,1,0,0:0:0:0:
231,112,151364,2,0,P|267:149|205:205,1,106.25,2|8,0:2|0:0,0:0:0:0:
238,203,151707,2,0,L|215:145,1,53.125,0|0,3:0|0:0,0:0:0:0:
476,0,152051,6,0,B|487:11|487:11|395:140|395:140|403:194,1,212.5,2|8,0:2|0:0,0:0:0:0:
473,338,152727,2,0,B|475:357|475:357|511:366|511:366|522:328|522:328|491:315,1,106.25,2|0,0:2|3:0,0:0:0:0:
453,262,153066,1,0,3:0:0:0:
453,262,153178,1,0,0:0:0:0:
307,349,153404,2,0,L|183:376,1,106.25,8|0,0:0|0:0,0:0:0:0:
0,337,153855,6,0,B|19:258|86:251|86:251|90:269|120:293,1,159.375,2|0,0:2|0:0,0:0:0:0:
128,283,154306,1,8,0:0:0:0:
286,175,154532,2,0,P|246:126|192:144,1,106.25,2|0,0:2|3:0,0:0:0:0:
151,187,154870,1,0,3:0:0:0:
151,187,154983,1,0,0:0:0:0:
299,258,155208,1,8,0:0:0:0:
406,154,155434,1,0,0:0:0:0:
512,298,155660,6,0,L|349:324,1,159.375,2|0,0:2|0:0,0:0:0:0:
330,348,156111,1,8,0:0:0:0:
202,325,156336,1,0,0:0:0:0:
221,191,156562,2,0,L|240:73,1,106.25,2|0,0:2|0:0,0:0:0:0:
402,159,157013,1,8,0:0:0:0:
415,193,157126,1,0,3:0:0:0:
428,227,157238,1,0,3:0:0:0:
509,33,157465,6,0,B|480:27|480:27|317:71,1,159.375,6|0,0:2|0:0,0:0:0:0:
333,67,157926,2,0,L|345:2,1,53.125,8|0,0:0|0:0,0:0:0:0:
258,54,158157,2,0,L|270:-11,1,53.125
106,114,158388,6,0,B|27:110|27:110|107:133,1,159.375,6|0,0:2|0:0,0:0:0:0:
140,201,158849,2,0,L|171:258,1,53.125,8|0,0:0|0:0,0:0:0:0:
142,322,159080,1,0,0:0:0:0:
472,222,159311,6,0,B|379:204|428:272|334:242|328:336,1,159.375,6|0,0:2|0:0,0:0:0:0:
426,335,159769,2,0,P|457:343|490:352,1,53.125,8|0,0:0|0:0,0:0:0:0:
477,348,159998,2,0,L|526:338,2,26.5625
248,368,160227,5,2,0:2:0:0:
269,263,160456,1,0,0:0:0:0:
293,159,160685,1,8,0:0:0:0:
315,55,160914,1,0,0:0:0:0:
156,37,161143,6,0,B|43:72|43:72|-10:54,1,159.375,6|0,0:2|0:0,0:0:0:0:
0,135,161604,2,0,L|18:194,1,53.125,8|0,0:0|0:0,0:0:0:0:
23,204,161835,1,0,0:0:0:0:
168,273,162066,1,6,0:2:0:0:
168,273,162181,2,0,B|178:287|178:287|293:241,1,106.25
275,228,162527,1,8,0:0:0:0:
234,152,162758,1,0,0:0:0:0:
386,271,162989,6,0,B|387:288|387:288|492:325|492:325|507:365,1,159.375,6|0,0:2|0:0,0:0:0:0:
482,362,163447,1,8,0:0:0:0:
257,344,163676,2,0,B|206:326|206:326|267:337,2,106.25,2|0|0,0:2|0:0|0:0,0:0:0:0:
336,355,164248,1,0,0:0:0:0:
336,355,164363,1,8,0:0:0:0:
136,372,164592,1,0,0:0:0:0:
66,81,164821,6,0,B|110:69|182:108|174:222,1,159.375,6|0,0:2|0:0,0:0:0:0:
127,236,165279,2,0,L|64:260,1,53.125,8|0,0:0|0:0,0:0:0:0:
1,254,165508,1,0,0:0:0:0:
320,64,165737,2,0,B|447:13|447:13|503:42,1,159.375,6|0,0:2|0:0,0:0:0:0:
493,38,166195,2,0,B|503:55|503:55|483:165,1,106.25,8|0,0:0|0:0,0:0:0:0:
334,242,166653,6,0,L|348:305,1,53.125,6|0,0:2|0:0,0:0:0:0:
420,307,166882,1,0,0:0:0:0:
206,270,167111,6,0,L|145:285,1,53.125,8|0,0:0|0:0,0:0:0:0:
141,356,167340,1,0,0:0:0:0:
178,142,167569,6,0,L|164:83,1,53.125,2|0,0:2|0:0,0:0:0:0:
92,77,167798,1,0,0:0:0:0:
306,114,168027,6,0,L|369:99,1,53.125,8|0,0:0|0:0,0:0:0:0:
371,28,168256,1,0,0:0:0:0:
457,214,168485,5,6,0:2:0:0:
472,214,168599,1,0,3:0:0:0:
460,204,168714,1,0,3:0:0:0:
512,280,168943,1,0,0:0:0:0:
350,309,169203,1,4,0:0:0:0:
256,192,169334,12,0,172595,0:0:0:0:
